#TITLE:Wings of Icaros;
#SUBTITLE:Difference (2005);
#ARTIST:Dreamtale;
#TITLETRANSLIT:;
#SUBTITLETRANSLIT:;
#ARTISTTRANSLIT:;
#CREDIT:;
#BANNER:BN.png;
#BACKGROUND:BG.png;
#LYRICSPATH:;
#CDTITLE:CDTitle.gif;
#MUSIC:Dreamtale - Wings of Icaros.mp3;
#OFFSET:-0.140;
#SAMPLESTART:61.748;
#SAMPLELENGTH:12.000;
#SELECTABLE:YES;
#BPMS:0.000=168.050;
#STOPS:800.000=0.800
;
#BGCHANGES:;
// cache tags:
#FIRSTBEAT:0.000;
#LASTBEAT:809.500;
#SONGFILENAME:Songs/Astronomic Metal Collection/Wings of Icaros (charlo)/Wings of Icaros.sm;
#HASMUSIC:1;
#HASBANNER:1;
#MUSICLENGTH:294.993;
// end cache tags

//---------------dance-single - Blank----------------
#NOTES:
     dance-single:
     Blank:
     Hard:
     13:
     1.000,1.000,1.000,0.803,1.000,2218.000,341.000,237.000,0.000,0.000:
1100
0110
0101
0011
1010
0110
1001
0011
,
0101
1100
0110
1001
0011
0110
1100
1001
,
1100
1010
0101
1010
0110
1001
0011
0110
,
1100
1001
0011
0101
1100
1010
0110
0101
,
0011
1100
1100
0010
0100
0101
0101
1000
,
0010
1001
1001
0001
0100
0110
0110
1000
,
0001
0000
0000
0100
0010
0000
1001
0000
0000
0010
0100
0000
0011
0000
0000
0100
,
1000
0010
0100
0001
0010
0001
1000
0010
1000
0100
0010
0001
0100
0010
1000
0100
,
0011
1000
0100
0010
0001
1000
0010
1000
0001
0100
0001
0010
0100
1000
0010
0100
,
0001
0010
0100
1000
0100
0010
0001
1000
0010
0100
0001
0100
0010
1000
0100
0010
,
0100
1000
0001
0010
0100
0010
0001
1000
0100
0010
0100
1000
0001
1000
0010
0100
,
0010
1000
0001
0100
0010
1000
0001
1000
0001
1000
0100
0010
0001
0100
0010
1000
,
0100
0010
0100
1000
0010
0100
0001
1000
0001
0100
0010
1000
0100
0010
0001
0100
,
0010
1000
0010
0100
0001
0010
0100
1000
0010
0100
0010
1000
0001
1000
0100
0010
,
1001
0011
0101
1100
1010
0110
1001
0011
,
0101
0110
1100
1010
1001
0011
0110
1100
,
0102
0000
0000
0000
0000
0000
0000
0000
0100
0000
0000
0000
2000
0000
0000
3003
,
0020
0000
0000
0030
2000
0000
0000
3000
0220
0000
0000
0330
2020
0000
0000
3030
,
1100
0000
0010
0000
0100
0001
0010
0000
1000
0000
0100
0000
1000
0010
0100
0000
,
0001
0000
0010
0000
0100
1000
0100
0000
1000
0000
0010
0000
0100
0001
0010
0000
,
1100
0010
0001
0100
0010
0100
0001
0010
0100
1000
0001
0100
0001
1000
0010
1000
,
0100
0010
0001
0100
0010
1000
0100
0010
0100
1000
0001
0100
0001
1000
0010
0100
,
0001
0010
0100
1000
0001
0100
0001
0010
0100
1000
0001
0100
0001
0100
0010
1000
,
0010
0000
0100
0000
0002
0000
0000
0003
1000
0000
0100
0000
2000
0000
0000
3000
,
0010
0000
0100
0000
2000
0000
0000
3000
0100
0010
0001
0100
0010
1000
0100
1000
,
0001
0100
0001
0010
0100
1000
0010
0100
0010
1000
0001
1000
0010
0100
0001
0100
,
0010
1000
0100
0010
0100
1000
0010
1000
0001
0100
0010
1000
0100
0010
0100
1000
,
0001
0100
0010
0100
0001
0010
0100
0010
0001
0100
0010
1000
0100
1000
0001
0100
,
0001
1000
0010
1000
0001
0010
0001
0100
0010
1000
0100
0010
0100
1000
0010
0100
,
0001
0100
0001
1000
0010
1000
0010
0100
0001
0010
0100
1000
0010
1000
0100
0010
,
0001
0010
0001
1000
0010
0100
0001
0100
0010
0100
0001
0010
0100
1000
0010
0100
,
0001
0010
0100
1000
0010
0100
0001
0010
0001
1000
0010
1000
0100
0010
0100
1000
,
0022
0000
0000
0033
0220
0000
0000
0330
1001
0100
0010
0100
1000
0010
0100
0010
,
1000
0001
1000
0010
0100
0001
0010
0001
1000
0100
0010
0001
1000
0010
1000
0001
,
0010
0100
1000
0100
1000
0010
0100
0001
0100
0010
1000
0100
0010
0100
1000
0001
,
0100
0010
1000
0100
0010
0100
1000
0001
0010
0100
1000
0001
0220
0000
0000
0330
,
2002
0000
0000
3003
0022
0000
0000
0033
1100
0010
0100
0001
1000
0100
0010
0100
,
1000
0001
0100
0010
0100
0001
1000
0100
0010
0100
1000
0001
1000
0010
0100
0010
,
1000
0001
0100
0010
1000
0100
0010
0001
0100
0001
0010
0100
1000
0001
1000
0001
,
1000
0100
0010
0001
0100
0010
1000
0100
0010
0100
1000
0001
2020
0000
0000
3030
,
0022
0000
0000
0033
2002
0000
0000
3003
0011
0100
1000
0001
0010
0100
1000
0001
,
0010
0001
1000
0100
0010
0100
1000
0001
0100
0010
1000
0100
0010
0001
0100
0010
,
1000
0100
0010
0001
1000
0100
1000
0001
0100
0010
1000
0100
0010
0001
1000
0010
,
0100
0010
1000
0001
0010
0100
0010
0001
1000
0100
1000
0001
0100
0001
1000
0010
,
1000
0001
0100
0001
1000
0100
1000
0001
0110
1000
0001
0100
0010
1000
0100
0010
,
0001
0010
0100
1000
0001
0100
0001
1000
0010
0100
0001
0010
0001
1000
0010
1000
,
0100
0000
0000
0010
0000
0000
0100
0000
0000
1000
0000
0000
0001
0000
0000
0010
0000
0000
0100
0000
0000
0010
0000
0000
0001
0000
1000
0000
0010
0000
0100
0000
0001
0000
0010
0000
0100
0000
1000
0000
0001
0000
0010
0000
0100
0000
0010
0000
,
0001
1000
0100
0010
0100
1000
0001
0100
0010
1000
0100
0010
0001
0100
0001
0010
0100
1000
0010
0100
0001
0010
0100
1000
,
0001
0000
0100
0000
0011
0110
1100
1001
,
0101
1010
0110
1001
0011
0110
1100
1001
,
1100
1010
1001
0011
0110
1010
0011
1010
,
0101
0011
0110
1100
1001
1010
0110
1001
,
1100
0101
0011
1100
0110
1001
0011
0110
,
1100
1001
1100
0110
0011
1001
1010
0110
,
1001
0101
1010
0110
1001
0011
1001
1100
,
0110
1001
0011
0101
1100
0110
0011
0101
,
1001
0011
0110
1100
1001
0011
0101
1100
,
0110
1001
0011
0110
1100
0101
0110
1001
,
1100
1010
1001
0011
0110
1100
1010
0011
,
0110
1100
1001
0011
0110
1100
1001
0011
,
0101
1100
1010
0110
1001
0101
0011
1001
,
1100
1001
0101
1100
0110
1001
0101
1100
,
0110
0011
1001
1010
0011
0110
1001
1100
,
0011
0101
0110
0101
0011
1001
1100
1001
,
0011
0000
0110
0000
1010
0000
1001
0000
0022
0000
0000
0000
0000
0000
0000
0003
,
0100
0000
0000
0000
2000
0000
0000
3030
0202
0000
0000
0300
0020
0000
0000
0033
,
2200
0000
0000
3300
2020
0000
0000
3030
0110
0000
0001
0000
1000
0010
0100
0000
,
1000
0000
0010
0000
0100
0010
0001
0000
0010
0000
0100
0000
1000
0001
0100
0000
,
0010
0000
0100
0000
1000
0100
1000
0000
0100
0010
0001
1000
0010
0100
0001
0100
,
0010
1000
0100
0010
0001
0100
0001
0010
0100
1000
0001
1000
0001
1000
0100
0010
,
0100
1000
0001
0100
0010
1000
0010
0100
0010
1000
0001
0010
0100
1000
0001
1000
,
0100
0010
0100
1000
0001
0100
0010
0100
0001
0000
1000
0000
0020
0000
0000
0000
,
0130
0000
0001
0000
0020
0000
0000
0000
1030
0000
0100
0000
2000
0000
0000
3000
,
0100
0010
0001
0100
0001
0010
0100
0010
0001
1000
0001
0100
0010
0100
0001
1000
,
0010
0100
0001
0010
0100
1000
0001
0100
0010
1000
0100
0010
0100
1000
0001
0010
,
0100
1000
0100
0010
0001
1000
0010
0100
0001
1000
0100
0010
0100
1000
0001
0100
,
0001
1000
0010
1000
0100
0010
0001
1000
0100
1000
0001
0100
0010
1000
0001
0100
,
0001
1000
0100
1000
0010
0100
0001
0010
0001
1000
0100
0010
0100
1000
0001
0100
,
0001
1000
0010
1000
0100
0010
0001
0010
0100
1000
0010
0100
0001
0010
0001
1000
,
0220
0000
0000
0000
0000
0000
0000
0330
2002
0000
0000
3003
2200
0000
0000
3300
,
0011
0100
1000
0010
0100
0001
0010
0100
2002
0000
0000
3003
0022
0000
0000
0033
,
1100
0010
0001
0100
0010
0100
0010
1000
0001
0100
0010
1000
0100
0010
0001
1000
,
0010
1000
0001
0100
0010
1000
0100
0010
0100
1000
0001
0010
0001
1000
0100
1000
,
0001
0010
0001
1000
0010
0100
0001
0010
0100
0010
0001
0100
0001
1000
0001
0100
,
0010
0100
0001
1000
0220
0000
0000
0330
0202
0000
0000
0303
0022
0000
0000
0033
,
1100
0010
0100
0001
0010
0100
1000
0001
0100
0001
1000
0010
1000
0001
0100
0001
,
1000
0100
0010
0100
1000
0010
1000
0100
0010
0100
1000
0001
1000
0010
0100
0010
,
1000
0001
0100
0010
1000
0001
0010
0100
1000
0001
1000
0100
0010
0001
0100
0010
,
1000
0100
0010
0001
2200
0000
0000
3300
2002
0000
0000
3003
0202
0000
0000
0303
,
0011
0100
1000
0010
0100
0001
0010
0100
1000
0001
0100
0001
1000
0010
1000
0100
,
0010
0001
0100
0010
0100
0001
0010
0100
1000
0001
0010
0001
1000
0010
0100
0001
,
1000
0100
0010
0100
1000
0001
0100
0010
0100
0001
1000
0010
0100
0010
0100
0001
,
1000
0100
0010
0001
2020
0000
0000
3030
0220
0000
0000
0330
2200
0000
0000
3300
,
1001
0010
0100
1000
0010
0100
0001
0010
0001
1000
0010
1000
0001
0100
0001
1000
,
0100
1000
0010
0100
0001
0010
0001
1000
0010
0100
0001
0100
0010
1000
0100
0010
,
0001
1000
0100
0010
0001
0100
0010
0100
0001
0010
0100
1000
0001
0100
0001
1000
0010
0100
0001
0100
0010
1000
0100
0010
,
0001
0100
0001
0010
0100
1000
0001
0100
0010
1000
0100
1000
0011
0000
0000
0000
0000
0000
0011
0000
0000
0000
0000
0000
,
1001
0110
0011
0101
1100
1010
0110
1100
,
1001
0000
0011
0000
0110
0000
1100
0000
2002
0000
0000
3003
0002
0000
0203
0300
,
0022
0000
0000
0000
0000
0000
0000
0033
0202
0000
0000
0000
0000
0000
0000
0303
,
2200
0000
0000
0000
0000
0000
0000
3300
0220
0000
0000
0000
0000
0000
0000
0330
,
1001
0011
0110
0101
1010
1100
1001
0101
,
1100
0000
0000
0000
0000
0000
1010
0000
0000
0000
0000
0000
0101
0000
0000
0000
0000
0000
0011
0000
0000
0000
0000
0000
0220
0000
0000
0000
0000
0000
0000
0000
0000
0330
0000
0000
1000
0000
0000
0000
0100
0000
0000
0000
0010
0000
0000
0000
,
2002
0000
0000
0000
0000
0000
0000
0000
0000
0000
0000
3003
0011
0000
0000
0000
,
2200
0000
0000
0000
0000
0000
0000
0000
0000
0000
0000
0000
0000
0000
0000
3300
,
0202
0000
0000
0000
0000
0000
0000
0000
0000
0000
0000
0303
0110
0000
0000
0000
,
2200
0000
0000
0000
0000
0000
0000
0000
0000
0000
0000
0000
0000
0000
0000
3300
,
0202
0000
0000
0000
0000
0000
0000
0000
0000
0000
0000
0303
0011
0000
0000
0000
,
2002
0000
0000
0000
0000
0000
0000
0000
0000
0000
0000
0000
0000
0000
0000
3003
,
0110
0000
1000
0000
0022
0000
0000
0033
1010
0000
0100
0000
2002
0000
0000
3003
,
0101
0000
0001
0000
0220
0000
0000
0330
0202
0000
0000
0000
0000
0000
0000
0303
,
2010
0000
0000
3100
0201
0000
0000
0310
,
0021
0000
0000
0000
0000
0000
0031
0000
1002
0000
0000
0000
0100
0000
0000
0003
,
2001
0010
0100
0010
,
0100
0000
0000
0000
0001
0000
0000
3000
0210
0000
0000
0000
1000
0000
0000
0300
,
1002
0010
1000
0010
,
0100
0000
0000
0000
1000
0000
0000
0003
2010
0000
0000
0000
0100
0000
0000
3000
,
0120
0001
1000
0100
,
1000
0000
0000
0000
0001
0000
0000
0000
0100
0000
0000
0000
1000
0000
0000
0030
,
1200
0000
0000
0000
0010
0000
0000
0000
1000
0000
0000
0000
0010
0000
0000
0300
,
0002
1003
0200
0310
,
1020
0100
0001
1000
,
0100
0000
0000
0000
1000
0000
0000
0030
0102
0000
0000
0000
1000
0000
0000
0003
,
2100
0000
0000
0000
0010
0000
0000
0000
0100
0000
0000
0000
0001
0000
0000
3000
,
0210
0000
0000
0300
0010
0000
0000
0000
1002
0000
0000
0003
0010
0000
0000
0000
,
0210
0000
0000
0000
1000
0000
0000
0000
0001
0000
0000
0000
1000
0000
0000
0300
,
2001
0000
0000
3000
0010
0000
0000
0000
0102
0000
0000
0003
0010
0000
0000
0000
,
0100
0010
0100
0010
0100
0010
0100
0010
0100
0010
0100
0010
0200
0000
0000
0300
,
0012
0000
0000
0000
0000
0000
0000
0003
0120
0000
0000
0000
0000
0000
0000
0030
,
1001
0100
0010
0001
0100
0010
0100
0001
0010
0100
1000
0001
,
1100
0010
0001
0100
0010
0100
0001
0010
0100
1000
0010
0100
,
0001
0010
0001
1000
0010
1000
0001
0100
0001
1000
0100
0010
,
0001
0100
0010
0100
0001
1000
0001
1000
0100
0010
0100
1000
,
0010
0100
0001
0010
0100
0010
0001
1000
0010
0100
0001
0100
,
0010
1000
0100
0010
0001
0100
0010
0100
0001
0010
0100
1000
,
0001
0010
0100
1000
0001
0010
0001
1000
0100
1000
0001
0100
,
0012
0000
0000
0000
0000
0003
1020
0000
0000
0000
0000
0030
,
0200
0010
0301
2000
0010
3100
0002
0010
0103
2000
0001
3010
,
1001
0010
0100
1000
0010
0100
0001
1000
0001
0100
0010
1000
,
0100
1000
0001
0100
0001
0010
0100
1000
0100
0010
0001
0100
,
0001
0010
0100
1000
0100
0010
0100
1000
0001
0010
0001
0010
,
0001
0100
0010
1000
0100
0010
0001
1000
0001
0010
0100
1000
,
0010
0100
0001
0010
0100
1000
0010
0100
0010
0100
0010
1000
,
0001
1000
0001
1000
0100
0010
0100
1000
0001
0010
0100
0010
,
2001
0000
0000
0000
0000
3000
0120
0000
0000
0000
0000
0030
,
0002
0010
0103
2000
0010
3100
0020
1000
0130
2000
0001
3100
,
0002
0100
0013
2000
0100
3010
0200
1000
0301
0020
0100
1030
,
0102
0010
0100
1000
0100
0010
0100
1000
0103
0020
0100
0031
,
2000
0000
0100
0000
0010
0000
0001
0000
0000
3200
0010
0000
0001
0000
1000
0300
0001
0000
0020
0000
0100
0000
0031
0000
,
2000
0100
0010
0001
0010
0100
0001
0100
3010
0200
0010
0301
,
2000
0100
3010
0002
0100
0013
0200
0001
1300
0002
0010
0103
,
2000
0010
0100
0001
0100
3010
0002
0100
0010
1000
0010
0103
,
0020
1000
0130
2000
0010
3100
0002
0100
0013
2000
0001
3010
,
0200
0010
0301
2000
0100
3010
0200
1000
0301
0020
0100
1030
,
0002
1000
0103
0020
0001
0130
0002
0010
0103
2000
0010
3100
,
0011
0100
1000
0100
0010
0001
0100
0001
0010
0200
1000
0301
,
0020
0100
1030
0200
0010
0301
2000
0010
3100
0020
1000
0031
,
0220
0000
0000
0330
2002
0000
0000
3003
,
0022
0000
0000
0033
2200
0000
0000
3300
,
0010
0001
1000
0100
0010
0100
1000
0001
0100
0020
0100
0031
,
2000
0100
3010
0200
0010
0301
2000
0010
3100
0002
0010
0103
,
2020
0000
0000
3030
0022
0000
0000
0033
,
0202
0000
0000
0303
2200
0300
0020
3030
,
0100
0010
0001
1000
0100
0010
0001
1000
0100
0010
0001
0100
,
0010
0100
0001
0100
0001
1000
0010
0100
0001
0100
0010
1000
,
0100
0010
0001
0100
0010
0100
0001
0010
0001
1000
0010
1000
,
0100
0010
0001
0100
0010
0100
0001
0010
0100
1000
0001
0100
0001
1000
0100
0010
0001
0100
0010
1000
0100
0010
0001
0010
,
2200
0000
0000
3300
0202
0000
0000
0303
0022
0000
0000
0033
0220
0000
0000
0330
,
1001
0100
0010
0001
0100
0010
0100
0001
0010
0100
1000
0001
0100
0001
1000
0010
,
1000
0100
0010
0001
0100
0010
0100
0001
0010
0001
1000
0010
1000
0100
0010
0100
,
1000
0001
0010
0100
0010
0001
0100
0010
0100
0001
0010
0100
1000
0010
0100
0010
,
1000
0001
1000
0100
0022
0000
0000
0033
0220
0000
0000
0330
2002
0000
0000
3003
,
0110
0001
0010
0100
1000
0010
1000
0100
0010
0001
1000
0100
1000
0010
0100
0001
,
0010
0001
1000
0010
1000
0100
0010
0001
0100
0001
0010
0100
1000
0010
0100
0001
,
0010
0100
0010
0001
1000
0010
1000
0001
0100
0010
0100
0001
1000
0010
0100
0001
,
0100
0010
1000
0100
0022
0000
0000
0033
2002
0000
0000
3003
0220
0000
0000
0330
,
1100
0010
0001
0100
0010
1000
0100
1000
0001
0100
0001
0010
0001
0100
0010
1000
,
0100
0010
0100
1000
0001
0100
0001
1000
0010
1000
0100
1000
0001
0010
0001
0100
,
0010
1000
0100
1000
0001
0010
0001
1000
0010
0100
0001
1000
0010
1000
0001
0100
,
0001
0010
0001
1000
0200
0000
0000
0300
0020
0000
0000
0030
0002
0000
0000
0003
,
1100
0010
0100
0001
0010
0001
1000
0010
1000
0100
0010
0001
0100
0010
1000
0100
,
0010
0001
1000
0010
1000
0001
0010
0100
0010
0001
1000
0100
1000
0001
0010
0001
,
0100
0010
1000
0100
0010
0100
1000
0001
0100
0001
0010
0100
1000
0001
0010
0001
1000
0010
0100
0001
0100
0010
1000
0100
,
0010
0000
0001
0000
0100
0000
0010
0000
1000
0000
0100
0000
0010
0000
0001
0000
1000
0000
0010
0000
1000
0000
0001
0000
0220
0000
0000
0000
0000
0000
0000
0000
0000
0330
0000
0000
0220
0000
0000
0000
0000
0000
0000
0000
0000
0330
0000
0000
,
1001
0010
0100
1000
0010
0100
0001
0010
0001
1000
0100
1000
0010
0100
0010
1000
,
0001
1000
0100
0010
0100
1000
0001
1000
0010
0100
0010
1000
0001
0100
0010
1000
,
0100
0010
0001
1000
0001
0010
0100
0010
0001
0100
0001
0010
0001
1000
0100
0010
,
0001
0010
0100
1000
0220
0000
0000
0330
2002
0000
0000
3003
2020
0000
0000
3030
,
0011
0100
1000
0001
0010
0100
1000
0100
0010
0001
1000
0010
1000
0001
0100
0010
,
0100
0001
1000
0100
0010
0100
1000
0001
0010
0100
0010
0001
1000
0010
0100
0001
,
1000
0100
0010
0100
1000
0001
0010
0100
1000
0001
0010
0001
1000
0010
1000
0100
,
0010
0001
1000
0001
0220
0000
0000
0330
2020
0000
0000
3030
0220
0000
0000
0330
,
0101
1000
0100
0010
0100
1000
0001
0100
0001
1000
0010
1000
0100
0010
0001
0100
,
0001
0010
0100
0010
0001
1000
0100
0010
0100
1000
0010
0100
0001
0010
0100
1000
,
0001
0100
0001
1000
0100
1000
0010
0100
0001
0010
0001
0100
0010
1000
0100
1000
,
0001
0100
0010
1000
0200
0000
0000
0300
2000
0000
0000
3000
0020
0000
0000
0030
,
1100
0001
0010
0100
1000
0001
0100
0001
1000
0010
1000
0100
0010
0100
1000
0001
,
0100
0010
0100
0001
1000
0010
0100
0001
1000
0100
1000
0001
0010
0100
0010
0001
,
1000
0100
0010
0001
0100
0010
0100
0001
0010
0100
1000
0010
0100
0001
0010
0100
1000
0001
0010
0100
0010
0001
1000
0100
,
0010
0100
1000
0010
0100
0001
0100
0010
1000
0100
0010
0100
1000
0001
0100
0010
0100
0001
1000
0100
0010
0001
0100
0001
,
0010
0220
0000
0000
,
0000
0000
0000
0000
,
0000
0000
0000
0330
0000
0000
0000
0000
;
