#TITLE:The Last Angels Call;
#SUBTITLE:Symphony of Enchanted Lands 2 The Dark Secret (2004);
#ARTIST:Rhapsody;
#TITLETRANSLIT:;
#SUBTITLETRANSLIT:;
#ARTISTTRANSLIT:;
#CREDIT:;
#BANNER:Rapsody - The Last Angels Call_banner.jpg;
#BACKGROUND:Rapsody - The Last Angels Call_ BG.png;
#LYRICSPATH:;
#CDTITLE:!XOX-cdtitle.png;
#MUSIC:Rhapsody - Symphony Of Enchanted Lands II - 07 - The Last Angels Call.mp3;
#OFFSET:0.102;
#SAMPLESTART:33.725;
#SAMPLELENGTH:12.000;
#SELECTABLE:YES;
#BPMS:0.000=180.000,172.000=90.000,188.000=180.000,356.000=90.000,372.000=180.000,588.000=90.000,620.000=180.000;
#STOPS:;
#BGCHANGES:;
// cache tags:
#FIRSTBEAT:1.500;
#LASTBEAT:759.500;
#SONGFILENAME:Songs/Astronomic Metal Collection/The Last Angels Call (XOX)/The Last Angels Call.sm;
#HASMUSIC:1;
#HASBANNER:1;
#MUSICLENGTH:276.715;
// end cache tags

//---------------dance-single - ----------------
#NOTES:
     dance-single:
     :
     Hard:
     11:
     1.000,1.000,1.000,0.358,1.000,1749.000,302.000,99.000,0.000,26.000:
0000
0000
0000
1000
0100
0010
1001
0000
,
0001
0010
0100
0000
0001
0000
1000
0100
,
0010
0000
0000
0100
0010
1000
0101
0000
,
0010
0100
0001
0000
1000
0000
0010
1000
,
0100
0000
0000
0010
0100
1000
0110
0000
,
0100
0010
0001
0000
0001
0000
1002
1000
,
0100
0000
0000
0000
0000
0000
0000
0000
0000
1000
0000
0000
0010
0000
0000
0100
0000
0000
1003
0000
0100
0000
0010
0000
,
0001
1000
0010
0100
0001
0100
0010
1000
0010
0202
0000
0000
,
0000
0000
0000
0000
0000
0000
0000
0303
2020
0000
0000
3030
0220
0000
0000
0000
,
0000
0000
0000
0000
0000
0330
0001
0000
0010
0000
0100
0000
1001
0000
0000
0000
,
1000
0100
0010
0000
1000
0000
0001
0010
,
0100
0000
0000
0010
0100
0001
1010
0000
,
0100
0010
1000
0000
0001
0000
0100
0001
,
0010
0000
0000
0100
0010
0001
0110
0000
,
0010
0100
1000
0000
1000
0000
2001
0001
,
0010
0000
0000
0000
0000
0000
0000
0000
0000
0001
0000
0000
0100
0000
0000
0010
0000
0000
3001
0000
0010
0000
0100
0000
,
1000
0001
0100
0010
1000
0010
0100
0001
0100
2020
0000
0000
,
0000
0000
0000
0000
0000
0000
0000
3030
0202
0000
0000
0303
0220
0000
0000
0000
,
0000
0000
0000
0000
0000
0330
1000
0100
0010
0001
0100
0010
1001
0000
0010
0000
,
0101
0001
1000
0100
1010
1000
0001
0010
,
1001
0001
0100
0010
0101
1000
0001
1000
,
0110
0100
0010
1000
0110
0001
0100
0010
,
1001
0100
1000
0010
0101
1000
0001
0010
,
0101
1000
0010
0100
0011
1000
0001
0100
,
1010
0000
0000
0010
0000
0000
0001
0000
0000
1000
0000
0000
0011
0000
0000
1000
0000
0000
0001
0000
0010
0000
0100
0000
,
1000
0010
0100
0001
1000
0010
0100
0001
1000
0202
0000
0000
,
0000
0000
0000
0000
0000
0000
0000
0303
0220
0000
0000
0330
2020
0000
0000
0000
,
0000
0000
0000
0000
0000
0000
0000
3030
1000
0010
0100
0010
1001
0000
0000
0000
,
0110
0000
1000
0100
1010
0000
0001
0000
,
0110
0000
0001
0010
0101
0000
0010
0000
,
1100
0000
0010
0100
0011
0000
0100
0000
,
0011
0000
0100
0010
1100
0000
0010
0000
,
0101
0000
0010
0100
1010
0000
0100
0000
,
1010
0000
0100
0010
0101
0000
0010
0000
,
1100
0000
1000
0001
0110
0000
0001
0000
,
1100
0000
0001
1000
0110
0000
1001
0000
,
0110
0000
0010
0100
1010
0000
1000
0000
,
0110
0000
0001
0100
1010
0000
0001
0000
,
1010
0000
0100
0010
0011
0000
1000
0000
,
0101
0000
0010
0100
1100
0000
0001
0000
,
0110
0000
0010
0100
1001
0000
0010
0000
,
1100
0000
0010
0100
0110
0000
0100
0000
,
0011
0000
0100
0010
0110
0000
0001
0000
,
0110
0000
0000
1000
0001
0100
0010
1000
0100
0012
0000
0000
0000
0000
0000
0010
0000
0000
1000
0000
0000
0123
0000
0000
,
0000
0001
0000
2130
0000
0001
0010
3210
,
0000
0000
0000
1302
0000
0010
0100
1023
,
0000
0001
0000
1230
0000
0001
0010
2302
,
0000
0000
0000
3113
,
0000
0000
0000
0000
0001
0000
0000
0000
0100
0000
0000
0000
0001
0100
0001
0010
,
0100
0010
0100
1000
0001
0010
0100
1000
0010
0100
0001
0010
0100
0010
0001
1000
,
0100
0010
0001
0010
0001
1000
0001
0100
0010
1000
0001
1000
0100
1000
0010
1000
,
0100
0010
0001
0010
0100
1000
0001
0010
0100
0010
0001
1000
0100
1000
0010
0100
,
0010
1000
0100
0010
0001
0010
0100
1000
0010
0100
0001
0010
0100
1000
0001
0100
,
0010
0100
0001
0100
0010
0100
0001
1000
0100
0010
0001
0100
0010
1000
0100
0010
,
0001
1000
0001
0100
0001
1000
0001
0010
0100
0010
0001
1000
0100
1000
0010
0100
,
0010
1000
0100
0010
0100
1000
0001
0010
0001
0100
0010
0100
0001
0010
0001
1000
,
0100
0010
0100
1000
0001
0010
0100
1000
0001
0100
0010
1000
0001
0100
0010
1000
,
0001
0010
0100
0010
0001
1000
0100
1000
0001
0010
0100
1000
0001
0010
0001
0010
,
0100
0010
0100
1000
0100
1000
0001
0010
0100
0010
0001
1000
0100
1000
0001
0010
,
0100
1000
0001
0010
0100
1000
0100
0010
0100
1000
0010
0100
0001
0010
0100
1000
,
0001
0100
0010
0100
0001
1000
0100
0010
0001
1000
0010
0100
0010
1000
0001
0010
,
0100
1000
0001
0100
0010
1000
0010
0100
0001
0100
0010
1000
0100
0010
0001
0010
,
0100
1000
0001
0010
0100
0010
0001
1000
0100
1000
0001
1000
0100
0010
0100
1000
,
0001
0010
0001
1000
0001
0010
0100
1000
0010
0100
0001
0100
2002
0000
0000
0000
,
0000
0000
3003
1100
0101
0011
0110
0000
,
1001
0101
1010
0000
1001
0000
1100
0011
,
1100
0000
0000
0011
1001
0110
1010
0000
,
0101
0110
1010
0000
0110
0000
1001
0110
,
1001
0000
0000
1001
0011
0110
1100
0000
,
0101
0110
1010
0000
0110
0000
0110
1001
,
0110
0000
0000
0000
0000
0000
0000
0000
0000
0011
0000
0000
0110
0000
0000
1100
0000
0000
0001
0000
0010
0000
0100
0000
,
1000
0001
0100
0010
1000
0100
0010
0001
1000
0220
0000
0000
,
0000
0000
0000
0330
2200
0000
3322
0000
,
0000
0000
0000
0000
0000
0000
0033
0000
1000
0010
0100
0001
0110
0000
0000
0000
,
0110
0000
0001
0010
0101
0000
1000
0000
,
0110
0000
1000
0100
1010
0000
0100
0000
,
0011
0000
0100
0010
1100
0000
0010
0000
,
1100
0000
0010
0100
0011
0000
0100
0000
,
1010
0000
0100
0010
0101
0000
0010
0000
,
0101
0000
0010
0100
1010
0000
0100
0000
,
0011
0000
0001
1000
0110
0000
1000
0000
,
0011
0000
1000
0001
0110
0000
1001
0000
,
0110
0000
0100
0010
0101
0000
0001
0000
,
0110
0000
1000
0010
0101
0000
1000
0000
,
0101
0000
0010
0100
1100
0000
0001
0000
,
1010
0000
0100
0010
0011
0000
1000
0000
,
0110
0000
0100
0010
1001
0000
0100
0000
,
0011
0000
0100
0010
0110
0000
0010
0000
,
1100
0000
0010
0100
0110
0000
1000
0000
,
0110
0000
0000
0001
1000
0010
0100
0001
0010
2100
0000
0000
0000
0000
0000
0100
0000
0000
0001
0000
0000
3210
0000
0000
,
0000
1000
0010
0312
0000
1000
0100
0123
,
0000
0000
0000
2031
0000
0100
0010
3201
,
0000
1000
1000
0321
0000
1000
0100
2032
,
0000
0000
0000
3113
,
0000
0000
0000
0000
0001
0000
0000
0000
0100
0000
0000
0000
0001
0100
0001
0010
,
0100
0010
0100
1000
0001
0010
0100
1000
0010
0100
0001
0010
0100
0010
0001
1000
,
0100
0010
0001
0010
0001
1000
0001
0100
0010
1000
0001
1000
0100
1000
0010
1000
,
0100
0010
0001
0010
0100
1000
0001
0010
0100
0010
0001
1000
0100
1000
0010
0100
,
0010
1000
0100
0010
0001
0010
0100
1000
0010
0100
0001
0010
0100
1000
0001
0100
,
0010
0100
0001
0100
0010
0100
0001
1000
0100
0010
0001
0100
0010
1000
0100
0010
,
0001
1000
0001
0100
0001
1000
0001
0010
0100
0010
0001
1000
0100
1000
0010
0100
,
0010
1000
0100
0010
0100
1000
0001
0010
0001
0100
0010
0100
0001
0010
0001
1000
,
0100
0010
0100
1000
0001
0010
0100
1000
0001
0100
0010
1000
0001
0100
0010
1000
,
0001
0010
0100
0010
0001
1000
0100
1000
0001
0010
0100
1000
0001
0010
0001
0010
,
0100
0010
0100
1000
0100
1000
0001
0010
0100
0010
0001
1000
0100
1000
0001
0010
,
0100
1000
0001
0010
0100
1000
0100
0010
0100
1000
0010
0100
0001
0010
0100
1000
,
0001
0100
0010
0100
0001
1000
0100
0010
0001
1000
0010
0100
0010
1000
0001
0010
,
0100
1000
0001
0100
0010
1000
0010
0100
0001
0100
0010
1000
0100
0010
0001
0010
,
0100
1000
0001
0010
0100
0010
0001
1000
0100
1000
0001
1000
0100
0010
0100
1000
,
0001
0010
0001
1000
0001
0010
0100
1000
0010
0100
0001
0100
2002
0000
0000
0000
,
0000
0000
3003
0010
1000
0001
2100
0000
,
3020
0000
0000
1030
0100
0010
0102
0000
,
0203
0000
0000
0310
0010
1000
0021
0000
,
2030
0000
0000
3100
0100
0001
1020
0000
,
0230
0000
0000
0000
0000
0000
0310
0000
0001
0100
0010
0100
1001
0000
0100
0000
,
0110
0001
0100
1010
0101
0110
1001
0010
,
0110
1000
0001
0100
1001
1010
1001
0010
,
1000
0001
0010
1001
0101
1001
0110
1000
,
0001
0100
0001
1100
0110
0101
1010
0100
,
0101
0000
0000
1000
0000
0000
0001
0000
0010
0000
0100
0000
1000
0000
0000
0010
0000
0000
2002
0000
0000
0000
0000
0000
,
0000
0000
0000
0000
0000
0000
3103
0000
0001
0100
0010
0100
1001
0000
0100
0000
,
1010
0001
0010
0101
1010
0110
1001
0100
,
0110
0001
0010
0101
1010
0110
1100
0100
,
0011
0001
0100
1010
0110
0101
0011
0100
,
1100
0001
0010
0101
0110
1010
1100
0010
,
0101
0010
0100
1001
0110
1001
1010
0100
,
0101
0010
0100
1010
0110
0101
0110
1000
,
0001
0100
0010
0101
0110
1010
0110
0001
,
1000
0100
0001
1100
0011
0101
1001
0010
,
1001
0000
0000
0010
0000
0000
1000
0000
0100
0000
0010
0000
0001
0000
0000
0100
0000
0000
2002
0000
0000
0000
0000
0000
,
0000
0000
0000
0000
0000
0000
3003
0000
0001
0100
0010
0100
1001
0000
0000
0000
,
0000
0000
0000
0000
0001
0000
0000
0000
0100
0000
0000
0000
0001
0100
0001
0010
,
0100
0010
0100
1000
0001
0010
0100
1000
0010
0100
0001
0010
0100
0010
0001
1000
,
0100
0010
0001
0010
0001
1000
0001
0100
0010
1000
0001
1000
0100
1000
0010
1000
,
0100
0010
0001
0010
0100
1000
0001
0010
0100
0010
0001
1000
0100
1000
0010
0100
,
0010
1000
0100
0010
0001
0010
0100
1000
0010
0100
0001
0010
0100
1000
0001
0100
,
0010
0100
0001
0100
0010
0100
0001
1000
0100
0010
0001
0100
0010
1000
0100
0010
,
0001
1000
0001
0100
0001
1000
0001
0010
0100
0010
0001
1000
0100
1000
0010
0100
,
0010
1000
0100
0010
0100
1000
0001
0010
0001
0100
0010
0100
0001
0010
0001
1000
,
0100
0010
0100
1000
0001
0010
0100
1000
0001
0100
0010
1000
0001
0100
0010
1000
,
0001
0010
0100
0010
0001
1000
0100
1000
0001
0010
0100
1000
0001
0010
0001
0010
,
0100
0010
0100
1000
0100
1000
0001
0010
0100
0010
0001
1000
0100
1000
0001
0010
,
0100
1000
0001
0010
0100
1000
0100
0010
0100
1000
0010
0100
0001
0010
0100
1000
,
0001
0100
0010
0100
0001
1000
0100
0010
0001
1000
0010
0100
0010
1000
0001
0010
,
0100
1000
0001
0100
0010
1000
0010
0100
0001
0100
0010
1000
0100
0010
0001
0010
,
0100
1000
0001
0010
0100
0010
0001
1000
0100
1000
0001
1000
0100
0010
0100
1000
,
0001
0010
0001
1000
0001
0010
0100
1000
0010
0100
0001
0100
0010
1000
0100
0010
,
0001
0000
0000
0000
0000
0000
0100
0000
0000
0000
0000
0000
0010
0000
0000
0000
0000
0000
1000
0000
0000
0000
0000
0000
0001
0000
0000
0000
0000
0000
0000
0000
0010
0000
0000
0000
0000
0000
0000
0000
0100
0000
0000
0000
0000
0000
0000
0000
1000
0000
0000
0000
0000
0000
0000
0000
0010
0000
0000
0000
0000
0000
0000
0000
0100
0000
0000
0000
0000
0000
0000
0000
2000
0000
0000
0000
0000
0000
0000
0000
0000
0000
0000
0000
0000
0000
0000
0000
0000
0000
0000
0000
0000
0000
0000
0000
0000
0000
0000
0000
0000
0000
0000
0000
0000
0000
0000
0000
0000
0000
0000
0000
0000
0000
0000
0000
0000
0000
0000
0000
0002
0000
0000
0000
0000
0000
0000
0000
0000
0000
0000
0000
0000
0000
0000
0000
0000
0000
0000
0000
0000
0000
0000
0000
0000
0000
0000
0000
0000
0000
0000
0000
0000
0000
0000
0000
0003
0000
0000
0000
0000
0000
0000
0000
0000
0000
0000
0000
0200
0000
0000
0000
0000
0000
0000
0000
0000
0000
0000
0000
0000
0000
0000
0000
0000
0000
0000
0000
0000
0000
0000
0000
,
0000
0300
0020
0000
0000
0030
3102
0000
0000
0000
0000
0000
0010
0000
0100
0000
,
0000
0000
0010
0000
0100
0000
2023
0000
0000
0030
0200
0000
0000
0300
0002
0000
,
0000
0003
0020
0000
0000
0030
3120
0000
0000
0000
0000
0000
1000
0000
0100
0000
,
0000
0000
1000
0000
0100
0000
0232
0000
0000
0300
0020
0000
0000
0030
2000
0000
,
0000
3000
0200
0000
0000
0300
2013
0000
0000
0100
0000
0000
0001
0000
0100
0000
,
0000
0000
0001
0000
0100
0000
3022
0000
0000
0030
0200
0000
0000
0300
2203
0000
,
0000
3000
0020
0000
0000
0330
2002
0000
0000
0000
0000
0003
0100
0000
0010
0000
,
3000
0000
0100
0000
0001
0000
1000
0000
0010
0000
0100
0000
0001
0100
0001
0010
,
0100
0010
0100
1000
0001
0010
0100
1000
0010
0100
0001
0010
0100
0010
0001
1000
,
0100
0010
0001
0010
0001
1000
0001
0100
0010
1000
0001
1000
0100
1000
0010
1000
,
0100
0010
0001
0010
0100
1000
0001
0010
0100
0010
0001
1000
0100
1000
0010
0100
,
0010
1000
0100
0010
0001
0010
0100
1000
0010
0100
0001
0010
0100
1000
0001
0100
,
0010
0100
0001
0100
0010
0100
0001
1000
0100
0010
0001
0100
0010
1000
0100
0010
,
0001
1000
0001
0100
0001
1000
0001
0010
0100
0010
0001
1000
0100
1000
0010
0100
,
0010
1000
0100
0010
0100
1000
0001
0010
0001
0100
0010
0100
0001
0010
0001
1000
,
0100
0010
0100
1000
0001
0010
0100
1000
0001
0100
0010
1000
0001
0100
0010
1000
,
0001
0010
0100
0010
0001
1000
0100
1000
0001
0010
0100
1000
0001
0010
0001
0010
,
0100
0010
0100
1000
0100
1000
0001
0010
0100
0010
0001
1000
0100
1000
0001
0010
,
0100
1000
0001
0010
0100
1000
0100
0010
0100
1000
0010
0100
0001
0010
0100
1000
,
0001
0100
0010
0100
0001
1000
0100
0010
0001
1000
0010
0100
0010
1000
0001
0010
,
0100
1000
0001
0100
0010
1000
0010
0100
0001
0100
0010
1000
0100
0010
0001
0010
,
0100
1000
0001
0010
0100
0010
0001
1000
0100
1000
0001
1000
0100
0010
0100
1000
,
0001
0010
0001
1000
0001
0010
0100
1000
0010
0100
0001
0100
2002
0000
0000
0000
,
0000
0000
0000
3013
0100
0001
1010
0100
,
0110
1010
0101
0010
0110
0001
1100
0011
,
1100
0001
0010
0110
1001
0110
0010
0001
,
1010
0101
1010
0010
1001
0010
0101
0110
,
1010
0100
0010
0101
0110
1010
1100
0001
,
0011
1100
0011
1000
0110
0010
0101
1010
,
0101
0000
0000
0010
0000
0000
1000
0000
0000
0011
0000
0000
0110
0000
0000
1100
0000
0000
0001
0000
0010
0000
0100
0000
,
1000
0001
0100
0010
1000
0100
0010
0001
1000
0220
0000
0000
,
0000
0000
0000
0000
0000
0000
0330
0000
0202
0000
0000
0303
2020
0000
0000
0000
,
0000
0000
3030
0000
0001
0100
0010
1000
0001
0010
0100
1000
0011
0000
0010
0000
,
0110
0101
1010
0100
0110
1000
0011
1100
,
0011
1000
0100
0110
1001
0110
0100
1000
,
0101
1010
0101
0100
1001
0100
1010
0110
,
0101
0010
0100
1010
0110
0101
0011
1000
,
1100
0011
1100
0001
0110
0100
1010
0101
,
1010
0000
0000
0100
0000
0000
0001
0000
0000
1100
0000
0000
0110
0000
0000
0011
0000
0000
1000
0000
0100
0000
0010
0000
,
0001
1000
0010
0100
0001
0010
0100
1000
0001
0220
0000
0000
,
0000
0000
0000
0000
0000
0000
0000
0330
2020
0000
0000
3030
0202
0000
0000
0000
,
0000
0000
0000
0000
0000
0303
1001
1001
;

//---------------dance-single - ----------------
#NOTES:
     dance-single:
     :
     Challenge:
     14:
     1.000,1.000,1.000,0.358,1.000,1764.000,474.000,99.000,0.000,28.000:
0000
0000
0000
1000
0100
0010
1001
0000
,
0001
0010
0100
0000
0001
0000
1000
0100
,
0010
0000
0000
0100
0010
1000
0101
0000
,
0010
0100
0001
0000
1000
0000
0010
1000
,
0100
0000
0000
0010
0100
1000
0110
0000
,
0100
0010
0001
0000
0001
0000
1002
1000
,
0100
0000
0000
0000
0000
0000
0000
0000
0000
1000
0000
0000
0010
0000
0000
0100
0000
0000
1013
0000
0100
0000
0010
0000
,
0101
1000
0010
0101
0001
0100
1010
1000
0010
0202
0000
0000
,
0000
0000
0000
0000
0000
0000
0000
0303
2020
0000
0000
3030
0220
0000
0000
0000
,
0000
0000
0000
0000
0000
0330
0001
0000
0010
0000
0100
0000
1001
0000
0000
0000
,
1000
0100
0010
0000
1000
0000
0001
0010
,
0100
0000
0000
0010
0100
0001
1010
0000
,
0100
0010
1000
0000
0001
0000
0100
0001
,
0010
0000
0000
0100
0010
0001
0110
0000
,
0010
0100
1000
0000
1000
0000
2001
0001
,
0010
0000
0000
0000
0000
0000
0000
0000
0000
0001
0000
0000
0100
0000
0000
0010
0000
0000
3101
0000
0010
0000
0100
0000
,
1010
0001
0100
1010
1000
0010
0101
0001
0100
2020
0000
0000
,
0000
0000
0000
0000
0000
0000
0000
3030
0202
0000
0000
0303
0220
0000
0000
0000
,
0000
0000
0000
0000
0000
0330
1000
0100
0010
0001
0100
0010
1001
0000
0010
0000
,
0101
0001
1010
0100
1010
1000
0101
0010
,
1001
0001
0110
0010
0101
1000
0011
1000
,
0110
0100
1010
1000
0110
0001
0101
0010
,
1001
0100
1001
0010
0101
1000
0101
0010
,
0101
1000
1010
0100
0011
1000
0101
0100
,
1010
0000
0000
0010
0000
0000
0101
0000
0000
1000
0000
0000
0011
0000
0000
1000
0000
0000
0101
0000
0010
0000
0100
0000
,
1001
0010
0100
1001
1000
0010
0101
0001
1000
0202
0000
0000
,
0000
0000
0000
0000
0000
0000
0000
0303
0220
0000
0000
0330
2020
0000
0000
0000
,
0000
0000
0000
0000
0000
0000
0000
3030
1000
0010
0100
0010
1001
0000
0000
0000
,
0110
0000
1000
0100
1010
0000
0001
0000
,
0110
0000
0001
0010
0101
0000
0010
0000
,
1100
0000
0010
0100
0011
0000
0100
0000
,
0011
0000
0100
0010
1100
0000
0010
0000
,
0101
0000
0010
0100
1010
0000
0100
0000
,
1010
0000
0100
0010
0101
0000
0010
0000
,
1100
0000
1000
0001
0110
0000
0001
0000
,
1100
0000
0001
1000
0110
0000
1001
0000
,
0110
0000
0010
0100
1010
0000
1000
0000
,
0110
0000
0001
0100
1010
0000
0001
0000
,
1010
0000
0100
0010
0011
0000
1000
0000
,
0101
0000
0010
0100
1100
0000
0001
0000
,
0110
0000
0010
0100
1001
0000
0010
0000
,
1100
0000
0010
0100
0110
0000
0100
0000
,
0011
0000
0100
0010
0110
0000
0001
0000
,
0110
0000
0000
1000
0001
0100
0010
1000
0100
0012
0000
0000
0000
0000
0000
0010
0000
0000
1000
0000
0000
0123
0000
0000
,
0000
0001
0000
2130
0000
0001
0010
3210
,
0000
0000
0000
1302
0000
0010
0100
1023
,
0000
0001
0000
1230
0000
0001
0010
2302
,
0000
0000
0000
3113
,
0000
0000
0000
0000
0001
0000
0000
0000
0100
0000
0000
0000
1001
0100
0001
0010
,
0100
0010
0100
1000
0101
0010
0100
1000
0010
0100
0001
0010
0101
0010
0001
1000
,
0100
0010
0001
0010
0101
1000
0001
0100
0001
1000
0100
1000
0011
1000
0010
1000
,
0100
0010
0001
0010
0100
1000
0001
0010
0101
0010
0001
1000
0110
1000
0010
0100
,
0010
1000
0100
0010
0101
0010
0100
1000
0011
0100
0001
0010
0101
1000
0001
0100
,
0010
0100
0001
0100
1010
0100
0001
1000
0100
0010
0001
0100
0011
1000
0100
0010
,
0001
1000
0001
0100
0011
1000
0001
0010
0100
0010
0001
1000
0101
1000
0010
0100
,
0010
1000
0100
0010
0100
1000
0001
0010
1001
0100
0010
0100
1001
0010
0001
1000
,
0100
0010
0100
1000
0101
0010
0100
1000
0011
0100
0010
1000
0011
0100
0010
1000
,
0001
0010
0100
0010
0101
1000
0100
1000
0001
0010
0100
1000
0101
0010
0001
0010
,
0100
0010
0100
1000
0110
1000
0001
0010
0100
0010
0001
1000
0110
1000
0001
0010
,
0100
1000
0101
0010
0100
1000
0100
0010
0101
1000
0010
0100
1001
0010
0100
1000
,
0001
0100
0010
0100
0011
1000
0100
0010
0101
1000
0010
0100
1010
0100
0001
0010
,
0100
1000
0001
0100
0011
1000
0010
0100
0001
0100
0010
0001
1100
0010
0001
0010
,
0100
1000
0001
0010
0101
0010
0001
1000
0100
1000
0001
1000
0101
0010
0100
1000
,
0001
0010
0001
1000
0001
0010
0100
1000
0011
0100
0001
0100
2002
0000
0000
0000
,
0000
0000
3003
1100
0101
0011
0110
0010
,
1001
0101
1010
0100
1001
0010
1100
0011
,
1100
0001
1000
0011
1001
0110
1010
0100
,
0101
0110
1010
0100
0110
0010
1001
0110
,
1001
0001
0100
1001
0011
0110
1100
0010
,
0101
0110
1010
0100
0110
0001
0110
1001
,
0110
0000
0000
1000
0000
0000
0100
0000
0000
0011
0000
0000
0110
0000
0000
1100
0000
0000
1001
0000
0010
0000
0100
0000
,
1010
0001
0100
1010
1000
0100
1010
0001
1000
0220
0000
0000
,
0000
0000
0000
0330
2200
0000
3322
0000
,
0000
0000
0000
0000
0000
0000
0033
0000
1000
0010
0100
0001
0110
0000
0000
0000
,
0110
0000
0001
0010
0101
0000
1000
0000
,
0110
0000
1000
0100
1010
0000
0100
0000
,
0011
0000
0100
0010
1100
0000
0010
0000
,
1100
0000
0010
0100
0011
0000
0100
0000
,
1010
0000
0100
0010
0101
0000
0010
0000
,
0101
0000
0010
0100
1010
0000
0100
0000
,
0011
0000
0001
1000
0110
0000
1000
0000
,
0011
0000
1000
0001
0110
0000
1001
0000
,
0110
0000
0100
0010
0101
0000
0001
0000
,
0110
0000
1000
0010
0101
0000
1000
0000
,
0101
0000
0010
0100
1100
0000
0001
0000
,
1010
0000
0100
0010
0011
0000
1000
0000
,
0110
0000
0100
0010
1001
0000
0100
0000
,
0011
0000
0100
0010
0110
0000
0010
0000
,
1100
0000
0010
0100
0110
0000
1000
0000
,
0110
0000
0000
0001
1000
0010
0100
0001
0010
2100
0000
0000
0000
0000
0000
0100
0000
0000
0001
0000
0000
3210
0000
0000
,
0000
1000
0010
0312
0000
1000
0100
0123
,
0000
0000
0000
2031
0000
0100
0010
3201
,
0000
1000
1000
0321
0000
1000
0100
2032
,
0000
0000
0000
3113
,
0000
0000
0000
0000
1000
0000
0000
0000
0010
0000
0000
0000
1001
0010
1000
0100
,
0010
0100
0010
0001
1010
0100
0010
0001
0100
0010
1000
0100
1010
0100
1000
0001
,
0010
0100
1000
0100
1010
0001
1000
0010
1000
0001
0010
0001
1100
0001
0100
0001
,
0010
0100
1000
0100
0010
0001
1000
0100
1010
0100
1000
0001
0110
0001
0100
0010
,
0100
0001
0010
0100
1010
0100
0010
0001
1100
0010
1000
0100
1010
0001
1000
0010
,
0100
0010
1000
0010
0101
0010
1000
0001
0010
0100
1000
0010
1100
0001
0010
0100
,
1000
0001
1000
0010
1100
0001
1000
0100
0010
0100
1000
0001
1010
0001
0100
0010
,
0100
0001
0010
0100
0010
0001
1000
0100
1001
0010
0100
0010
1001
0100
1000
0001
,
0010
0100
0010
0001
1010
0100
0010
0001
1100
0010
0100
0001
1100
0010
0100
0001
,
1000
0100
0010
0100
1010
0001
0010
0001
1000
0100
0010
0001
1010
0100
1000
0100
,
0010
0100
0010
0001
0110
0001
1000
0100
0010
0100
1000
0001
0110
0001
1000
0100
,
0010
0001
1010
0100
0010
0001
0010
0100
1010
0001
0100
0010
1001
0100
0010
0001
,
1000
0010
0100
0010
1100
0001
0010
0100
1010
0001
0100
0010
0101
0010
1000
0100
,
0010
0001
1000
0010
1100
0001
0100
0010
1000
0010
0100
1000
0011
0100
1000
0100
,
0010
0001
1000
0100
1010
0100
1000
0001
0010
0001
1000
0001
1010
0100
0010
0001
,
1000
0100
1000
0001
1000
0100
0010
0001
1100
0010
1000
0010
2002
0000
0000
0000
,
0000
0000
3003
0010
1000
0001
2100
0000
,
3020
0000
0000
1030
0100
0010
0102
0000
,
0203
0000
0000
0310
0010
1000
0021
0000
,
2030
0000
0000
3100
0100
0001
1020
0000
,
0230
0000
0000
0000
0000
0000
0310
0000
0001
0100
0010
0100
1001
0000
0100
0000
,
0110
0001
0100
1010
0101
0110
1001
0010
,
0110
1000
0001
0100
1001
1010
1001
0010
,
1000
0001
0010
1001
0101
1001
0110
1000
,
0001
0100
0001
1100
0110
0101
1010
0100
,
0101
0000
0000
1000
0000
0000
0001
0000
0010
0000
0100
0000
1000
0000
0000
0010
0000
0000
2002
0000
0000
0000
0000
0000
,
0000
0000
0000
0000
0000
0000
3103
0000
0001
0100
0010
0100
1001
0000
0100
0000
,
1010
0001
0010
0101
1010
0110
1001
0100
,
0110
0001
0010
0101
1010
0110
1100
0100
,
0011
0001
0100
1010
0110
0101
0011
0100
,
1100
0001
0010
0101
0110
1010
1100
0010
,
0101
0010
0100
1001
0110
1001
1010
0100
,
0101
0010
0100
1010
0110
0101
0110
1000
,
0001
0100
0010
0101
0110
1010
0110
0001
,
1000
0100
0001
1100
0011
0101
1001
0010
,
1001
0000
0000
0010
0000
0000
1000
0000
0100
0000
0010
0000
0001
0000
0000
0100
0000
0000
2002
0000
0000
0000
0000
0000
,
0000
0000
0000
0000
0000
0000
3003
0000
0001
0100
0010
0100
1001
0000
0000
0000
,
0000
0000
0000
0000
0001
0000
0000
0000
0100
0000
0000
0000
1001
0100
0001
0010
,
0100
0010
0100
1000
0101
0010
0100
1000
0010
0100
0001
0010
0101
0010
0001
1000
,
0100
0010
0001
0010
0101
1000
0001
0100
0001
1000
0100
1000
0011
1000
0010
1000
,
0100
0010
0001
0010
0100
1000
0001
0010
0101
0010
0001
1000
0110
1000
0010
0100
,
0010
1000
0100
0010
0101
0010
0100
1000
0011
0100
0001
0010
0101
1000
0001
0100
,
0010
0100
0001
0100
1010
0100
0001
1000
0100
0010
0001
0100
0011
1000
0100
0010
,
0001
1000
0001
0100
0011
1000
0001
0010
0100
0010
0001
1000
0101
1000
0010
0100
,
0010
1000
0100
0010
0100
1000
0100
0010
1001
0100
0010
0100
1001
0010
0001
1000
,
0100
0010
0100
1000
0101
0010
0100
1000
0011
0100
0010
1000
0011
0100
0010
1000
,
0001
0010
0100
0010
0101
1000
0100
1000
0001
0010
0100
1000
0101
0010
0001
0010
,
0100
0010
0100
1000
0110
1000
0001
0010
0100
0010
0001
1000
0110
1000
0001
0010
,
0100
1000
0101
0010
0100
1000
0100
0010
0101
1000
0010
0100
1001
0010
0100
1000
,
0001
0100
0010
0100
0011
1000
0100
0010
0101
1000
0010
0100
1010
0100
0001
0010
,
0100
1000
0001
0100
0011
1000
0010
0100
0001
0100
0010
0001
1100
0010
0001
0010
,
0100
1000
0001
0010
0101
0010
0001
1000
0100
1000
0001
1000
0101
0010
0100
1000
,
0001
0010
0001
1000
0001
0010
0100
1000
0011
0100
0001
0100
0011
1000
0001
0100
,
0010
0000
0000
0000
0000
0000
0001
0000
0000
0000
0000
0000
1000
0000
0000
0000
0000
0000
0100
0000
0000
0000
0000
0000
0010
0000
0000
0000
0000
0000
0000
0000
0100
0000
0000
0000
0000
0000
0000
0000
0001
0000
0000
0000
0000
0000
0000
0000
1000
0000
0000
0000
0000
0000
0000
0000
0010
0000
0000
0000
0000
0000
0000
0000
0100
0000
0000
0000
0000
0000
0000
0000
2000
0000
0000
0000
0000
0000
0000
0000
0000
0000
0000
0000
0000
0000
0000
0000
0000
0000
0000
0000
0000
0000
0000
0000
0000
0000
0000
0000
0000
0000
0000
0000
0000
0000
0000
0000
0000
0000
0000
0000
0000
0000
0000
0000
0000
0000
0000
0000
0002
0000
0000
0000
0000
0000
0000
0000
0000
0000
0000
0000
0000
0000
0000
0000
0000
0000
0000
0000
0000
0000
0000
0000
0000
0000
0000
0000
0000
0000
0000
0000
0000
0000
0000
0000
0003
0000
0000
0000
0000
0000
0000
0000
0000
0000
0000
0000
0200
0000
0000
0000
0000
0000
0000
0000
0000
0000
0000
0000
0000
0000
0000
0000
0000
0000
0000
0000
0000
0000
0000
0000
,
0000
0300
0020
0000
0000
0030
3102
0000
0000
0000
0000
0000
0010
0000
0100
0000
,
0000
0000
0010
0000
0100
0000
2023
0000
0000
0030
0200
0000
0000
0300
0002
0000
,
0000
0003
0020
0000
0000
0030
3120
0000
0000
0000
0000
0000
1000
0000
0100
0000
,
0000
0000
1000
0000
0100
0000
0232
0000
0000
0300
0020
0000
0000
0030
2000
0000
,
0000
3000
0200
0000
0000
0300
2013
0000
0000
0100
0000
0000
0001
0000
0100
0000
,
0000
0000
0001
0000
0100
0000
3022
0000
0000
0030
0200
0000
0000
0300
2203
0000
,
0000
3000
0020
0000
0000
0330
2002
0000
0000
0000
0000
0003
0100
0000
0010
0000
,
3000
0000
0100
0000
0001
0000
1000
0000
0100
0000
0010
0000
1001
0010
1000
0100
,
0010
0100
0010
0001
1010
0100
0010
0001
0100
0010
1000
0100
1010
0100
1000
0001
,
0010
0100
1000
0100
1010
0001
1000
0010
1000
0001
0010
0001
1100
0001
0100
0001
,
0010
0100
1000
0100
0010
0001
1000
0100
1010
0100
1000
0001
0110
0001
0100
0010
,
0100
0001
0010
0100
1010
0100
0010
0001
1100
0010
1000
0100
1010
0001
1000
0010
,
0100
0010
1000
0010
0101
0010
1000
0001
0010
0100
1000
0010
1100
0001
0010
0100
,
1000
0001
1000
0010
1100
0001
1000
0100
0010
0100
1000
0001
1010
0001
0100
0010
,
0100
0001
0010
0100
0010
0001
1000
0100
1001
0010
0100
0010
1001
0100
1000
0001
,
0010
0100
0010
0001
1010
0100
0010
0001
1100
0010
0100
0001
1100
0010
0100
0001
,
1000
0100
0010
0100
1010
0001
0010
0001
1000
0100
0010
0001
1010
0100
1000
0100
,
0010
0100
0010
0001
0110
0001
1000
0100
0010
0100
1000
0001
0110
0001
1000
0100
,
0010
0001
1010
0100
0010
0001
0010
0100
1010
0001
0100
0010
1001
0100
0010
0001
,
1000
0010
0100
0010
1100
0001
0010
0100
1010
0001
0100
0010
0101
0010
1000
0100
,
0010
0001
1000
0010
1100
0001
0100
0010
1000
0010
0100
1000
0011
0100
1000
0100
,
0010
0001
1000
0100
1010
0100
1000
0001
0010
0001
1000
0001
1010
0100
0010
0001
,
1000
0100
1000
0001
1000
0100
0010
0001
1100
0010
1000
0010
2002
0000
0000
0000
,
0000
0000
0000
3013
0100
0001
1010
0100
,
0110
1010
0101
0010
0110
0001
1100
0011
,
1100
0001
0010
0110
1001
0110
0010
0001
,
1010
0101
1010
0010
1001
0010
0101
0110
,
1010
0100
0010
0101
0110
1010
1100
0001
,
0011
1100
0011
1000
0110
0010
0101
1010
,
0101
0000
0000
0010
0000
0000
1000
0000
0000
0011
0000
0000
0110
0000
0000
1100
0000
0000
1001
0000
0010
0000
0100
0000
,
1001
0010
0100
1010
0100
0010
0101
1000
0001
0220
0000
0000
,
0000
0000
0000
0000
0000
0000
0330
0000
0202
0000
0000
0303
2020
0000
0000
0000
,
0000
0000
3030
0000
0001
0100
0010
1000
0001
0010
0100
1000
0011
0000
0010
0000
,
0110
0101
1010
0100
0110
1000
0011
1100
,
0011
1000
0100
0110
1001
0110
0100
1000
,
0101
1010
0101
0100
1001
0100
1010
0110
,
0101
0010
0100
1010
0110
0101
0011
1000
,
1100
0011
1100
0001
0110
0100
1010
0101
,
1010
0000
0000
0100
0000
0000
0001
0000
0000
1100
0000
0000
0110
0000
0000
0011
0000
0000
1001
0000
0100
0000
0010
0000
,
1001
0100
0010
0101
1000
0100
1010
0001
1000
0220
0000
0000
,
0000
0000
0000
0000
0000
0000
0000
0330
2020
0000
0000
3030
0202
0000
0000
0000
,
0000
0000
0000
0000
0000
0303
1001
1001
;

//---------------dance-single - ----------------
#NOTES:
     dance-single:
     :
     Medium:
     8:
     0.719,0.755,0.611,0.351,0.034,1126.000,169.000,97.000,0.000,26.000:
0000
0000
0000
0001
0100
0010
1000
0000
,
0001
0010
0100
0000
0001
0000
1000
0100
,
0010
0000
0000
0100
0010
1000
0001
0000
,
0010
0100
0001
0000
1000
0000
0010
1000
,
0100
0000
0000
0010
0100
1000
0010
0000
,
0100
0010
0001
0000
0001
0000
0001
1000
,
0100
0000
0000
1000
0010
0100
1010
0000
,
0101
0110
1010
2002
,
0000
0000
0000
0000
0000
0000
0000
3003
2020
0000
0000
3030
0220
0000
0000
0000
,
0000
0000
0000
0000
0000
0330
0001
0000
0010
0000
0100
0000
0001
0000
0000
0000
,
1000
0100
0010
0000
1000
0000
0001
0010
,
0100
0000
0000
0010
0100
0001
1010
0000
,
0100
0010
1000
0000
0001
0000
0100
0001
,
0010
0000
0000
0100
0010
0001
0100
0000
,
0010
0100
1000
0000
1000
0000
1000
0001
,
0010
0000
0000
0001
1000
0010
1001
0000
,
1010
0101
0110
2002
,
0000
0000
0000
0000
0000
0000
0000
3003
0202
0000
0000
0303
0220
0000
0000
0000
,
0000
0000
0000
0000
0000
0330
1000
0000
0010
0000
0100
0000
1000
0000
0010
0000
,
0101
0001
1000
0100
1010
1000
0001
0010
,
1001
0001
0100
0010
0101
1000
0001
1000
,
0110
0100
0010
1000
0110
0001
0100
0010
,
1001
0100
1000
0010
0101
1000
0001
0010
,
0101
1000
0010
0100
0011
1000
0001
0100
,
1010
0010
0001
1000
0011
1000
1001
0000
,
1010
0101
0110
0202
,
0000
0000
0000
0000
0000
0000
0000
0303
0220
0000
0000
0330
2020
0000
0000
0000
,
0000
0000
0000
0000
0000
0000
0000
3030
0100
0000
0010
0000
1001
0000
0000
0000
,
0110
0000
1000
0100
1010
0000
0001
0000
,
0110
0000
0001
0010
0101
0000
0010
0000
,
1100
0000
0010
0100
0011
0000
0100
0000
,
0011
0000
0100
0010
1100
0000
0010
0000
,
0101
0000
0010
0100
1010
0000
0100
0000
,
1010
0000
0100
0010
0101
0000
0010
0000
,
1100
0000
1000
0001
0110
0000
0001
0000
,
1100
0000
0001
1000
0110
0000
1001
0000
,
0110
0000
0010
0100
1010
0000
1000
0000
,
0110
0000
0001
0100
1010
0000
0001
0000
,
1010
0000
0100
0010
0011
0000
1000
0000
,
0101
0000
0010
0100
1100
0000
0001
0000
,
0110
0000
0010
0100
1001
0000
0010
0000
,
1100
0000
0010
0100
0110
0000
0100
0000
,
0011
0000
0100
0010
0110
0000
0001
0000
,
0110
0000
0000
0012
0000
0010
1000
0123
,
0000
0001
0000
2130
0000
0001
0010
3210
,
0000
0000
0000
1302
0000
0010
0100
1023
,
0000
0001
0000
1230
0000
0001
0010
2302
,
0000
0000
0000
3113
,
0000
0000
0001
0000
0100
0000
0001
0100
,
0001
0100
0010
1000
0010
1000
0001
0010
,
0001
0010
0100
1000
0100
1000
0001
1000
,
0001
1000
0001
1000
0001
0010
1000
0100
,
0010
0001
1000
0010
0100
0001
1000
0100
,
1000
0100
0010
0001
0010
0001
0010
0100
,
0010
0100
1000
0100
1000
0100
0001
0010
,
0001
0010
0001
0010
0100
0001
1000
0100
,
0010
0000
0001
0000
1000
0100
0010
0001
1000
0100
0010
0001
0100
0000
1000
0000
,
0010
0100
0001
0010
0100
0010
0001
1000
,
0100
1000
0010
0100
1000
0100
0010
0001
,
0010
0001
0010
0100
0010
0100
0010
0100
,
1000
0100
1000
0100
0010
1000
0001
0010
,
0001
1000
0010
0100
0001
1000
0010
0100
,
0001
1000
0100
0010
0001
0010
0100
0010
,
1000
0100
0001
0100
1000
0100
2002
0000
,
0000
0000
3003
1000
0100
0010
0001
0000
,
0001
0100
0010
0000
1001
0000
1000
1000
,
0001
0000
0000
0001
0010
0100
1000
0000
,
0100
0010
1000
0000
0110
0000
0001
0001
,
1000
0000
0000
1000
0010
0100
0001
0000
,
0100
0100
0010
0000
1001
0000
0110
1001
,
0110
0000
0000
0001
0010
0100
1001
0000
,
1010
0101
1001
0220
,
0000
0000
0000
0330
2200
0000
3322
0000
,
0000
0000
0000
0033
1000
0001
0110
0000
,
0110
0000
0001
0010
0101
0000
1000
0000
,
0110
0000
1000
0100
1010
0000
0100
0000
,
0011
0000
0100
0010
1100
0000
0010
0000
,
1100
0000
0010
0100
0011
0000
0100
0000
,
1010
0000
0100
0010
0101
0000
0010
0000
,
0101
0000
0010
0100
1010
0000
0100
0000
,
0011
0000
0001
1000
0110
0000
1000
0000
,
0011
0000
1000
0001
0110
0000
1001
0000
,
0110
0000
0100
0010
0101
0000
0001
0000
,
0110
0000
1000
0010
0101
0000
1000
0000
,
0101
0000
0010
0100
1100
0000
0001
0000
,
1010
0000
0100
0010
0011
0000
1000
0000
,
0110
0000
0100
0010
1001
0000
0100
0000
,
0011
0000
0100
0010
0110
0000
0010
0000
,
1100
0000
0010
0100
0110
0000
1000
0000
,
0110
0000
0000
2100
0000
0100
0001
3210
,
0000
1000
0010
0312
0000
1000
0100
0123
,
0000
0000
0000
2031
0000
0100
0010
3201
,
0000
1000
1000
0321
0000
1000
0100
2032
,
0000
0000
0000
3113
,
0000
0000
1000
0000
0010
0000
1000
0010
,
1000
0010
0100
0001
0100
0001
1000
0100
,
1000
0100
0010
0001
0010
0001
1000
0001
,
1000
0001
1000
0001
1000
0100
0001
0010
,
0100
1000
0001
0100
0010
1000
0001
0010
,
0001
0010
0100
1000
0100
1000
0100
0010
,
0100
0010
0001
0010
0001
0010
1000
0100
,
1000
0100
1000
0100
0010
1000
0001
0010
,
0100
0000
1000
0000
0001
0010
0100
1000
0001
0010
0100
1000
0010
0000
0001
0000
,
0100
0010
1000
0100
0010
0100
1000
0001
,
0010
0001
0100
0010
0001
0010
0100
1000
,
0100
1000
0100
0010
0100
0010
0100
0010
,
0001
0010
0001
0010
0100
0001
1000
0100
,
1000
0001
0100
0010
1000
0001
0100
0010
,
1000
0001
0010
0100
1000
0100
0010
0100
,
0001
0010
1000
0010
0001
0010
2002
0000
,
0000
0000
3003
0010
1000
0001
2000
0000
,
3020
0000
0000
1030
0100
0010
0002
0000
,
0203
0000
0000
0310
0010
1000
0020
0000
,
2030
0000
0000
3100
0100
0001
0020
0000
,
0230
0000
0000
0310
0001
0100
0001
0000
,
0100
0000
0000
0010
0100
0001
1000
0000
,
0010
0000
0000
0000
0001
0001
0001
0000
,
0000
0000
0000
1000
1000
1000
1000
0000
,
0000
0000
0000
1000
0010
0100
0001
0000
,
0100
0000
0001
0010
0100
0010
2002
0000
,
0000
0000
0000
3103
0001
0010
1001
0000
,
1000
0000
0000
0001
1000
0010
1000
0000
,
0100
0000
0000
0001
0010
0100
1000
0000
,
0100
0000
0000
1000
0010
0100
0001
0000
,
1000
0000
0000
0001
0100
0010
1000
0000
,
0001
0000
0000
0001
0100
0001
1000
0000
,
0001
0000
0000
0010
0100
0001
1000
0000
,
0000
0000
0000
0001
0100
0010
0100
0000
,
0000
0000
0000
1000
0001
0010
0100
0000
,
0001
0000
1000
0100
0001
0100
2002
0000
,
0000
0000
0000
3003
0001
0100
1001
0000
,
0000
0000
0001
0000
0100
0000
0001
0100
,
0001
0100
0010
1000
0010
1000
0001
0010
,
0001
0010
0100
1000
0100
1000
0001
1000
,
0001
1000
0001
1000
0001
0010
1000
0100
,
0010
0001
1000
0010
0100
0001
1000
0100
,
1000
0100
0010
0001
0010
0001
0010
0100
,
0010
0100
1000
0100
1000
0100
0001
0010
,
0001
0010
0001
0010
0100
0001
1000
0100
,
0010
0000
0001
0000
1000
0100
0010
0001
1000
0100
0010
0001
0100
0000
1000
0000
,
0010
0100
0001
0010
0100
0010
0001
1000
,
0100
1000
0010
0100
1000
0100
0010
0001
,
0010
0001
0010
0100
0010
0100
0010
0100
,
1000
0100
1000
0100
0010
1000
0001
0010
,
0001
1000
0010
0100
0001
1000
0010
0100
,
0001
1000
0100
0010
0001
0010
0100
0010
,
1000
0100
0001
0100
1000
0100
0010
0100
,
0001
0100
0001
0010
0001
0000
2000
0000
0000
0000
0002
0000
0000
0003
0200
0000
,
0000
0300
0020
0000
0000
0030
3102
0000
0000
0000
0000
0000
0010
0000
0100
0000
,
0000
0000
0010
0000
0100
0000
2023
0000
0000
0030
0200
0000
0000
0300
0002
0000
,
0000
0003
0020
0000
0000
0030
3120
0000
0000
0000
0000
0000
1000
0000
0100
0000
,
0000
0000
1000
0000
0100
0000
0232
0000
0000
0300
0020
0000
0000
0030
2000
0000
,
0000
3000
0200
0000
0000
0300
2013
0000
0000
0100
0000
0000
0001
0000
0100
0000
,
0000
0000
0001
0000
0100
0000
3022
0000
0000
0030
0200
0000
0000
0300
2203
0000
,
0000
3000
0020
0000
0000
0330
2002
0000
0000
0000
0000
0003
0100
0000
0010
0000
,
3000
0100
0001
1000
0010
0100
1000
0010
,
1000
0010
0100
0001
0100
0001
1000
0100
,
1000
0100
0010
0001
0010
0001
1000
0001
,
1000
0001
1000
0001
1000
0100
0001
0010
,
0100
1000
0001
0100
0010
1000
0001
0010
,
0001
0010
0100
1000
0100
1000
0100
0010
,
0100
0010
0001
0010
0001
0010
1000
0100
,
1000
0100
1000
0100
0010
1000
0001
0010
,
0100
0000
1000
0000
0001
0010
0100
1000
0001
0010
0100
1000
0010
0000
0001
0000
,
0100
0010
1000
0100
0010
0100
1000
0001
,
0010
0001
0100
0010
0001
0010
0100
1000
,
0100
1000
0100
0010
0100
0010
0100
0010
,
0001
0010
0001
0010
0100
0001
1000
0100
,
1000
0001
0100
0010
1000
0001
0100
0010
,
1000
0001
0010
0100
1000
0100
0010
0100
,
0001
0010
1000
0010
0001
0010
2002
0000
,
0000
0000
0000
3013
0100
0001
1010
0000
,
0010
1000
0001
0000
0110
0000
1000
1000
,
0001
0010
0100
1000
0100
0010
0001
0000
,
0001
0001
1000
0000
1001
0000
0100
0100
,
0010
0000
0000
0001
0010
0100
1000
0000
,
0010
0010
0100
0000
0110
0000
0001
0010
,
0100
0000
0000
1000
0100
0010
0101
0000
,
1010
0110
1001
0220
,
0000
0000
0000
0000
0000
0000
0330
0000
0202
0000
0000
0303
2020
0000
0000
0000
,
0000
3030
0001
0010
0100
1000
0010
0000
,
0010
0001
1000
0000
0110
0000
0001
0001
,
1000
0000
0000
0100
1000
0010
0100
0000
,
1000
1000
0001
0000
1001
0000
1000
0010
,
0100
0000
0000
1000
0100
0010
0001
0000
,
0010
0010
0100
0000
0110
0000
0001
0010
,
0100
0000
0000
1000
0100
0010
1010
0000
,
0101
0110
1001
0220
,
0000
0000
0000
0000
0000
0000
0000
0330
2020
0000
0000
3030
0202
0000
0000
0000
,
0000
0000
0000
0000
0000
0303
1001
1001
;
