#TITLE:Rislim;
#SUBTITLE:;
#ARTIST:ric;
#TITLETRANSLIT:;
#SUBTITLETRANSLIT:;
#ARTISTTRANSLIT:;
#CREDIT:;
#BANNER:Rislim.png;
#BACKGROUND:Rislim-bg.png;
#LYRICSPATH:;
#CDTITLE:jammitch!.png;
#MUSIC:Rislim.mp3;
#OFFSET:-7.825;
#SAMPLESTART:37.294;
#SAMPLELENGTH:13.000;
#SELECTABLE:YES;
#BPMS:0.000=130.040;
#STOPS:;
#BGCHANGES:;
// cache tags:
#FIRSTBEAT:0.000;
#LASTBEAT:224.500;
#SONGFILENAME:Songs/Keyboard Collaboration I/Jammitch! - Rislim/Rislim.sm;
#HASMUSIC:1;
#HASBANNER:1;
#MUSICLENGTH:113.624;
// end cache tags

//---------------dance-single - ----------------
#NOTES:
     dance-single:
     :
     Hard:
     10:
     0.945,0.864,1.000,0.009,0.304,506.000,245.000,1.000,0.000,0.000:
1001
0000
0010
0000
1001
0000
0100
0000
0001
0010
0100
1000
0100
0010
0001
0100
,
0011
0000
0100
0000
1010
0000
0001
0000
0100
1000
0001
0010
0100
1000
0010
0100
,
1001
0000
0100
0000
0011
0000
1000
0000
0010
0001
1000
0100
1000
0010
0100
0001
,
0100
0010
1000
0000
0100
0000
1000
0000
0010
0000
0100
0000
0010
0000
1000
0000
0001
0000
0100
0000
0010
0000
0100
0000
0001
0000
0010
0000
0100
0000
1000
0000
,
0110
0000
0001
0000
1100
0000
0010
0000
1000
0100
0010
0001
0100
0010
0100
0001
,
1010
0000
0100
0000
0011
0000
0100
0000
1010
0100
0001
0010
0100
1000
0001
0100
,
1001
0000
0100
0000
1010
0000
0100
0000
0011
0100
1000
0010
0100
0001
0010
0100
,
1001
0000
0010
0000
1100
0000
0001
0000
0110
0001
0010
0100
1000
0010
0100
0001
,
1100
0000
0010
0000
0101
0000
1000
0010
0101
0000
1000
0000
0011
0000
1100
0000
,
0110
0000
1001
0000
0011
0000
1000
0010
0101
0000
0001
0000
1010
0000
0100
0000
,
1001
0000
0100
0000
1010
0000
0001
0010
1100
0000
0010
0000
1001
0000
0100
0000
,
0001
1000
0010
0000
0100
0000
0001
0000
0010
0000
0001
0000
0100
0000
0010
0000
1000
0000
0010
0000
0100
0000
0001
0000
0010
0000
0100
0000
1000
0000
0010
0000
,
1001
0010
1000
0101
0010
0001
1010
0001
,
1100
0101
1000
0011
0100
0010
1100
0001
,
0101
1010
1000
0011
0100
0010
1001
1000
,
0011
1100
0001
1010
0101
0011
1100
1001
,
0110
0001
0100
1010
0100
0001
0110
1000
,
0011
0110
0001
1100
0010
0001
1010
0100
,
0011
1000
0100
1001
0010
0100
0011
1000
,
0110
0011
0100
1010
0101
1100
0011
1001
,
0110
0000
0000
0000
,
1000
0100
1000
0000
0001
0100
0001
0000
1000
0010
0100
0000
0001
0010
0100
0000
,
1001
0010
1000
0110
0001
1000
0011
1100
,
1001
0010
0001
1100
0010
1000
0101
1010
,
1001
0010
0100
1010
0100
0001
1100
0010
,
1001
0101
0010
0101
1000
0010
0101
1010
,
0100
0001
0010
1001
0110
1000
0101
0010
,
1100
0011
0100
1001
0110
0011
1010
1100
,
0101
0010
1000
0101
0010
1000
0110
0001
,
0110
1010
0001
1100
0010
0001
1010
0101
,
1001
0010
0100
0011
1000
0100
1010
0100
,
0011
1100
0010
1001
0110
0011
1010
1100
,
0101
0011
0101
0011
1100
1010
1100
0010
,
1001
0101
1001
0101
0110
1010
0110
1000
,
0011
0110
0011
0110
1001
1100
1001
0100
,
1010
0000
0101
0000
1010
0000
0101
0000
1001
0000
0110
0000
0001
1000
0100
1000
,
0011
0110
1100
1001
0101
0110
1010
0100
,
0011
1001
1010
0110
0101
1001
1100
0010
,
1001
1010
0101
1001
0011
1100
1001
0010
,
1100
0000
0011
0000
0101
0000
1010
0000
1001
0100
1001
0000
1001
0100
1001
0000
,
0101
1010
0101
0110
1100
0011
1100
0001
,
0110
1010
0101
1100
0011
1010
1001
0100
,
0011
1100
0101
1010
0011
1100
1001
0100
,
0011
1100
1010
0011
0101
1100
1001
0010
,
1001
0110
0011
1100
1001
0011
1100
0010
,
1001
0110
1010
0011
1100
0101
0011
0100
,
1001
0110
0011
1100
0101
0011
1010
0100
,
0011
0110
1010
0101
0110
1100
1001
0010
,
1001
0100
0010
0101
1000
0100
0011
0100
,
1010
0001
0100
1001
0010
0100
1010
0100
,
0001
0010
0001
0100
0010
0100
0001
1000
0100
1000
0010
0100
0010
1000
0100
0010
,
0002
0000
0000
1000
0000
0000
1000
0000
,
1003
0000
0000
0000
1010
0000
0100
0000
1010
0000
0100
0001
1010
0000
0100
0000
,
1001
0000
0010
0000
0101
0000
0010
0000
1100
0000
0001
1000
0110
0000
0010
0000
,
0101
0000
0010
0000
1100
0000
0010
0000
1001
0000
1000
0010
0101
0000
1000
0000
,
0011
0000
0100
0000
1010
0000
0100
0000
1001
0000
0010
1000
0101
0000
0010
0000
,
1100
0010
0000
0000
0000
0000
0000
0000
;
