#TITLE:Enter The Dragon;
#SUBTITLE:(GZ Island Mix);
#ARTIST:B3-Project;
#TITLETRANSLIT:;
#SUBTITLETRANSLIT:;
#ARTISTTRANSLIT:;
#CREDIT:;
#BANNER:enterthedragongzislandmix.png;
#BACKGROUND:enterthedragongzislandmix-bg.png;
#LYRICSPATH:;
#CDTITLE:;
#MUSIC:enterthedragongzislandmix.mp3;
#OFFSET:-5.129;
#SAMPLESTART:37.200;
#SAMPLELENGTH:12.000;
#SELECTABLE:YES;
#DISPLAYBPM:155.000;
#BPMS:0.000=154.980;
#STOPS:;
#BGCHANGES:;
// cache tags:
#FIRSTBEAT:4.000;
#LASTBEAT:234.000;
#SONGFILENAME:Songs/mongol/enterthedragongzislandmix/enterthedragongzislandmix.sm;
#HASMUSIC:1;
#HASBANNER:1;
#MUSICLENGTH:99.273;
// end cache tags

//---------------dance-single - ----------------
#NOTES:
     dance-single:
     :
     Easy:
     4:
     0.307,0.383,0.242,0.121,0.000,177.000,24.000,12.000,0.000,0.000:  // measure 1
0000
0000
0000
0000
,  // measure 2
2000
0000
0000
0000
,  // measure 3
3000
0000
0100
0100
,  // measure 4
0100
0001
0010
0100
,  // measure 5
1000
1001
0110
1000
,  // measure 6
0100
0010
0001
0100
,  // measure 7
1000
0001
0100
0010
,  // measure 8
1001
0100
0010
1001
,  // measure 9
0000
1001
0100
0010
,  // measure 10
1002
0000
0000
0000
,  // measure 11
1000
0000
0000
0000
,  // measure 12
1000
0000
0000
0000
,  // measure 13
0003
1000
0001
0100
,  // measure 14
0010
1000
0010
0100
,  // measure 15
0001
0010
0100
1000
,  // measure 16
0011
1000
0010
0100
,  // measure 17
0001
1000
0010
0000
,  // measure 18
0200
0000
0000
0000
,  // measure 19
0310
0000
1000
0001
,  // measure 20
0100
0010
1000
0001
,  // measure 21
0100
0000
0000
0000
0010
0000
1000
0001
,  // measure 22
2000
0000
0000
0000
,  // measure 23
3002
0000
0000
0000
,  // measure 24
0023
0000
0000
0000
,  // measure 25
0230
0000
0000
0000
,  // measure 26
2300
0000
0000
0010
,  // measure 27
3000
1001
0000
0010
,  // measure 28
0110
1001
0000
0001
,  // measure 29
0220
0000
0000
0000
,  // measure 30
0330
1000
0100
0010
,  // measure 31
0001
0010
0100
1000
,  // measure 32
1001
0000
0000
0000
,  // measure 33
1000
0100
0010
0100
,  // measure 34
0100
0100
0001
0001
,  // measure 35
0001
1000
0010
0100
,  // measure 36
0001
0100
0010
1000
,  // measure 37
0001
1001
0100
0010
,  // measure 38
0101
0010
1000
0100
,  // measure 39
0110
0010
0001
1000
,  // measure 40
0010
0100
0010
0001
,  // measure 41
1000
0001
0100
0010
,  // measure 42
0010
0001
0001
1000
,  // measure 43
0010
0100
0001
1001
,  // measure 44
0100
0010
1000
0001
,  // measure 45
0000
1000
0001
0100
,  // measure 46
0010
0100
1000
0001
,  // measure 47
0100
0010
1000
0001
,  // measure 48
0010
0100
1000
0001
,  // measure 49
0100
0000
1000
0001
,  // measure 50
0010
0100
1100
0001
,  // measure 51
0100
0010
1000
1001
,  // measure 52
1001
1001
1001
0000
,  // measure 53
0011
1000
0100
0010
,  // measure 54
0001
0010
0100
1100
,  // measure 55
0010
0001
0100
0010
,  // measure 56
1000
0100
0010
0001
,  // measure 57
1000
0100
0010
0001
,  // measure 58
2002
0000
0000
0000
,  // measure 59
0000
0000
3003
0000
;

//---------------dance-single - ----------------
#NOTES:
     dance-single:
     :
     Medium:
     7:
     0.473,0.501,0.665,0.081,0.005,255.000,66.000,8.000,0.000,0.000:  // measure 1
0000
0000
0000
0000
,  // measure 2
0110
1001
0101
1001
,  // measure 3
0011
1100
1001
0011
,  // measure 4
0100
1000
1000
0000
0100
0000
0010
0000
,  // measure 5
1001
0110
1100
0110
,  // measure 6
0011
0000
0000
1001
0000
0000
0101
0000
,  // measure 7
1000
0000
0100
0000
0010
0000
0000
1000
,  // measure 8
0001
1000
0000
0000
1100
0000
0011
0000
,  // measure 9
0110
0000
1001
0000
0100
0000
0010
0001
,  // measure 10
0020
0000
0000
0000
0000
0000
0030
0100
,  // measure 11
0000
0000
0010
0001
0000
0000
0000
0000
,  // measure 12
1010
0000
0000
0000
0000
0100
0001
0100
,  // measure 13
0000
0010
1000
0010
0000
0100
0000
0011
,  // measure 14
0000
1010
0001
0100
,  // measure 15
0010
0000
1000
0000
1001
0000
0100
0010
,  // measure 16
0100
1001
0011
1100
,  // measure 17
1001
0000
0010
0001
0010
0001
0010
0001
,  // measure 18
0010
0100
2000
0000
0100
0000
0100
0000
,  // measure 19
3100
0000
0001
0010
0100
0000
1000
0100
,  // measure 20
0010
0101
1001
1001
,  // measure 21
0101
0000
0110
0000
1001
0000
0110
1001
,  // measure 22
0220
0000
0000
0000
,  // measure 23
0330
0000
0000
0110
,  // measure 24
1100
0000
0001
0001
0000
0000
0000
0000
,  // measure 25
0000
0000
0000
1100
,  // measure 26
0010
0001
0100
0010
,  // measure 27
1001
0010
0100
0011
,  // measure 28
1100
0000
1010
0000
0110
0000
1000
0010
,  // measure 29
1000
0000
0001
0100
0001
0000
0110
0000
,  // measure 30
0110
0001
0010
0100
,  // measure 31
0011
2000
0020
0000
,  // measure 32
3030
0000
0000
0101
0000
1010
0000
0110
,  // measure 33
0000
0001
0010
1000
0000
0000
0000
0000
,  // measure 34
1000
0100
0010
0001
1000
0100
0010
0001
,  // measure 35
1000
0010
0100
0001
1000
0010
0100
0001
,  // measure 36
1000
0001
0010
0100
1000
0100
0010
0001
,  // measure 37
0001
0001
0100
0010
1000
0001
0100
0010
,  // measure 38
1000
0001
0100
0010
1000
0100
0010
0001
,  // measure 39
0010
0100
1000
0010
0100
0001
0010
0100
,  // measure 40
1000
0001
0010
0100
1000
0100
0010
0001
,  // measure 41
0100
0010
1000
0100
0010
0001
0100
0010
,  // measure 42
0100
0000
0010
0001
0000
0010
0000
1000
,  // measure 43
0010
0110
0011
1100
,  // measure 44
0010
0001
0100
0010
,  // measure 45
1000
0000
0001
0000
0000
0100
0100
0000
,  // measure 46
0000
0110
0000
0000
0100
0000
0010
0000
,  // measure 47
0011
0000
0100
0000
0000
1010
0000
1001
,  // measure 48
0000
0000
0000
0110
0000
0000
0000
0100
,  // measure 49
0000
0001
0101
0000
0000
1010
1010
0000
,  // measure 50
0100
0010
0001
1000
0010
0100
0001
0010
,  // measure 51
0100
1000
0001
0000
0100
0000
0010
0000
,  // measure 52
1000
0001
0100
1001
,  // measure 53
0110
0001
0010
0100
,  // measure 54
1000
0001
1100
0010
,  // measure 55
0100
0001
0110
0001
,  // measure 56
1000
0001
1000
0010
,  // measure 57
0100
0000
0000
0001
0000
0000
0010
0000
0000
1000
0000
0001
,  // measure 58
2002
0000
0000
0000
,  // measure 59
0000
0000
3003
0000
;

//---------------dance-single - ----------------
#NOTES:
     dance-single:
     :
     Hard:
     9:
     0.645,0.619,0.393,0.121,0.176,397.000,39.000,12.000,0.000,0.000:  // measure 1
0000
0000
0000
0000
,  // measure 2
0011
1000
0010
0001
0010
0100
0010
1000
,  // measure 3
0010
0001
0010
0100
0010
0001
0010
1000
,  // measure 4
0010
0100
0001
0100
1000
0100
0010
0100
,  // measure 5
0001
0100
0010
0001
1000
0100
0010
0001
,  // measure 6
2000
0000
0000
0000
3000
0000
0200
0000
0000
0000
0020
0300
0002
0000
0000
0030
,  // measure 7
0000
0100
1000
0010
,  // measure 8
1003
0010
0100
1000
0100
0010
1000
0100
,  // measure 9
1000
0010
1000
0001
1000
0100
1000
0010
,  // measure 10
2000
0000
0010
0100
0000
0010
0010
0000
,  // measure 11
3001
0000
0010
1000
0000
1000
0100
0002
,  // measure 12
1000
0000
0103
0000
0000
1000
0010
1000
,  // measure 13
0000
0100
0010
0100
0000
1000
0000
0100
,  // measure 14
0001
0110
0001
0010
0001
0100
0001
0100
,  // measure 15
0001
1000
0001
0010
0001
1000
0001
1001
,  // measure 16
0100
0001
0010
0100
1000
0010
0100
0001
,  // measure 17
1010
0000
0101
0000
1010
0110
0101
2000
,  // measure 18
0010
0000
0010
0000
0010
0010
3010
0010
,  // measure 19
1000
0000
0100
0000
0010
0000
0001
0000
1000
0000
0110
0000
0000
1010
0000
0000
,  // measure 20
0101
0000
0100
0001
0100
0000
0010
1000
,  // measure 21
0010
0000
1000
0000
0100
0000
0010
0000
0001
0000
1000
0000
0010
0000
0010
0001
,  // measure 22
0010
0000
0110
1000
0020
0000
0100
0000
,  // measure 23
1000
0000
0000
0000
0031
0000
0000
0000
1010
0000
0000
0000
0100
0001
0100
0001
,  // measure 24
0100
0001
1000
0002
0000
0000
1000
0000
,  // measure 25
0003
0000
0000
0000
0000
0000
0000
0000
0000
0000
0000
0000
0100
0010
0100
0010
,  // measure 26
0100
0010
1000
0200
1000
0000
1000
0300
,  // measure 27
1000
0100
1000
0100
1000
0000
0010
0000
0100
0000
0010
0000
1000
0000
0010
0001
,  // measure 28
0010
0001
0010
0000
0100
0000
1000
0000
0010
0000
0000
0000
0100
0000
0000
0000
,  // measure 29
1001
0110
1010
0101
,  // measure 30
0000
1000
0001
0000
0000
0100
0010
0000
0000
0001
0010
0000
0000
1000
0100
0000
,  // measure 31
0000
0000
1001
0000
0000
0000
1000
0100
0001
0000
0001
0100
1000
0000
0000
0000
,  // measure 32
1000
0010
0100
0001
0010
0100
1000
0001
,  // measure 33
0000
0000
0000
0000
0010
0100
0010
0000
0000
0000
0000
0000
1010
0000
0000
0000
,  // measure 34
1000
0100
1000
0000
0001
0010
0001
0000
0100
0010
0100
0000
0010
1000
0010
0000
,  // measure 35
0100
0001
0100
0000
0001
0000
1000
0000
0000
0000
1000
0000
0001
0000
0000
0000
,  // measure 36
1000
0010
1000
0000
0100
0010
0100
0000
0001
0010
0001
0000
0010
0100
0010
0000
,  // measure 37
1000
0100
0010
0001
1000
0010
0100
0001
,  // measure 38
0010
0100
0010
0000
1000
0001
1000
0000
0010
0001
0010
0000
0100
1000
0100
0000
,  // measure 39
0010
1000
0010
0000
1000
0000
0100
0000
0010
0001
0010
0000
0100
1000
0100
0000
,  // measure 40
0010
0100
0010
0000
1000
0000
0100
0000
0010
0000
0001
0000
0100
0000
0010
0000
,  // measure 41
1000
0100
0010
0001
1000
0100
0001
0100
,  // measure 42
1001
0000
0100
0101
0000
0001
1000
0000
,  // measure 43
1000
0010
0100
0001
0010
1000
0010
0001
,  // measure 44
0100
1000
0100
0001
0010
0001
0100
1000
,  // measure 45
0100
0001
0010
0001
0000
0010
1010
0000
,  // measure 46
0000
0110
0000
1000
0001
0010
0100
1000
,  // measure 47
0010
1000
0010
0001
0000
1100
0000
0011
,  // measure 48
0000
0100
0001
0010
0100
1000
0000
1001
,  // measure 49
0000
0010
0101
0000
0000
1001
1001
0100
,  // measure 50
0010
0001
1000
0100
0001
0100
1000
0010
,  // measure 51
0001
0010
1000
0100
0001
0100
1000
0010
,  // measure 52
0001
0010
0100
0001
0010
1000
0010
0001
,  // measure 53
0000
1010
0000
1010
0000
0101
0101
0010
,  // measure 54
1000
0010
0001
0100
1000
0100
0001
0100
,  // measure 55
0010
1001
0000
1100
0000
0011
0000
1010
,  // measure 56
0101
0000
1000
0100
0010
0001
0100
0010
,  // measure 57
1000
0000
0000
0001
0000
0000
0100
0000
0000
0010
0000
0000
0001
0000
0000
0010
0000
0000
1000
0000
0000
0000
0001
0000
,  // measure 58
2002
0000
0000
0000
,  // measure 59
0000
0000
3003
0000
;
