#TITLE:We Are The Champions;
#SUBTITLE:;
#ARTIST:Crazy Frog;
#TITLETRANSLIT:;
#SUBTITLETRANSLIT:;
#ARTISTTRANSLIT:;
#CREDIT:;
#BANNER:;
#BACKGROUND:;
#LYRICSPATH:;
#CDTITLE:spyrothedragon.png;
#MUSIC:Crazy Frog - We are the Champions.mp3;
#OFFSET:-0.802;
#SAMPLESTART:47.301;
#SAMPLELENGTH:12.000;
#SELECTABLE:YES;
#BPMS:0.000=129.035;
#STOPS:;
#BGCHANGES:;
// cache tags:
#FIRSTBEAT:0.500;
#LASTBEAT:217.000;
#SONGFILENAME:Songs/toune/Crazy Frog - We are the Champions/Crazy Frog - We are the Champions.sm;
#HASMUSIC:1;
#HASBANNER:0;
#MUSICLENGTH:105.098;
// end cache tags

//---------------dance-single - ----------------
#NOTES:
     dance-single:
     :
     Easy:
     4:
     0.260,0.308,0.057,0.029,0.000,182.000,6.000,3.000,0.000,0.000:  // measure 1
0000
0000
0001
0100
,  // measure 2
1000
0010
1000
0100
,  // measure 3
0001
0001
0010
0000
,  // measure 4
1000
1000
0010
0000
,  // measure 5
0000
0001
0010
0001
,  // measure 6
1000
0010
1000
0100
,  // measure 7
0002
0003
0000
0000
,  // measure 8
0000
1001
0100
0000
,  // measure 9
2000
0000
0000
3000
,  // measure 10
0001
0010
0010
0001
,  // measure 11
0001
0001
0010
0000
,  // measure 12
1000
0010
1000
0100
,  // measure 13
0001
0001
0010
0000
,  // measure 14
1000
0010
1000
0100
,  // measure 15
0001
0001
0010
0000
,  // measure 16
1000
0010
1000
0100
,  // measure 17
0001
0001
0010
0000
,  // measure 18
0001
0000
0000
1000
,  // measure 19
0001
0100
0010
0000
,  // measure 20
1000
0000
1000
0001
,  // measure 21
0200
0000
0000
0001
,  // measure 22
0300
0000
1000
0001
,  // measure 23
1000
0000
0100
0010
,  // measure 24
1000
0000
1000
0001
,  // measure 25
1000
0000
0100
0010
,  // measure 26
1000
0000
1000
0001
,  // measure 27
1000
0000
1000
0001
,  // measure 28
1000
0000
1000
0001
,  // measure 29
1000
0010
1000
0100
,  // measure 30
1000
0000
1000
0001
,  // measure 31
1000
0100
0010
0001
,  // measure 32
1000
0000
1000
0001
,  // measure 33
1000
0100
0010
0001
,  // measure 34
1000
0100
0001
0100
,  // measure 35
0101
0100
0010
0001
,  // measure 36
1001
0001
1000
0001
,  // measure 37
0110
0000
1000
0010
1000
0000
0100
0000
,  // measure 38
1000
0010
1000
0100
,  // measure 39
1000
0001
0011
1000
,  // measure 40
1000
0010
1000
0100
,  // measure 41
1000
0010
1000
0100
,  // measure 42
1000
0010
1000
0100
,  // measure 43
1000
0001
0011
1000
,  // measure 44
1000
0010
1000
0100
,  // measure 45
1000
0100
1000
0010
,  // measure 46
1000
0010
1000
0100
,  // measure 47
0001
0100
0001
0010
,  // measure 48
1000
0010
1000
0100
,  // measure 49
1000
0100
1000
0010
,  // measure 50
1000
0000
0100
0010
,  // measure 51
1000
0000
1000
0001
,  // measure 52
0001
0010
0010
0001
,  // measure 53
1000
0100
0010
0001
,  // measure 54
0001
0100
0010
0000
,  // measure 55
1000
0000
0000
0000
;

//---------------dance-single - ----------------
#NOTES:
     dance-single:
     :
     Medium:
     7:
     0.406,0.387,0.086,0.029,0.000,287.000,9.000,3.000,0.000,0.000:  // measure 1
0000
1000
0100
0010
,  // measure 2
0001
1000
0010
0010
0100
0000
0001
0000
,  // measure 3
0001
0100
0100
0001
1000
0000
0001
0000
,  // measure 4
0001
0010
0010
0001
1000
0000
0001
0000
,  // measure 5
0000
0001
0000
0000
0010
0000
0001
0100
,  // measure 6
0001
1000
0010
0010
0100
0000
0001
0000
,  // measure 7
0020
0100
1000
0001
,  // measure 8
0001
0000
0130
0001
1000
0000
0001
0000
,  // measure 9
2000
0010
3000
1000
,  // measure 10
1000
0001
0010
0100
0100
0010
0100
0000
,  // measure 11
0001
0100
0100
0001
1000
0000
0001
0000
,  // measure 12
0001
1000
0010
0010
0100
0000
0001
0000
,  // measure 13
0001
0100
0100
0001
1000
0000
0001
0000
,  // measure 14
0001
1000
0010
0010
0100
0000
0001
0000
,  // measure 15
0001
0100
0100
0001
1000
0000
0001
0000
,  // measure 16
0001
1000
0010
0010
0100
0000
0001
0000
,  // measure 17
0001
0100
0100
0001
1000
0000
0001
0000
,  // measure 18
0001
0000
0000
0000
0000
0100
0000
0001
,  // measure 19
0001
0000
1000
0001
0010
0000
0001
0000
,  // measure 20
1000
0001
0010
0000
0010
0000
0100
0000
,  // measure 21
2000
0010
0010
0100
,  // measure 22
3000
0001
0010
0000
0010
0000
0100
0000
,  // measure 23
0001
1000
0100
0010
,  // measure 24
1000
0001
0010
0000
0010
0000
0100
0000
,  // measure 25
0001
1000
0100
0010
,  // measure 26
1000
0001
0010
0000
0010
0000
0100
0000
,  // measure 27
0001
1000
0100
0000
0100
0000
0010
0000
,  // measure 28
0001
1000
0100
0000
0100
0000
0010
0000
,  // measure 29
0001
1000
0010
0010
0100
0000
0001
0000
,  // measure 30
1000
0010
1000
0000
1000
0000
0010
0000
,  // measure 31
0001
0100
0010
0010
0100
0000
0001
0000
,  // measure 32
1000
0001
0010
0000
0010
0000
0100
0000
,  // measure 33
0001
0100
0010
0010
0100
0000
0001
0000
,  // measure 34
0011
0000
0100
0010
0100
0000
0001
0000
,  // measure 35
0101
0000
0100
1000
0010
1000
0100
0000
,  // measure 36
1010
0000
1000
0010
0100
0000
0010
0000
,  // measure 37
0011
0000
1000
0010
1000
0100
0010
0001
,  // measure 38
0001
1000
0100
0000
0010
0001
0010
0000
,  // measure 39
0001
0000
1000
0000
1001
0000
0100
1000
,  // measure 40
0001
1000
0100
0000
0010
0001
0010
0000
,  // measure 41
1100
0010
0100
0010
,  // measure 42
0001
1000
0100
0000
0010
0001
0010
0000
,  // measure 43
0001
0000
1000
0000
1001
0000
0100
1000
,  // measure 44
0001
1000
0100
0000
0010
0001
0010
0000
,  // measure 45
1100
0000
0010
0000
1000
0010
0100
0000
,  // measure 46
0001
1000
0100
0000
0010
0001
0010
0000
,  // measure 47
1000
0001
0100
0000
0010
1000
0010
0000
,  // measure 48
1000
0001
0100
0000
0010
1000
0010
0000
,  // measure 49
1000
0001
0100
0000
0010
1000
0010
0000
,  // measure 50
0001
1000
0100
0010
,  // measure 51
1000
0001
0010
0000
0010
0000
0100
0000
,  // measure 52
1000
0001
0010
0100
0100
0010
0100
0000
,  // measure 53
0001
0100
0010
0010
0100
0000
0001
0000
,  // measure 54
0101
0000
0100
1000
0010
0000
0000
0000
,  // measure 55
0001
0100
0000
0000
;

//---------------dance-single - ----------------
#NOTES:
     dance-single:
     :
     Hard:
     8:
     0.512,0.439,0.190,0.029,0.000,354.000,20.000,3.000,0.000,0.000:  // measure 1
0000
1000
0100
1000
0001
0100
0001
0000
,  // measure 2
1000
0010
0100
0100
0001
0010
0001
0100
,  // measure 3
0001
1000
1000
0100
0010
0001
0100
0000
,  // measure 4
0001
1000
1000
0100
0010
0001
0100
0000
,  // measure 5
1000
0010
0100
0001
1000
0010
0100
0001
,  // measure 6
1000
0010
0100
0100
0001
0010
0001
0100
,  // measure 7
0020
1000
0030
0100
,  // measure 8
0001
0000
1010
0100
0010
0001
0100
0000
,  // measure 9
0002
0100
0003
0001
,  // measure 10
0101
0000
0001
0010
0010
0100
0010
0000
,  // measure 11
0001
1000
1000
0100
0010
0001
0100
0000
,  // measure 12
1000
0010
0100
0100
0001
0010
0001
0100
,  // measure 13
0001
1000
1000
0100
0010
0001
0100
0000
,  // measure 14
1000
0010
0100
0100
0001
0010
0001
0100
,  // measure 15
0001
1000
1000
0100
0010
0001
0100
0000
,  // measure 16
1000
0010
0100
0100
0001
0010
0001
0100
,  // measure 17
0001
1000
1000
0100
0010
0001
0100
0000
,  // measure 18
0001
1000
0000
0000
0010
1000
0001
0100
,  // measure 19
1000
0001
1000
0001
0010
0001
1000
0001
,  // measure 20
0001
0010
0001
0100
0100
0001
0100
0000
,  // measure 21
2000
0001
0010
0010
,  // measure 22
3001
0010
0001
0100
0100
0001
0100
0000
,  // measure 23
1000
1000
0100
1000
0001
1000
0010
1000
,  // measure 24
0001
0010
0001
0100
0100
0001
0100
0000
,  // measure 25
1000
1000
0100
1000
0001
1000
0010
1000
,  // measure 26
0001
0010
0001
0100
0100
0001
0100
0000
,  // measure 27
1000
0010
1000
0100
0100
1000
0100
0000
,  // measure 28
0001
0010
0001
0100
0100
0001
0100
0000
,  // measure 29
1000
0010
0100
0100
0001
0010
0001
0100
,  // measure 30
0000
0001
0000
1000
1000
1000
0001
0001
,  // measure 31
0001
1000
0100
0100
1000
0000
0010
0001
,  // measure 32
0001
0010
0001
0100
0100
0001
0100
0000
,  // measure 33
0001
1000
0100
0100
1000
0000
0010
0000
,  // measure 34
0011
0000
1000
0100
1000
0010
0100
0000
,  // measure 35
0110
0000
1000
0100
0001
0100
1000
0000
,  // measure 36
1001
0000
1000
0001
1000
0000
0010
0000
,  // measure 37
1100
0000
0010
0100
0010
0100
0010
0000
,  // measure 38
0101
0000
0010
0100
1000
0100
0010
0100
,  // measure 39
1000
0001
0100
0000
1001
0000
0010
0000
,  // measure 40
0101
0000
0010
0100
1000
0100
0010
0000
,  // measure 41
0101
0000
0100
0001
0100
1000
0001
0000
,  // measure 42
0101
0000
0010
0100
1000
0100
0010
0100
,  // measure 43
1000
0001
0100
0000
1001
0000
0010
0000
,  // measure 44
0101
0000
0010
0100
1000
0100
0010
0000
,  // measure 45
0101
0000
0010
0000
0001
0010
0100
0000
,  // measure 46
0101
0000
0010
0100
1000
0100
0010
0000
,  // measure 47
0011
0000
0100
0010
1000
0010
0100
0000
,  // measure 48
0101
0000
0010
0100
1000
0100
0010
0000
,  // measure 49
0101
0000
0010
0100
1000
0100
0010
0100
,  // measure 50
1000
1000
0100
1000
0001
1000
0010
1000
,  // measure 51
0001
0010
0001
0100
0100
0001
0100
0000
,  // measure 52
0101
0000
0001
0010
0010
0100
0010
0000
,  // measure 53
0001
1000
0100
0100
1000
0000
0010
0000
,  // measure 54
0011
0000
0010
0100
0001
0001
0000
0000
,  // measure 55
0001
0100
0001
0000
0000
0000
0000
0000
;
