#TITLE:Clarity;
#SUBTITLE:(Eurobeat Remix);
#ARTIST:Zedd Feat. Foxes;
#TITLETRANSLIT:;
#SUBTITLETRANSLIT:;
#ARTISTTRANSLIT:;
#CREDIT:;
#BANNER:Clarity (Eurobeat Remix)-BN.png;
#BACKGROUND:Clarity (Eurobeat Remix)-BG.png;
#LYRICSPATH:;
#CDTITLE:;
#MUSIC:Clarity (Eurobeat Remix).ogg;
#OFFSET:-0.012;
#SAMPLESTART:106.679;
#SAMPLELENGTH:18.000;
#SELECTABLE:YES;
#DISPLAYBPM:162.000;
#BPMS:0.000=162.000,160.000=81.000,176.000=162.000,396.000=81.000,398.000=162.000;
#STOPS:619.500=0.001
;
#BGCHANGES:;
// cache tags:
#FIRSTBEAT:32.000;
#LASTBEAT:782.000;
#SONGFILENAME:Songs/Index Tournament 1/Clarity (Eurobeat Remix)/Clarity (Eurobeat Remix).sm;
#HASMUSIC:1;
#HASBANNER:1;
#MUSICLENGTH:302.329;
// end cache tags

//---------------dance-single - (KuKi) Feat. ![SkATT----------------
#NOTES:
     dance-single:
     (KuKi) Feat. ![SkATT:
     Challenge:
     11:
     0.886,1.000,0.086,0.423,0.761,1722.000,26.000,128.000,0.000,0.000:
0000
0000
0000
0000
,
0000
0000
0000
0000
,
0000
0000
0000
0000
,
0000
0000
0000
0000
,
0000
0000
0000
0000
,
0000
0000
0000
0000
,
0000
0000
0000
0000
,
0000
0000
0000
0000
,
0001
1000
0100
1000
0001
0100
0010
0100
,
0001
1000
0100
1000
0100
0010
0200
0000
,
1300
0001
0100
0010
1000
0001
0100
0001
,
1000
0010
1000
0001
1000
0100
0020
0000
,
0130
1000
1100
1000
0001
0100
0101
0001
,
1000
0010
1010
0010
1000
0001
2000
0000
,
3100
0010
0011
0001
0100
0010
0110
0100
,
0001
0000
1000
0000
1001
0000
1000
0000
0100
0010
0100
1000
0001
0100
0010
0100
,
0001
0100
0001
1000
0001
0010
0001
1000
,
0100
1000
0010
0100
0010
1000
0100
1000
,
0001
0100
0001
0100
0010
0100
0001
0010
,
0001
0000
1000
0000
0001
0000
0010
0000
0100
0000
1000
0000
0100
0000
1000
0001
,
0010
0001
1000
0010
1000
0001
0100
0001
,
1000
0100
1000
0001
0100
0010
1000
0001
,
0100
0010
1000
0001
1000
0001
1000
0100
,
1000
0001
0100
0010
0100
0001
1000
0100
2000
0000
0000
0000
3002
0000
0000
0000
,
0203
0000
0010
0000
0010
0000
0310
0100
,
0001
0000
1000
0100
1000
0000
0100
1000
,
0001
0100
0020
0000
0230
0000
0302
0000
,
2003
0000
3200
0000
1300
0100
0020
0000
,
0130
1000
0001
0100
0010
1000
0001
1000
,
0001
0100
0001
1000
0001
0100
0001
0010
,
0100
1000
0100
1000
0001
0100
0001
0100
,
0020
0000
0230
0000
0310
1000
0002
0000
,
1003
0000
0100
1000
0001
0100
0010
0000
0100
0010
0100
0001
1000
0000
0200
0000
,
0000
0000
1300
0000
0100
0000
2000
0000
0000
0000
3001
0100
0010
0100
0001
0100
,
0001
0000
0000
1000
0000
0000
0001
0000
0000
1000
0000
0000
0100
0000
0000
0000
0000
0000
1000
0000
0100
0000
1000
0000
0100
0000
0000
0000
0000
0000
1000
0000
0000
0000
0000
0000
0001
0000
0000
0000
0000
0000
0200
0000
0000
0000
0000
0000
,
0000
0310
1000
0002
0000
2003
0000
3100
,
0010
0001
0010
0001
1000
0010
1000
0000
0010
0100
0001
0000
0100
0000
0002
0000
,
0000
0000
1003
0000
0100
0000
2000
0000
0000
0000
3100
0010
0100
0010
0100
1000
,
0100
0000
0000
1000
0000
0000
0001
0000
0000
0100
0000
0000
0010
0000
0000
0000
0000
0000
1000
0000
0010
0000
1000
0000
0001
0000
0000
0000
0000
0000
2000
0000
0000
0000
0000
0000
0000
0000
0000
0000
0000
0000
3200
0000
0000
0000
0000
0000
,
0000
1300
0001
0200
0000
0320
0000
0000
,
0130
0000
0001
0000
1000
0000
0100
0010
0001
0000
0010
0000
0011
0000
0001
1000
,
0010
0000
0100
0000
0101
0000
0001
1000
0001
0000
1000
0100
0010
0100
1000
0100
,
1000
0000
1100
0000
1001
0000
0001
0100
0010
0000
0101
0000
1001
0000
1000
0001
,
0100
0000
0000
0000
0110
0000
0000
0000
0101
0000
0000
0000
0001
0000
0100
0000
0010
0000
1000
0000
0001
0000
0010
0000
0001
0100
0001
0100
0001
1000
0001
1000
,
0001
0000
1000
0000
0010
0000
1000
0000
0001
0000
0100
0000
0001
0000
1000
0100
,
0010
0000
0100
0000
1000
0000
0100
0000
1000
0000
0001
0000
0100
0000
0010
0100
,
0001
0000
1000
0000
0100
0000
1000
0000
0001
0000
0100
0000
0010
0000
0100
0001
,
0100
0000
0001
0000
1000
0000
0100
1000
0100
0000
1000
0000
0010
0000
0100
0010
,
0100
0000
0001
0000
1000
0000
0100
0000
1000
0000
0001
0000
0010
0000
0100
1000
,
0100
0000
1000
0000
0001
0000
1000
0000
0010
0000
0100
0000
0001
0000
1000
0100
,
0010
0000
0100
0000
0010
0000
0001
0000
0010
0000
0001
0000
0100
0000
0010
0100
,
0001
0000
1000
0000
0100
0000
0010
0100
1000
0001
0100
0010
0100
0001
1000
0100
,
1000
0000
0100
1000
0001
0000
0100
0001
1000
0000
0100
0010
0001
0000
0010
0000
,
0001
0000
1000
0010
0100
0000
0010
0100
0001
0000
1000
0100
0010
0000
0100
0000
,
0010
0000
0001
0010
0001
0000
1000
0010
1000
0000
0001
1000
0100
0000
1000
0000
,
0200
2300
3002
0203
,
0310
0000
0100
0001
0100
0000
0001
1000
0001
0000
1000
0100
1000
0000
0100
0000
,
1000
0000
0100
1000
0010
0000
0100
0001
0010
0000
0001
0010
0001
0000
0010
0000
,
0001
0000
1000
0010
1000
0000
0001
1000
0100
0000
1000
0100
0010
0000
0001
0000
,
2000
3020
0230
0320
,
1030
0010
1000
0001
1000
0001
1000
0100
1000
0100
0010
0100
1000
0001
1000
0001
,
0010
0001
0010
0100
0010
0100
1000
0100
1000
0010
0100
0001
0100
0001
1000
0001
,
0010
0001
1000
0010
1000
0001
0100
0001
1000
0100
1000
0001
0100
0010
0100
0001
,
2000
0000
3200
0000
0310
0001
0020
0000
,
0031
0010
0001
0010
0100
0010
0100
1000
0100
1000
0010
1000
0001
0100
0010
1000
,
0001
1000
0100
1000
0001
0100
0001
1000
0010
1000
0010
0100
0010
0100
0001
0100
,
0001
0010
0100
1000
0001
0010
0100
1000
0100
1000
0010
0100
0001
1000
0100
0010
,
0001
1000
0100
0010
0001
0100
0010
0100
0002
0000
0000
0000
2003
0000
0000
0000
,
3010
0000
1000
0010
1000
0001
0100
0000
0010
0100
0001
1000
0100
0000
2000
0000
,
0000
0000
3100
0000
1000
0000
0200
0000
0000
0000
1300
0001
0100
0010
1000
0001
,
1000
0000
0000
0100
0000
0000
1000
0000
0000
0100
0000
0000
1000
0000
0000
0000
0000
0000
0001
0000
0100
0000
0001
0000
1000
0000
0000
0000
0000
0000
0010
0000
0000
0000
0000
0000
1000
0000
0000
0000
0000
0000
0002
0000
0000
0000
0000
0000
,
0000
0103
0001
0200
0000
0302
0000
0013
,
0100
1000
0100
1000
0001
0100
0001
0000
1000
0010
1000
0000
0001
0000
0200
0000
,
0000
0000
0310
0000
0100
0000
0002
0000
0000
0000
1003
0010
1000
0001
0100
0001
,
1000
0000
0000
0100
0000
0000
0010
0000
0000
0001
0000
0000
0010
0000
0000
0000
0000
0000
0001
0000
0010
0000
0001
0000
0010
0000
0000
0000
0000
0000
0002
0000
0000
0000
0000
0000
0000
0000
0000
0000
0000
0000
0023
0000
0000
0000
0000
0000
,
0000
0130
1000
0200
0000
2300
0000
0000
,
3001
0000
1000
0000
0010
0000
1000
0000
0001
0000
0100
0000
0010
0000
1000
0001
,
0010
0000
0100
0000
1000
0000
0100
0000
1000
0000
0001
0000
0010
0000
0100
1000
,
0001
0000
1000
0000
0100
0000
0010
0000
0100
0000
1000
0000
0001
0000
0100
0010
,
0100
0000
0010
0000
1000
0000
0001
0000
0100
0001
0100
0001
1000
0000
0100
0000
,
1000
0000
0100
0000
0010
0000
0100
0000
0010
0000
0001
0000
0100
0000
0001
1000
,
0010
0000
1000
0000
0001
0000
1000
0000
0100
0000
0010
0000
0001
0000
0100
0010
,
1000
0000
0001
0000
1000
0000
0100
0010
0001
0000
0010
0000
0001
0000
0010
0001
,
0020
0000
0000
0000
0000
0000
0000
0000
0000
0000
0000
0000
0030
0000
0000
0000
0000
0000
0000
0000
0000
0000
0000
0000
0002
0000
0000
0000
0000
0000
0000
0000
0000
0000
0000
0000
0000
0000
0000
0000
0003
0000
0000
0000
0000
0000
0000
0000
2000
0000
0000
0000
0000
0000
0000
0000
0000
0000
0000
0000
0000
0000
0000
0000
0000
0000
0000
0000
3000
0000
0000
0000
0020
0000
0000
0000
0000
0000
0000
0000
0000
0000
0000
0000
0000
0000
0000
0000
0000
0000
0000
0000
0000
0000
0000
0000
2030
0000
0000
0000
0000
0000
0000
0000
0000
0000
0000
0000
0000
0000
0000
0000
0000
0000
0000
0000
0000
0000
0000
0000
0002
0000
0000
3000
0000
0000
0000
0000
0000
0000
0000
0000
0000
0000
0000
0000
0000
0000
0000
0000
0000
0000
0000
0000
0200
0000
0000
0000
0000
0000
0003
0000
0000
0000
0000
0000
0000
0000
0000
0000
0000
0000
0000
0000
0000
0000
0000
0000
0002
0000
0000
0000
0000
0000
0000
0000
0000
0300
0000
0000
0000
0000
0000
0000
0000
0000
0000
0000
0000
0000
0000
0000
,
0010
0000
0000
0003
0100
0000
0000
0000
1000
0000
0000
0000
0100
0000
0000
0000
1000
0000
0000
0000
0001
0000
0000
0000
0100
0000
0000
0000
0010
0000
0000
0000
,
1000
0001
1000
0100
0010
0100
0010
0001
,
1000
0010
1000
0001
1000
0001
0010
0001
,
1000
0000
0001
0000
0010
0000
0001
0000
1000
0010
1000
0001
1000
0000
0010
0000
,
1000
0001
0100
0001
1000
0100
0010
0100
,
1000
0001
0100
0001
0100
0001
1000
0001
,
1000
0001
0010
0100
1000
0001
0010
0100
,
1000
0000
1000
0000
0001
0000
0001
0000
0100
0010
0100
0001
0100
0000
0001
0000
,
1000
0000
0001
1000
0001
0000
0100
0010
0100
0000
0001
1000
0001
0000
0010
0000
,
0001
0000
1000
0100
0010
0000
0001
1000
0001
0000
0100
0010
1000
0000
0001
0000
,
0100
0000
0010
0100
0001
0000
1000
0100
0010
0000
0100
0010
0001
0000
0010
0000
,
0002
2003
3020
2030
,
3001
0000
0100
0010
1000
0000
0010
1000
0001
0000
1000
0001
0010
0000
0001
0000
,
0010
0000
0100
1000
0100
0000
1000
0100
1000
0000
0001
0100
0010
0000
0100
0000
,
0001
0000
1000
0010
1000
0000
0001
0100
0001
0000
1000
0001
0010
0000
0100
0000
,
0020
0000
0230
0000
2300
0000
3002
0000
0103
0010
0100
0001
0100
0010
1000
0001
,
0100
0010
1000
0001
0100
0001
1000
0001
1000
0001
0010
0001
0010
0100
0010
0100
,
1000
0100
1000
0001
0100
0001
0010
0001
0100
0010
0100
0001
0100
0001
1000
0100
,
0010
0100
0010
0100
1000
0001
0100
0010
0200
0000
0000
0000
0320
0000
0000
0000
,
0130
0000
0001
0000
2000
0000
0000
0000
3100
1000
0100
1000
0010
0100
0010
0100
,
0001
0100
0001
0100
0001
1000
0001
1000
0001
0010
0100
1000
0001
0010
0100
0010
,
0001
1000
0100
0010
0001
1000
0100
0010
0100
1000
0010
0100
0001
0100
0001
1000
,
0100
1000
0100
1000
0100
1000
0001
0100
0020
0000
0000
0000
0230
0000
0000
0000
,
0301
0000
1000
0000
0200
0000
0000
0000
1300
0001
0100
0001
1000
0001
1000
0010
,
1000
0010
1000
0001
0100
0001
0100
0001
1000
0100
0010
0100
1000
0001
0100
0010
,
0100
0001
1000
0100
1000
0001
0100
0001
1000
0010
1000
0001
0100
0001
1000
0100
,
0010
0100
1000
0001
0100
0010
0100
0001
1000
0001
1000
0001
0010
0001
0010
0100
,
1000
0100
0010
0001
1000
0001
1000
0010
0100
0010
1000
0001
1000
0001
1000
0010
,
0100
0010
1000
0001
0100
0001
0010
0001
0010
0100
0010
0100
1000
0100
1000
0001
,
0100
0010
0100
0010
1000
0001
0100
0001
1000
0100
1000
0100
0010
0100
0010
0001
,
0010
0001
0100
0010
0100
0001
0100
0001
1000
0001
1000
0001
0010
0001
0010
0100
,
1000
0000
0100
0000
2000
0000
0000
0000
3001
0000
1000
0010
0100
0010
1000
0000
,
0010
0100
0001
1000
0100
0000
2000
0000
0000
0000
3100
0000
1000
0000
0002
0000
,
0000
0000
0000
0000
0000
0000
0103
0000
0000
0010
0000
0000
0100
0000
0000
0001
0000
0000
1000
0000
0000
0100
0000
0000
1000
0000
0000
0100
0000
0000
1000
0000
0000
0100
0000
0000
1000
0000
0000
0000
0000
0000
0001
0000
0100
0000
0010
0000
,
0100
0010
1000
0002
0000
1003
0100
0020
,
0000
0000
0230
0000
0000
0000
1300
0000
0001
0100
0010
1000
0001
1000
0100
0000
,
1000
0100
0010
0000
0100
0000
0020
0000
0000
0000
0031
0000
0010
0000
0002
0000
,
0000
0000
0000
0000
0000
0000
1003
0000
0000
0010
0000
0000
1000
0000
0000
0001
0000
0000
1000
0000
0000
0100
0000
0000
1000
0000
0000
0100
0000
0000
1000
0000
0000
0001
0000
0000
0100
0000
0000
0000
0000
0000
0010
0000
0100
0000
0010
0000
,
0100
0010
1000
0002
0000
0013
0100
0020
,
0000
0230
0000
0000
2300
0000
0000
0000
,
0000
0000
3200
0000
,
0000
0000
2300
0000
,
0000
0000
3002
0000
,
0000
0000
0203
0000
,
0000
0000
0320
0000
,
0000
0000
2030
0000
,
0000
0000
3002
0000
,
0000
0000
0000
0013
,
0100
0000
1000
0100
1000
0000
0001
0000
,
0001
0000
1000
0100
1000
0000
0010
0000
,
0100
0000
0001
0100
0001
0000
1000
0010
,
1000
0001
0100
0001
1000
0000
0100
0000
,
0010
0000
0100
0010
0001
0000
1000
0000
,
1000
0000
0100
0010
0001
0000
0100
0000
,
0001
0000
1000
0010
1000
0000
0001
0100
,
0001
1000
0100
0010
0100
0000
1100
0000
,
1001
0000
0001
0100
0010
0000
0110
0000
,
1010
0000
1000
0001
1000
0000
1001
0000
,
0011
0000
0001
0010
0001
0000
0010
0100
,
0010
0100
1000
0100
1000
0000
1100
0000
,
1001
0000
0001
0100
0010
0000
0110
0000
,
1010
0000
1000
0001
0100
0000
0101
0000
,
1001
0000
1000
0010
1000
0000
0010
1000
,
0010
1000
0001
0100
0001
1000
0100
0010
,
0100
1000
0001
0100
0020
0000
2030
0000
,
3002
0000
0000
0000
0013
0001
1000
0010
,
1000
0001
1000
0100
2000
0000
3200
0000
,
0320
0000
0032
0000
0013
0010
0001
0001
,
1000
1000
0010
0010
1000
1000
0001
0001
,
0100
0000
0100
0000
0010
0000
0010
0000
1000
0010
0100
0001
1000
0001
0010
0001
,
0010
0100
0010
0100
1000
0100
1000
0001
0100
0010
0100
0001
1000
0001
0100
0010
,
0200
0000
0000
0000
0302
0000
0000
0000
1003
0000
0100
0000
1000
0000
0010
0100
,
0001
0000
0100
0001
0100
0000
0001
0000
1000
0000
0100
0000
0010
0000
0200
0000
,
0000
0000
0310
0001
1000
0010
1000
0001
1000
0000
0010
0000
0001
0000
0010
0000
,
1000
0001
0100
0001
0010
0000
0200
0000
0000
0000
1300
0001
0100
0001
0010
0001
,
0010
0000
0001
0000
0010
0000
1000
0000
0010
0001
0010
0001
0100
0010
0100
0001
,
0010
0001
0100
0010
0100
0001
0010
0001
1000
0010
1000
0001
0100
0010
0100
0001
,
1000
0000
0000
0100
1000
0100
1000
0000
0000
0100
0000
0000
1000
0000
0000
0001
0000
0000
0100
0000
0000
0020
0000
0000
,
0000
0000
0130
0000
0001
0000
1000
0000
0100
1000
0100
1000
0001
0100
0010
0100
,
0002
0000
0000
0000
2003
0000
0000
0000
3100
1000
0010
0100
0010
1000
0001
1000
,
0010
0100
0010
1000
0100
0010
0001
1000
0100
0010
0001
0010
0001
0100
0010
0100
,
0001
1000
0001
1000
0100
0010
0100
0010
0100
0010
0001
0010
0001
1000
0001
1000
,
0001
0100
0001
0100
0010
0100
0010
1000
0010
1000
0001
1000
0001
1000
0001
0100
,
0001
1000
0100
1000
0100
1000
0100
0010
0100
0010
0100
0010
0100
1000
0100
1000
,
0001
0100
0010
0100
0001
0010
0100
1000
0100
1000
0001
0100
0010
1000
0001
0100
,
0001
0100
0001
0010
0001
0010
0100
0010
0100
1000
0100
1000
0001
0100
0010
1000
,
0001
0100
0001
1000
0010
1000
0001
0100
0001
0100
0001
0010
0100
1000
0100
0010
,
0100
0000
1000
0000
0200
0000
0000
0000
1300
0000
0001
0100
0010
1000
0001
0000
,
1000
0010
1000
0001
0100
0000
0020
0000
0000
0000
0130
0000
0001
0000
2000
0000
,
0000
0000
0000
0000
0000
0000
3100
0000
0000
0010
0000
0000
0100
0000
0000
0010
0000
0000
0100
0000
0000
1000
0000
0000
0100
0000
0000
1000
0000
0000
0001
0000
0000
0100
0000
0000
0010
0000
0000
0000
0000
0000
0100
0000
0010
0000
1000
0000
,
0010
1000
0001
0020
0000
0130
1000
0200
,
0000
0000
2300
0000
0000
0000
3001
0000
0100
0001
0100
0001
0010
0001
0010
0000
,
0001
0010
0100
0000
0010
0000
0200
0000
0000
0000
1300
0000
0100
0000
2000
0000
,
0000
0000
0000
0000
0000
0000
3001
0000
0000
0100
0000
0000
0010
0000
0000
1000
0000
0000
0001
0000
0000
1000
0000
0000
0001
0000
0000
0010
0000
0000
0001
0000
0000
1000
0000
0000
0100
0000
0000
0000
0000
0000
1000
0000
0100
0000
1000
0000
,
0100
1000
0001
0100
0010
0100
0001
2000
,
0000
0000
3100
0000
1000
0000
0100
0000
1000
0001
0100
0010
0100
0001
1000
0000
,
0100
1000
0001
0100
0010
0100
0002
0000
0000
0000
1003
0000
0100
0000
2000
0000
,
0000
0000
0000
0000
0000
0000
3001
0000
0000
0100
0000
0000
0001
0000
0000
1000
0000
0000
0001
0000
0000
0010
0000
0000
0001
0000
0000
1000
0000
0000
0100
0000
0000
1000
0000
0000
0100
0000
0000
0000
0000
0000
1000
0000
0001
0000
0100
0000
,
0010
0100
0001
2000
0000
3100
0010
0002
,
0000
0000
0023
0000
0000
0000
0031
0000
1000
0010
1000
0001
0100
0001
1000
0000
,
0100
0010
0001
0000
0010
0000
0002
0000
0000
0000
0013
0000
0001
0000
0020
0000
,
0000
0000
0000
0000
0000
0000
0031
0000
0000
0100
0000
0000
0010
0000
0000
1000
0000
0000
0001
0000
0000
1000
0000
0000
0100
0000
0000
1000
0000
0000
0001
0000
0000
0100
0000
0000
0010
0000
0000
0000
0000
0000
1000
0000
0001
0000
0100
0000
,
0001
0100
0001
2000
0000
3100
1000
0200
,
0000
2300
0000
0000
3001
0100
0010
0100
,
0001
1000
0100
0010
0100
1000
0001
0010
,
0100
1000
0001
1000
0010
0100
0001
0100
,
0001
1000
0001
1000
0001
0010
0001
1000
,
0100
1000
0010
0100
0002
0000
0000
0000
,
0000
0000
2003
0000
,
0000
0000
3200
0000
,
0000
0000
2300
0000
,
0000
0000
3001
0000
;
