#TITLE:Hardman Theme;
#SUBTITLE:Mega Man 3;
#ARTIST:Capcom;
#TITLETRANSLIT:;
#SUBTITLETRANSLIT:;
#ARTISTTRANSLIT:;
#CREDIT:;
#BANNER:Hardman-banner.png;
#BACKGROUND:Hardman-bg.png;
#LYRICSPATH:;
#CDTITLE:;
#MUSIC:MEGA MAN III (5-57).mp3;
#OFFSET:3.260;
#SAMPLESTART:0.080;
#SAMPLELENGTH:12.000;
#SELECTABLE:YES;
#BPMS:0.000=143.840;
#STOPS:;
#BGCHANGES:;
// cache tags:
#FIRSTBEAT:8.000;
#LASTBEAT:231.750;
#SONGFILENAME:Songs/keyboard/hardman/hardman.sm;
#HASMUSIC:1;
#HASBANNER:1;
#MUSICLENGTH:124.115;
// end cache tags

//---------------dance-single - ----------------
#NOTES:
     dance-single:
     :
     Challenge:
     15:
     0.966,1.000,1.000,0.193,1.000,581.000,234.000,24.000,0.000,0.000:
0000
0000
0000
0000
,
0000
0000
0000
0000
,
1001
0000
0001
0000
1010
0010
0000
0101
0000
1010
0000
1001
0000
0000
0001
0010
,
1100
0000
1000
0000
0101
0100
0000
1010
0000
0110
0000
0101
0000
0000
0001
1000
,
1100
0000
0100
0000
0010
0001
0000
0101
0000
0100
0000
0010
0010
0000
1000
0000
,
1100
0000
0110
0000
0011
0011
0000
2002
0000
0000
0000
0000
0000
0000
3003
0000
,
1001
0000
1000
0000
0101
0100
0000
1010
0000
0101
0000
1001
0000
0000
1000
0100
,
0011
0000
0001
0000
1010
0010
0000
0101
0000
0110
0000
1010
0000
0000
1000
0001
,
0011
0000
0010
0000
0100
1000
0000
1010
0000
0010
0000
0100
0100
0000
0001
0000
,
1001
0001
0100
0010
1010
1000
0001
0200
0000
0000
0000
0000
0000
0000
0300
0000
,
0001
0000
0101
0000
1000
1001
0000
1000
0010
1000
0000
0001
1010
0010
0100
0001
,
0020
0000
0001
0030
0200
0001
0300
1000
0001
1000
0000
0001
0000
0000
0000
0000
,
1000
0000
1010
0000
0100
1001
0000
0010
1000
0001
0000
1000
0001
1000
0010
0100
,
0001
0000
1100
0000
0100
0110
0000
0001
0010
0001
0000
0100
0000
0000
0000
0000
,
1000
0000
1010
0000
0001
1001
0000
0001
0100
0001
0000
1000
0101
0100
0010
1000
,
0200
0000
1000
0300
0020
1000
0030
0001
1000
0001
0000
1000
0000
0000
0000
0000
,
0001
0000
0101
0000
0010
1001
0000
0100
0001
1000
0000
0001
1000
0001
0100
0010
,
1000
0000
0011
0000
0010
0110
0000
1000
0100
1000
0000
0001
0000
0000
0000
0000
,
2001
0000
0100
0000
0010
0000
0001
3000
0201
0000
0000
0020
0000
0000
0000
0330
,
0120
0000
0000
0000
0001
0000
0000
0000
1000
0000
0000
0000
0130
0000
0000
0000
1002
0000
0000
0000
0003
0000
1000
0000
0001
0010
0100
1000
0001
0010
0100
1000
,
0100
0010
0001
0011
0001
1000
1001
0001
0110
0100
1000
1001
0001
0100
0110
0010
,
1010
1000
0001
0011
0010
0100
1100
1000
1001
0001
1000
1001
0001
0010
0110
0100
,
1100
1000
0110
0000
0011
1001
0000
0101
0000
0001
0010
0100
1100
0000
1010
0000
,
1001
1000
0101
0000
0001
1100
0000
1001
0000
1010
0000
0001
0101
0000
1010
0000
,
1010
1000
1100
0000
0110
1100
0000
1001
0000
1000
0100
0010
0011
0000
0101
0000
,
1001
1000
0110
0000
0100
0101
0000
0011
0000
0110
0100
1100
0110
0001
0011
1000
,
1001
0100
0110
0000
0110
0101
0000
1010
0000
1000
0010
0100
0110
0000
0101
0000
,
0011
0010
1100
0000
0001
1001
0000
1000
0000
1000
0010
1001
0110
0001
0011
0100
,
1100
0001
1001
0000
1000
0101
0000
1010
0000
0010
1000
0001
1001
0000
1010
0000
,
0101
1000
0110
0000
0001
0101
0000
0011
0000
1100
1100
0000
1100
0000
1100
1100
,
1001
0000
0001
0000
1010
0010
0000
0101
0000
1010
0000
1001
0000
0000
0001
0010
,
1100
0000
1000
0000
0101
0100
0000
1010
0000
0110
0000
0101
0000
0000
0001
1000
,
1100
0000
0100
0000
0010
0001
0000
0101
0000
0100
0000
0010
0010
0000
1000
0000
,
1100
0000
0110
0000
0011
0011
0000
2002
0000
0000
0000
0000
0000
0000
3003
0000
,
1001
0000
1000
0000
0101
0100
0000
1010
0000
0101
0000
1001
0000
0000
1000
0100
,
0011
0000
0001
0000
1010
0010
0000
0101
0000
0110
0000
1010
0000
0000
1000
0001
,
0011
0000
0010
0000
0100
1000
0000
1010
0000
0010
0000
0100
0100
0000
0001
0000
,
1001
0001
0100
0010
1010
1000
0001
0200
0000
0000
0000
0000
0000
0000
0300
0000
,
0001
0000
0101
0000
1000
1001
0000
1000
0010
1000
0000
0001
1010
0010
0100
0001
,
0020
0000
0001
0030
0200
0001
0300
1000
0001
1000
0000
0001
0000
0000
0000
0000
,
1000
0000
1010
0000
0100
1001
0000
0010
1000
0001
0000
1000
0001
1000
0010
0100
,
0001
0000
1100
0000
0100
0110
0000
0001
0010
0001
0000
0100
0000
0000
0000
0000
,
1000
0000
1010
0000
0001
1001
0000
0001
0100
0001
0000
1000
0101
0100
0010
1000
,
0200
0000
1000
0300
0020
1000
0030
0001
1000
0001
0000
1000
0000
0000
0000
0000
,
0001
0000
0101
0000
0010
1001
0000
0100
0001
1000
0000
0001
1000
0001
0100
0010
,
1000
0000
0011
0000
0010
0110
0000
1000
0100
1000
0000
0001
0000
0000
0000
0000
,
2001
0000
0100
0000
0010
0000
0001
3000
0201
0000
0000
0020
0000
0000
0000
0330
,
0120
0000
0000
0000
0001
0000
0000
0000
1000
0000
0000
0000
0130
0000
0000
0000
1002
0000
0000
0000
0003
0000
1000
0000
0001
0010
0100
1000
0001
0010
0100
1000
,
0100
0010
0001
0011
0001
1000
1001
0001
0110
0100
1000
1001
0001
0100
0110
0010
,
1010
1000
0001
0011
0010
0100
1100
1000
1001
0001
1000
1001
0001
0010
0110
0100
,
1100
1000
0110
0000
0011
1001
0000
0101
0000
0001
0010
0100
1100
0000
1010
0000
,
1001
1000
0101
0000
0001
1100
0000
1001
0000
1010
0000
0001
0101
0000
1010
0000
,
1010
1000
1100
0000
0110
1100
0000
1001
0000
1000
0100
0010
0011
0000
0101
0000
,
1001
1000
0110
0000
0100
0101
0000
0011
0000
0110
0100
1100
0110
0001
0011
1000
,
1001
0100
0110
0000
0110
0101
0000
1010
0000
1000
0010
0100
0110
0000
0101
0000
,
0011
0010
1100
0000
0001
1001
0000
1000
0001
1000
0010
1001
0110
0001
0011
0100
,
1100
0001
1001
0000
1000
0101
0000
1010
0000
0010
1000
0001
1001
0000
1010
0000
,
0101
1000
0110
0000
0001
0101
0000
0011
0000
1001
1001
0000
1001
0000
1001
1001
;

//---------------dance-single - ----------------
#NOTES:
     dance-single:
     :
     Hard:
     11:
     0.702,0.770,0.483,0.145,0.967,532.000,60.000,18.000,0.000,0.000:
0000
0000
0000
0000
,
0000
0000
0000
0000
,
1001
0000
0001
0000
0010
0100
0000
1100
0000
0011
0000
1100
0000
0000
1000
0010
,
0101
0000
0100
0000
0010
1000
0000
0101
0000
1010
0000
0101
0000
0000
0001
0100
,
0110
0000
0010
0000
1000
0100
0000
0110
0000
0010
0000
0001
1000
0000
0001
0000
,
1100
0000
1000
0000
0001
0100
0000
2020
0000
0000
0000
0000
0000
0000
3030
0000
,
1001
0000
0001
0000
0010
0100
0000
1100
0000
0011
0000
1100
0000
0000
1000
0010
,
0101
0000
0100
0000
0010
1000
0000
0101
0000
1010
0000
0101
0000
0000
0001
0100
,
0110
0000
0010
0000
1000
0100
0000
0110
0000
0010
0000
0001
1000
0000
0001
0000
,
1000
0100
0001
0100
1000
0010
0100
0002
0000
0000
0000
0000
0000
0000
0000
0003
,
1000
0000
0001
0000
1000
0001
0000
2000
0000
0000
0000
3000
0001
0100
0010
1000
,
0001
0000
0000
0000
0010
0000
0000
0200
0000
0000
0000
0300
0000
0000
0000
0000
,
1000
0000
1000
0100
0000
0100
0010
0000
0010
0001
0000
0010
0001
0010
0100
0010
,
0001
0000
0001
0010
0000
0010
0100
0000
0100
1000
0000
0001
0000
0000
0000
0000
,
0001
0000
1000
0000
0001
1000
0000
0002
0000
0000
0000
0003
1000
0010
0100
0001
,
1000
0000
0000
0000
0100
0000
0000
0020
0000
0000
0000
0030
0000
0000
0000
0000
,
0001
0000
0100
0010
0000
1000
0100
0000
0010
0001
0000
1000
0010
0100
0001
1000
,
0100
0000
0010
0001
0000
1000
0010
0000
0100
0001
0000
1000
0000
0000
0000
0000
,
1000
0001
1000
0001
0010
0100
0010
0100
1000
0001
1000
0001
0010
0100
0010
0100
,
1000
0001
1000
0001
0010
0100
0010
0100
1000
0001
1000
0001
2000
0000
0000
0000
,
3001
1000
0100
0001
0100
1000
0001
0010
0001
1000
0010
0100
0001
0100
0010
1000
,
0001
1000
0010
0100
0001
0100
0010
0100
0001
0010
0100
0010
0100
0010
1000
0100
,
0010
0000
0001
0000
0010
0100
0000
1000
0000
0000
1000
0000
0001
0000
0010
0000
,
0001
0000
1000
0000
0010
0100
0000
0001
0000
0011
0000
0000
0110
0000
1100
0000
,
1000
0000
0100
0000
0010
0001
0000
1000
0000
0000
0100
0000
0010
0000
0001
0000
,
0100
0000
0010
0000
1000
0100
0000
1000
0000
0001
0010
0100
1000
0100
0010
0001
,
0010
0000
0010
0000
0010
0100
0000
1000
0000
0000
0001
0000
1000
0000
0010
0000
,
0100
0000
0001
0000
1000
0001
0000
0001
0200
0000
0310
1000
0010
0100
0001
0010
,
0100
0000
1000
0000
0001
1000
0000
0001
0000
0000
0001
0000
0100
0000
0010
0000
,
1000
0000
0100
0000
0010
0001
0000
1000
0000
1001
1001
0000
1100
0000
0011
0011
,
1001
0000
1000
0000
0100
0010
0000
0011
0000
1100
0000
0011
0000
0000
0001
0100
,
1010
0000
0010
0000
0100
0001
0000
1010
0000
0101
0000
1010
0000
0000
1000
0010
,
0110
0000
0100
0000
0001
0010
0000
0110
0000
0100
0000
1000
0001
0000
1000
0000
,
0011
0000
0001
0000
1000
0010
0000
0202
0000
0000
0000
0000
0000
0000
0303
0000
,
1001
0000
1000
0000
0100
0010
0000
0011
0000
1100
0000
0011
0000
0000
0001
0100
,
1010
0000
0010
0000
0100
0001
0000
1010
0000
0101
0000
1010
0000
0000
1000
0010
,
0110
0000
0100
0000
0001
0010
0000
0110
0000
0100
0000
1000
0001
0000
1000
0000
,
0001
0010
1000
0010
0001
0100
0010
2000
0000
0000
0000
0000
0000
0000
0000
3000
,
0001
0000
1000
0000
0001
1000
0000
0002
0000
0000
0000
0003
1000
0010
0100
0001
,
1000
0000
0000
0000
0100
0000
0000
0020
0000
0000
0000
0030
0000
0000
0000
0000
,
0001
0000
0001
0010
0000
0010
0100
0000
0100
1000
0000
0100
1000
0100
0010
0100
,
1000
0000
1000
0100
0000
0100
0010
0000
0010
0001
0000
1000
0000
0000
0000
0000
,
1000
0000
0001
0000
1000
0001
0000
2000
0000
0000
0000
3000
0001
0100
0010
1000
,
0001
0000
0000
0000
0010
0000
0000
0200
0000
0000
0000
0300
0000
0000
0000
0000
,
1000
0000
0010
0100
0000
0001
0010
0000
0100
1000
0000
0001
0100
0010
1000
0001
,
0010
0000
0100
1000
0000
0001
0100
0000
0010
1000
0000
0001
0000
0000
0000
0000
,
0001
1000
0001
1000
0100
0010
0100
0010
0001
1000
0001
1000
0100
0010
0100
0010
,
0001
1000
0001
1000
0100
0010
0100
0010
0001
1000
0001
1000
0002
0000
0000
0000
,
1003
0010
0100
0001
1000
0100
1000
0001
0010
0100
1000
0100
0010
0001
1000
0001
,
0100
0001
1000
0010
1000
0100
0010
0100
0010
0001
0100
1000
0100
0001
0010
0001
,
0010
0000
0100
0000
0010
0100
0000
1000
0000
0000
0100
0000
0010
0000
0001
0000
,
1000
0000
0001
0000
0100
0010
0000
1000
0000
1100
0000
0000
0110
0000
0011
0000
,
0001
0000
0010
0000
0100
1000
0000
0001
0000
0000
0010
0000
0100
0000
1000
0000
,
0010
0000
0100
0000
0001
0010
0000
0001
0000
1000
0100
0010
0001
0010
0100
1000
,
0100
0000
0100
0000
0100
0010
0000
0001
0000
0000
1000
0000
0001
0000
0100
0000
,
0010
0000
1000
0000
0001
1000
0000
1000
0020
0030
1000
0010
0100
0001
0010
0100
,
1000
0000
1000
0000
0001
1000
0000
0001
0000
0000
1000
0000
0010
0000
0100
0000
,
0001
0000
0010
0000
0100
1000
0000
0001
0000
1001
1001
0000
0011
0000
1100
1100
;
