#TITLE:Witches Brew;
#SUBTITLE:;
#ARTIST:Katy B;
#TITLETRANSLIT:;
#SUBTITLETRANSLIT:;
#ARTISTTRANSLIT:;
#CREDIT:Aoreo;
#BANNER:../Banner.png;
#BACKGROUND:../bg.png;
#LYRICSPATH:;
#CDTITLE:;
#MUSIC:Witches Brew.ogg;
#OFFSET:0.009;
#SAMPLESTART:7.428;
#SAMPLELENGTH:12.000;
#SELECTABLE:YES;
#BPMS:0.000=256.000;
#STOPS:;
#BGCHANGES:;
// cache tags:
#FIRSTBEAT:0.000;
#LASTBEAT:568.125;
#SONGFILENAME:Songs/Tachyon Epsilon/Witches Brew - [Aoreo]/Witches Brew.sm;
#HASMUSIC:1;
#HASBANNER:1;
#MUSICLENGTH:135.705;
// end cache tags

//---------------dance-single - Aoreo----------------
#NOTES:
     dance-single:
     Aoreo:
     Beginner:
     11:
     1.000,1.000,0.287,1.000,0.479,688.000,39.000,208.000,24.000,44.000:



1000
0100
0010
0100
1000
0010
0100
0001
,
0010
0100
1000
0001
0100
0010
0100
0001
,
1000
0100
0010
0001
1000
0100
1000
0010
,
0100
0001
0010
0100
1000
0001
0100
0001
,
1000
0100
1000
0001
0100
0001
0010
0100
,
1000
0100
0100
0001
1000
0100
1000
0010
,
0100
0001
1000
0100
1000
0010
0100
0001
,
1000
0100
0100
0001
1000
0010
0100
0001
,
2000
0100
3002
0100
,
2003
0010
3002
0010
,
2003
0100
3002
0010
,
2003
0010
3002
0100
,
2003
0000
0000
0002
,
0200
0000
0000
0000
0000
0000
0000
0000
0000
0000
0000
0000
0000
0000
0000
0000
0000
0000
0000
0000
0000
0000
0000
0000
0000
0000
0000
0000
0000
0000
0000
0000
0000
0000
0000
0003
0022
0000
0000
0000
0000
0000
0000
0000
0000
0000
0000
3300
,
2200
0000
0000
0000
0000
0000
0000
0000
0000
0000
0000
0033
0022
0000
0000
0000
0000
0000
0000
0000
0000
0000
0000
3300
2200
0000
0000
0000
0000
0000
0000
0000
0000
0000
0000
0033
0022
0000
0000
0000
0000
0000
0000
0000
0000
0000
0000
3300
,
2200
0000
3333
0000
,
1000
0100
1000
0000
0000
0000
0000
0000
0001
0100
0001
0000
0000
0000
0000
0000
,
1000
0010
1000
0000
0000
0000
0000
0000
0001
0100
0001
0000
0000
0000
0000
0000
,
1000
0001
1000
0000
0000
0000
0000
0000
0001
0100
0001
0000
0000
0000
0000
0000
,
1000
0100
1000
0000
0000
0000
0000
0000
0001
0100
0001
0000
0000
0000
0000
0000
,
1000
0001
1000
0001
1000
0001
0100
0001
0100
0001
1000
0010
,
1000
0010
1000
0001
0010
0001
0010
0100
1000
0001
1000
0100
,
1000
0001
0100
0001
1000
0100
1000
0100
0010
0001
1000
0001
,
1000
0001
0100
0001
0100
0010
1000
0001
0100
0001
0100
0010
,
2000
0100
3002
0100
,
2003
0010
3002
0010
,
2003
0100
3002
0010
,
2003
0010
3002
0100
,
2003
0000
0000
0002
,
0200
0000
0000
0000
0000
0000
0000
0000
0000
0000
0000
0000
0000
0000
0000
0000
0000
0000
0000
0000
0000
0000
0000
0000
0000
0000
0000
0000
0000
0000
0000
0000
0000
0000
0000
0003
0022
0000
0000
0000
0000
0000
0000
0000
0000
0000
0000
3300
,
2200
0000
0000
0000
0000
0000
0000
0000
0000
0000
0000
0033
0022
0000
0000
0000
0000
0000
0000
0000
0000
0000
0000
3300
2200
0000
0000
0000
0000
0000
0000
0000
0000
0000
0000
0033
0022
0000
0000
0000
0000
0000
0000
0000
0000
0000
0000
3300
,
2200
0000
3333
0000
,
1000
0000
0001
0100
000M
0100
1000
0000
,
0001
0000
1000
0100
M000
0100
0001
0000
,
1000
0000
0001
0010
000M
0010
1000
0000
,
0001
0000
1000
0010
M000
0010
0001
0000
,
0000
0000
0000
1000
0001
1000
0001
1000
0100
1000
0100
0010
,
0001
1000
0001
1000
0001
1000
0010
1000
0010
0100
0001
1000
,
0010
0100
0001
1000
0010
1000
0010
0100
0001
1000
0001
0100
,
0001
1000
0100
0010
0001
1000
0001
0000
,
1001
0000
0000
0000
0000
0000
0000
0000
1000
0100
1000
0000
0000
0000
0000
0000
,
0001
0100
0001
0000
0000
0000
0000
0000
1000
0010
1000
0000
0010
0100
0010
0000
,
0100
0001
0100
0000
0000
0000
0000
0000
0002
0000
0000
0000
0023
0000
0000
0000
,
0000
0230
2300
3020
,
0000
0230
0302
0000
,
0000
0000
1003
0100
1000
0000
0001
0000
,
0100
0000
0100
0000
0001
0000
0010
0100
,
1000
0000
0001
0100
000M
0100
1000
0000
,
0010
0000
0010
0000
0100
0000
0001
1000
,
0001
0100
0002
0000
2003
0000
3200
0000
,
0000
0320
0032
2003
,
0002
0000
0000
0000
0000
0000
0000
0000
0000
0000
0000
0000
0000
0000
0000
0000
0000
0000
0000
0000
0000
0000
0000
0000
0200
0000
0000
0000
0000
0000
0000
0000
0000
0000
0000
0000
0000
0000
0000
0000
0000
0000
0000
0000
0000
0000
0000
3303
,
2222
3333
0001
0000
1000
0000
0001
0100
,
0001
1000
0100
0010
0002
0000
2003
0000
,
0000
3020
0230
0302
,
2000
0000
0000
0000
0000
0000
0000
0000
0000
0000
0000
0000
0000
0000
0000
0000
0000
0000
0000
0000
0000
0000
0000
0000
0200
0000
0000
0000
0000
0000
0000
0000
0000
0000
0000
0000
0000
0000
0000
0000
0000
0000
0000
0000
0000
0000
0000
3303
,
2222
0000
0000
0000
3333
0000
0000
0000
1000
0001
1000
0000
0000
0000
0000
0000
,
0001
0100
0001
0000
0000
0000
0000
0000
1000
0100
1000
0000
0001
1000
0001
0000
,
0100
0001
0100
0000
0000
0000
0000
0000
0002
0000
0000
0000
0023
0000
0000
0000
,
0000
0230
2300
3020
,
0000
0230
0302
0000
,
0000
0000
1003
0100
1000
0000
0001
0000
,
0100
0000
0100
0000
0001
0000
1000
0100
,
0010
0000
0001
0100
000M
0100
1000
0000
,
0010
0000
0010
0000
0100
0000
0001
1000
,
0001
1000
0001
0100
0020
0000
2030
0000
,
0000
3200
0320
0032
,
2000
0000
0000
0000
0000
0000
0000
0000
0000
0000
0000
0000
0200
0000
0000
0000
0000
0000
0000
0000
0000
0000
0000
3303
,
2222
0000
0000
0000
0000
3333
0000
0000
,
0000
0002
2003
3200
,
0000
0320
0032
2003
,
0002
0000
0000
0000
0000
0000
0000
0000
0000
0000
0000
0000
0000
0000
0000
0000
0000
0000
0000
0000
0000
0000
0000
0000
0200
0000
0000
0000
0000
0000
0000
0000
0000
0000
0000
0000
0000
0000
0000
0000
0000
0000
0000
0000
0000
0000
0000
3303
,
2222
0000
3333
0000
0000
0000
0000
0000
0000
0000
0000
2202
3303
0000
0000
0000
,
0000
0000
0000
0000
0000
0000
2002
3003
0000
0000
0000
0000
0000
0000
0000
0000
,
4000
0000
0000
0000
,
0000
0000
0000
0000
,
3001
0000
1000
0100
M000
0100
0001
0000
,
1000
0000
0001
0100
000M
0100
1000
0000
,
0001
0000
1000
0010
M000
0010
0001
0000
,
1000
0000
0001
0010
000M
0010
1000
0000
,
0002
0000
0000
0203
,
0002
0000
0000
0000
0000
0000
0000
0000
0000
0000
0000
0000
0000
0000
0000
0000
0000
0000
0000
0000
0000
0000
0000
0000
0000
0000
0000
0000
0000
0000
0000
0000
0000
0000
0000
0300
2200
0000
0000
0000
0000
0000
0000
0000
0000
0000
0000
0003
,
0022
0000
0000
0000
0000
0000
0000
0000
0000
0000
0000
3300
2200
0000
0000
0000
0000
0000
0000
0000
0000
0000
0000
0033
0022
0000
0000
0000
0000
0000
0000
0000
0000
0000
0000
3300
2200
0000
0000
0000
0000
0000
0000
0000
0000
0000
0000
0033
,
0022
0000
3333
0000
,
1000
0000
0001
0100
000M
0100
1000
0000
,
0010
0000
1000
0100
M000
0100
0001
0000
,
0100
0000
0001
0010
000M
0010
1000
0000
,
0001
0000
1000
0010
M000
0010
0001
0000
,
1000
0001
1000
0001
0100
0001
0100
0010
1000
0010
0100
0001
,
1000
0001
1000
0100
0010
0001
1000
0100
1000
0001
1000
0010
,
0100
0001
1000
0001
1000
0010
0100
0010
1000
0001
0100
0001
,
2000
0000
0000
0000
0000
3000
0000
0000
,
0001
0000
1000
0100
M000
0100
0001
0000
,
0100
0000
0001
0100
000M
0100
1000
0000
,
0010
0000
1000
0010
M000
0010
0001
0000
,
0100
0000
0001
0010
000M
0010
1000
0000
,
0200
0000
0000
2300
,
0002
0000
0000
0000
0000
0000
0000
0000
0000
0000
0000
0000
0000
0000
0000
0000
0000
0000
0000
0000
0000
0000
0000
0000
0000
0000
0000
0000
0000
0000
0000
0000
0000
0000
0000
3000
2200
0000
0000
0000
0000
0000
0000
0000
0000
0000
0000
0003
,
0022
0000
0000
0000
0000
0000
0000
0000
0000
0000
0000
3300
2200
0000
0000
0000
0000
0000
0000
0000
0000
0000
0000
0033
0022
0000
0000
0000
0000
0000
0000
0000
0000
0000
0000
3300
2200
0000
0000
0000
0000
0000
0000
0000
0000
0000
0000
0033
,
0022
0000
3333
0000
,
1000
0000
0001
0100
000M
0100
1000
0000
,
0001
0000
1000
0100
M000
0100
0010
0000
,
1000
0000
0001
0010
000M
0010
0100
0000
,
0001
0000
1000
0010
M000
0010
0001
0000
,
0000
0000
0000
1000
0001
1000
0001
1000
0010
1000
0010
0100
,
0001
1000
0001
0010
0100
1000
0001
0100
0001
1000
0001
1000
,
0100
0010
0001
1000
0001
0100
0001
1000
0010
1000
0010
0100
,
0001
1000
0100
0010
0001
1000
0001
0000
,
1001
0000
0000
0000
0000
0000
0000
0000
1000
0100
1000
0000
0000
0000
0000
0000
,
0001
0100
0001
0000
0000
0000
0000
0000
1000
0010
1000
0000
0010
0100
0010
0000
,
0100
0001
0100
0000
0000
0000
0000
0000
0002
0000
0000
0000
0023
0000
0000
0000
,
0000
0230
2300
3020
,
0000
0230
0302
0000
,
0000
0000
1003
0100
1000
0000
0001
0000
,
0100
0000
0100
0000
0001
0000
0010
0100
,
1000
0000
0001
0100
000M
0100
1000
0000
,
0010
0000
0010
0000
0100
0000
0001
1000
,
0001
0100
0002
0000
2003
0000
3200
0000
,
0000
0320
0032
2003
,
0002
0000
0000
0000
0000
0000
0000
0000
0000
0000
0000
0000
0000
0000
0000
0000
0000
0000
0000
0000
0000
0000
0000
0000
0200
0000
0000
0000
0000
0000
0000
0000
0000
0000
0000
0000
0000
0000
0000
0000
0000
0000
0000
0000
0000
0000
0000
3303
,
2222
3333
0001
0000
1000
0000
0001
0100
,
0001
1000
0100
0010
0002
0000
2003
0000
,
0000
3020
0230
0302
,
2000
0000
0000
0000
0000
0000
0000
0000
0000
0000
0000
0000
0000
0000
0000
0000
0000
0000
0000
0000
0000
0000
0000
0000
0200
0000
0000
0000
0000
0000
0000
0000
0000
0000
0000
0000
0000
0000
0000
0000
0000
0000
0000
0000
0000
0000
0000
3303
,
2222
0000
0000
0000
3333
0000
0000
0000
1000
0001
1000
0000
0000
0000
0000
0000
,
0001
0100
0001
0000
0000
0000
0000
0000
1000
0100
1000
0000
0001
1000
0001
0000
,
0100
0001
0100
0000
0000
0000
0000
0000
0002
0000
0000
0000
0023
0000
0000
0000
,
0000
0230
2300
3020
,
0000
0230
0302
0000
,
0000
0000
1003
0100
1000
0000
0001
0000
,
0100
0000
0100
0000
0001
0000
1000
0100
,
0010
0000
0001
0100
000M
0100
1000
0000
,
0010
0000
0010
0000
0100
0000
0001
1000
,
0001
1000
0001
0100
0020
0000
2030
0000
,
0000
3200
0320
0032
,
2000
0000
0000
0000
0000
0000
0000
0000
0000
0000
0000
0000
0200
0000
0000
0000
0000
0000
0000
0000
0000
0000
0000
3303
,
2222
0000
0000
0000
0000
3333
0000
0000
,
0000
0002
2003
3200
,
0000
0320
0032
2003
,
0002
0000
0000
0000
0000
0000
0000
0000
0000
0000
0000
0000
0000
0000
0000
0000
0000
0000
0000
0000
0000
0000
0000
0000
0200
0000
0000
0000
0000
0000
0000
0000
0000
0000
0000
0000
0000
0000
0000
0000
0000
0000
0000
0000
0000
0000
0000
3303
,
2222
0000
3333
0000
0000
0000
0000
0000
0000
0000
0000
2202
3303
0000
0000
0000
,
0000
0000
0000
0000
0000
0000
2002
3003
0000
0000
0000
0000
0000
0000
0000
0000
,
2000
3000
0000
0000
0000
0000
0000
0000
0000
0000
0000
0000
0000
0000
0000
0000
0000
0000
0000
0000
0000
0000
0000
0000
0000
0000
0000
0000
0000
0000
0000
0000
;

//---------------dance-single - Mad Matt----------------
#NOTES:
     dance-single:
     Mad Matt:
     Medium:
     18:
     1.000,1.000,0.074,0.774,0.958,983.000,10.000,105.000,1.000,0.000:









1000
0100
1000
0001
0010
0100
1000
0001
,
0100
0010
0100
0001
1000
0100
0010
0001
,
1000
0010
0100
0010
1000
0001
0010
0100
,
1000
0001
0100
0010
0100
0001
1000
0100
,
0010
0001
1000
0100
1000
0001
0100
0010
,
0100
0001
0010
0100
1000
0001
0100
0010
,
0100
0001
1000
0100
0010
0100
1000
0001
,
0100
0010
0100
0001
1000
0100
0010
0001
,
1000
0100
0010
0001
0100
0010
1000
0001
0010
0100
1000
0010
0100
0001
1000
0100
,
1000
0010
1000
0001
0100
0010
1000
0001
1000
0100
0010
0001
0100
0010
1000
0001
,
0010
0100
1000
0001
0010
0001
0100
0001
1000
0010
0100
0001
1000
0001
0010
0100
,
1000
0010
0100
0001
1000
0100
0010
0100
1000
0010
0100
0001
1000
0001
0010
0100
,
2000
0000
0000
3020
,
0230
0000
0000
0302
,
2003
3200
0320
0032
,
2003
0000
3000
0000
,
0001
0010
0100
1000
0010
0100
0001
1000
0100
0010
0001
0100
0010
1000
0001
0010
,
0001
0100
0001
1000
0010
0100
0001
1000
0001
0010
0100
1000
0010
0100
0001
1000
,
0100
0010
0001
1000
0100
1000
0010
1000
0001
0100
0010
1000
0001
1000
0100
0010
,
0001
0100
0010
1000
0001
0010
0100
0010
0001
0100
0010
1000
0001
1000
0100
0010
,
0002
0000
0000
2003
,
3020
0000
0000
0230
,
0302
2003
3200
0320
,
0032
0000
0003
0000
,
1000
0010
0100
0001
0010
0100
1000
0001
0100
0010
1000
0100
0010
0001
1000
0010
,
1000
0100
1000
0001
0010
0100
1000
0001
1000
0010
0100
0001
0010
0100
1000
0001
,
0100
0010
1000
0001
0100
0001
0010
0001
1000
0100
0010
0001
1000
0001
0100
0010
,
1000
0100
0010
0001
1000
0010
0100
0010
1000
0100
0010
0001
1000
0001
0100
0010
,
2000
0000
0000
3200
,
0320
0000
0000
0032
,
0203
0320
2030
3002
,
0023
0000
0030
0000
,
0001
0100
0010
1000
0100
0010
0001
1000
0010
0100
0001
0010
0100
1000
0001
0100
,
0001
0010
0001
1000
0100
0010
0001
1000
0001
0100
0010
1000
0100
0010
0001
1000
,
0010
0100
0001
1000
0010
1000
0100
1000
0001
0010
0100
1000
0001
1000
0010
0100
,
0001
0010
0100
1000
0001
0100
0010
0100
0001
0010
0100
1000
0001
1000
0010
0100
,
0001
0010
0100
1000
0002
0000
0000
0000
0000
0000
0000
0000
0023
0000
0000
0000
,
0230
0000
0000
1300
,
1001
0101
0110
1010
,
1000
0010
1000
0100
0010
0001
1000
0000
,
1001
0000
0001
0000
0100
0000
0010
1000
,
0100
0010
0001
1000
0001
0000
1000
0100
,
1000
0001
0010
0100
,
1000
0001
0100
0010
,
0100
0000
0100
0000
0001
0000
1000
0100
,
0010
0100
1000
0001
0100
0000
0010
0000
,
0100
0100
0001
1000
,
0200
0000
0000
2300
0000
0000
3002
0000
,
0103
0000
0100
0000
0001
0000
1000
0100
,
0010
0100
1000
0001
0100
0000
0010
0000
,
1000
1000
0001
0010
,
0100
1000
0010
0100
,
0001
0000
0001
0000
0100
0000
0010
1000
,
0100
0010
0100
1000
0001
0000
0100
0000
,
0001
0001
0010
0100
,
2000
0000
3002
0000
,
0103
0000
0100
0000
0001
0000
0010
0100
,
1000
0010
0100
0001
0100
0000
0001
1000
,
0100
1000
0010
0100
,
0001
0010
0100
1000
,
0001
0000
0001
0000
0100
0000
0010
1000
,
0010
0100
0001
0010
0100
0000
1000
0000
,
0001
0001
0100
0010
,
2000
0000
0000
3200
0000
0000
0320
0000
,
0031
0000
0001
0000
1000
0000
0010
0100
,
0001
1000
0001
0010
0100
0000
1000
0001
,
0100
0001
0010
0100
,
2000
0000
3002
0000
,
0103
0000
0100
0000
0001
0000
1000
0100
,
0010
0100
1000
0001
0100
0000
0010
0000
,
1000
1000
0001
0100
,
0002
0000
2003
0000
,
3200
0300
2000
3000
0002
0003
0200
0300
,
0020
0030
0200
0300
0002
0003
0020
0030
,
0200
0300
2000
3000
0002
0003
0200
0300
,
0020
0030
2000
3000
0002
0003
0020
0030
0200
0300
2000
3000
0002
0003
0200
0300
,
0001
0010
0100
0010
0001
0100
0010
0100
0001
1000
0001
0010
0100
1000
0001
1000
,
0010
0100
0010
1000
0100
0010
0100
1000
0001
1000
0010
0100
0001
0010
0100
1000
,
0001
0010
0001
0100
0010
0100
0001
0010
0001
1000
0001
0100
0010
1000
0001
0010
,
0001
1000
0100
1000
0010
0100
0010
1000
0100
1000
0001
1000
0010
0100
0010
1000
,
0002
0000
0000
0203
,
0320
0000
0000
2030
,
3002
0023
0230
2300
,
3002
0000
0003
0000
,
1000
0100
0010
0100
1000
0010
0100
0010
1000
0001
1000
0100
0010
0001
1000
0001
,
0100
0010
0100
0001
0010
0100
0010
0001
1000
0001
0100
0010
1000
0100
0010
0001
,
1000
0100
1000
0010
0100
0010
1000
0100
1000
0001
1000
0010
0100
0001
1000
0100
,
1000
0001
0010
0001
0100
0010
0100
0001
0010
0001
1000
0001
0100
0010
0100
0001
,
2000
0000
0000
3002
,
0203
0000
0000
0320
,
2030
3002
0023
0230
,
2300
0000
3000
0000
,
0001
0100
0010
0100
0001
0010
0100
0010
0001
1000
0001
0100
0010
1000
0001
1000
,
0100
0010
0100
1000
0010
0100
0010
1000
0001
1000
0100
0010
0001
0100
0010
1000
,
0001
0100
0001
0010
0100
0010
0001
0100
0001
1000
0001
0010
0100
1000
0001
0100
,
0001
1000
0010
1000
0100
0010
0100
1000
0010
1000
0001
1000
0100
0010
0100
1000
,
0002
0000
0000
0023
,
0230
0000
0000
2300
,
3020
0230
0302
2003
,
3200
0000
0300
0000
,
1000
0010
0100
0010
1000
0100
0010
0100
1000
0001
1000
0010
0100
0001
1000
0001
,
0010
0100
0010
0001
0100
0010
0100
0001
1000
0001
0010
0100
1000
0010
0100
0001
,
1000
0010
1000
0100
0010
0100
1000
0010
1000
0001
1000
0100
0010
0001
1000
0010
,
1000
0001
0100
0001
0010
0100
0010
0001
0100
0001
1000
0001
0010
0100
0010
0001
,
1000
0001
0100
0010
2000
0000
0000
0000
0000
0000
0000
0000
3200
0000
0000
0000
,
0320
0000
0000
0031
,
1001
1010
0110
0101
,
0001
1000
0100
0010
0001
1000
0001
0000
,
1001
0000
1000
0000
0010
0000
0100
0001
,
0010
0100
1000
0001
1000
0000
0001
0010
,
0001
1000
0100
0010
,
0001
1000
0010
0100
,
0010
0000
0010
0000
1000
0000
0001
0010
,
0100
0010
0001
1000
0010
0000
0100
0000
,
0010
0010
1000
0001
,
0020
0000
0000
0032
0000
0000
2003
0000
,
3010
0000
0010
0000
1000
0000
0001
0010
,
0100
0010
0001
1000
0010
0000
0100
0000
,
0001
0001
1000
0100
,
0010
0001
0100
0010
,
1000
0000
1000
0000
0010
0000
0100
0001
,
0010
0100
0010
0001
1000
0000
0010
0000
,
1000
1000
0100
0010
,
0002
0000
2003
0000
,
3010
0000
0010
0000
1000
0000
0100
0010
,
0001
0100
0010
1000
0010
0000
1000
0001
,
0010
0001
0100
0010
,
1000
0100
0010
0001
,
1000
0000
1000
0000
0010
0000
0100
0001
,
0100
0010
1000
0100
0010
0000
0001
0000
,
1000
1000
0010
0100
,
0002
0000
0000
0023
0000
0000
0230
0000
,
1300
0000
1000
0000
0001
0000
0100
0010
,
1000
0001
1000
0100
0010
0000
0001
1000
,
0010
1000
0100
0010
,
0002
0000
2003
0000
,
3010
0000
0010
0000
1000
0000
0001
0010
,
0100
0010
0001
1000
0010
0000
0100
0000
,
0001
0001
1000
0010
,
2000
0000
3002
0000
,
0203
0000
0000
0300
0000
0000
0000
0000
,
0000
0000
0000
0000
,
M000
0000
0000
0000
;

//---------------dance-single - Mad Matt----------------
#NOTES:
     dance-single:
     Mad Matt:
     Easy:
     17:
     1.000,1.000,0.074,0.774,0.958,983.000,10.000,105.000,1.000,0.000:












1000
0100
1000
0001
0010
0100
1000
0001
,
0100
0010
0100
0001
1000
0100
0010
0001
,
1000
0010
0100
0010
1000
0001
0010
0100
,
1000
0001
0100
0010
0100
0001
1000
0100
,
0010
0001
1000
0100
1000
0001
0100
0010
,
0100
0001
0010
0100
1000
0001
0100
0010
,
0100
0001
1000
0100
0010
0100
1000
0001
,
0100
0010
0100
0001
1000
0100
0010
0001
,
1000
0001
0010
0100
1000
0001
1000
0010
1000
0100
1000
0001
0010
0100
1000
0001
,
1000
0010
1000
0001
0100
0010
0100
0001
1000
0100
1000
0001
0010
0100
1000
0001
,
1000
0010
1000
0100
1000
0001
0010
0100
1000
0001
1000
0010
1000
0001
0100
0010
,
0100
0001
1000
0100
1000
0001
0010
0100
1000
0001
1000
0010
1000
0001
0100
0010
,
2000
0000
0000
3020
,
0230
0000
0000
0302
,
2003
3200
0320
0032
,
2003
0000
3000
0000
,
0001
1000
0010
0100
0001
1000
0001
0010
0001
0100
0001
1000
0010
0100
0001
1000
,
0001
0010
0001
1000
0100
0010
0100
1000
0001
0100
0001
1000
0010
0100
0001
1000
,
0001
0010
0001
0100
0001
1000
0010
0100
0001
1000
0001
0010
0001
1000
0100
0010
,
0100
1000
0001
0100
0001
1000
0010
0100
0001
1000
0001
0010
0001
1000
0100
0010
,
0002
0000
0000
2003
,
3020
0000
0000
0230
,
0302
2003
3200
0320
,
0032
0000
0003
0000
,
1000
0001
0100
0010
1000
0001
1000
0100
1000
0010
1000
0001
0100
0010
1000
0001
,
1000
0100
1000
0001
0010
0100
0010
0001
1000
0010
1000
0001
0100
0010
1000
0001
,
1000
0100
1000
0010
1000
0001
0100
0010
1000
0001
1000
0100
1000
0001
0010
0100
,
0010
0001
1000
0010
1000
0001
0100
0010
1000
0001
1000
0100
1000
0001
0010
0100
,
2000
0000
0000
3200
,
0320
0000
0000
0032
,
0203
0320
2030
3002
,
0023
0000
0030
0000
,
0001
1000
0100
0010
0001
1000
0001
0100
0001
0010
0001
1000
0100
0010
0001
1000
,
0001
0100
0001
1000
0010
0100
0010
1000
0001
0010
0001
1000
0100
0010
0001
1000
,
0001
0100
0001
0010
0001
1000
0100
0010
0001
1000
0001
0100
0001
1000
0010
0100
,
0010
1000
0001
0010
0001
1000
0100
0010
0001
1000
0001
0100
0001
1000
0010
0100
,
0001
1000
0100
1000
0002
0000
0000
0000
0000
0000
0000
0000
0023
0000
0000
0000
,
0230
0000
0000
1300
,
1001
0101
0110
1010
,
1000
0010
1000
0100
0010
0001
1000
0000
,
1001
0000
0001
0000
0100
0000
0010
1000
,
0100
0010
0001
1000
0001
0000
1000
0100
,
1000
0001
0010
0100
,
1000
0001
0100
0010
,
0100
0000
0100
0000
0001
0000
1000
0100
,
0010
0100
1000
0001
0100
0000
0010
0000
,
0100
0100
0001
1000
,
0200
0000
0000
2300
0000
0000
3002
0000
,
0103
0000
0100
0000
0001
0000
1000
0100
,
0010
0100
1000
0001
0100
0000
0010
0000
,
1000
1000
0001
0010
,
0100
1000
0010
0100
,
0001
0000
0001
0000
0100
0000
0010
1000
,
0100
0010
0100
1000
0001
0000
0100
0000
,
0001
0001
0010
0100
,
2000
0000
3002
0000
,
0103
0000
0100
0000
0001
0000
0010
0100
,
1000
0010
0100
0001
0100
0000
0001
1000
,
0100
1000
0010
0100
,
0001
0010
0100
1000
,
0001
0000
0001
0000
0100
0000
0010
1000
,
0010
0100
0001
0010
0100
0000
1000
0000
,
0001
0001
0100
0010
,
2000
0000
0000
3200
0000
0000
0320
0000
,
0031
0000
0001
0000
1000
0000
0010
0100
,
0001
1000
0001
0010
0100
0000
1000
0001
,
0100
0001
0010
0100
,
2000
0000
3002
0000
,
0103
0000
0100
0000
0001
0000
1000
0100
,
0010
0100
1000
0001
0100
0000
0010
0000
,
1000
1000
0001
0100
,
0002
0000
2003
0000
,
3200
0300
2000
3000
0002
0003
0200
0300
,
0020
0030
0200
0300
0002
0003
0020
0030
,
0200
0300
2000
3000
0002
0003
0200
0300
,
0020
0030
2000
3000
0002
0003
0020
0030
0200
0300
2000
3000
0002
0003
0200
0300
,
0001
1000
0100
0010
0100
1000
0001
1000
0010
1000
0100
1000
0001
0010
0100
0010
,
0001
1000
0001
0100
0001
1000
0010
0100
0010
1000
0001
0010
0001
1000
0100
0010
,
0001
1000
0001
0010
0001
0100
0001
1000
0010
0100
0010
1000
0001
1000
0010
1000
,
0100
1000
0001
0010
0100
1000
0001
1000
0010
0100
0010
1000
0001
1000
0100
1000
,
0002
0000
0000
0203
,
0320
0000
0000
2030
,
3002
0023
0230
2300
,
3002
0000
0003
0000
,
1000
0001
0100
0010
0100
0001
1000
0001
0010
0001
0100
0001
1000
0010
0100
0010
,
1000
0001
1000
0100
1000
0001
0010
0100
0010
0001
1000
0010
1000
0001
0100
0010
,
1000
0001
1000
0010
1000
0100
1000
0001
0010
0100
0010
0001
1000
0001
0010
0001
,
0100
0001
1000
0010
0100
0001
1000
0001
0010
0100
0010
0001
1000
0001
0100
0001
,
2000
0000
0000
3002
,
0203
0000
0000
0320
,
2030
3002
0023
0230
,
2300
0000
3000
0000
,
0001
1000
0010
0100
0010
1000
0001
1000
0100
1000
0010
1000
0001
0100
0010
0100
,
0001
1000
0001
0010
0001
1000
0100
0010
0100
1000
0001
0100
0001
1000
0010
0100
,
0001
1000
0001
0100
0001
0010
0001
1000
0100
0010
0100
1000
0001
1000
0100
1000
,
0010
1000
0001
0100
0010
1000
0001
1000
0100
0010
0100
1000
0001
1000
0010
1000
,
0002
0000
0000
0023
,
0230
0000
0000
2300
,
3020
0230
0302
2003
,
3200
0000
0300
0000
,
1000
0001
0010
0100
0010
0001
1000
0001
0100
0001
0010
0001
1000
0100
0010
0100
,
1000
0001
1000
0010
1000
0001
0100
0010
0100
0001
1000
0100
1000
0001
0010
0100
,
1000
0001
1000
0100
1000
0010
1000
0001
0100
0010
0100
0001
1000
0001
0100
0001
,
0010
0001
1000
0100
0010
0001
1000
0001
0100
0010
0100
0001
1000
0001
0010
0001
,
1000
0100
0010
0001
2000
0000
0000
0000
0000
0000
0000
0000
3200
0000
0000
0000
,
0320
0000
0000
0031
,
1001
1010
0110
0101
,
0001
1000
0100
0010
0001
1000
0001
0000
,
1001
0000
1000
0000
0010
0000
0100
0001
,
0010
0100
1000
0001
1000
0000
0001
0010
,
0001
1000
0100
0010
,
0001
1000
0010
0100
,
0010
0000
0010
0000
1000
0000
0001
0010
,
0100
0010
0001
1000
0010
0000
0100
0000
,
0010
0010
1000
0001
,
0020
0000
0000
0032
0000
0000
2003
0000
,
3010
0000
0010
0000
1000
0000
0001
0010
,
0100
0010
0001
1000
0010
0000
0100
0000
,
0001
0001
1000
0100
,
0010
0001
0100
0010
,
1000
0000
1000
0000
0010
0000
0100
0001
,
0010
0100
0010
0001
1000
0000
0010
0000
,
1000
1000
0100
0010
,
0002
0000
2003
0000
,
3010
0000
0010
0000
1000
0000
0100
0010
,
0001
0100
0010
1000
0010
0000
1000
0001
,
0010
0001
0100
0010
,
1000
0100
0010
0001
,
1000
0000
1000
0000
0010
0000
0100
0001
,
0100
0010
1000
0100
0010
0000
0001
0000
,
1000
1000
0010
0100
,
0002
0000
0000
0023
0000
0000
0230
0000
,
1300
0000
1000
0000
0001
0000
0100
0010
,
1000
0001
1000
0100
0010
0000
0001
1000
,
0010
1000
0100
0010
,
0002
0000
2003
0000
,
3010
0000
0010
0000
1000
0000
0001
0010
,
0100
0010
0001
1000
0010
0000
0100
0000
,
0001
0001
1000
0010
,
2000
0000
3002
0000
,
0203
0000
0000
0300
0000
0000
0000
0000
,
0000
0000
0000
0000
,
M000
0000
0000
0000
;

//---------------dance-single - Mad Matt----------------
#NOTES:
     dance-single:
     Mad Matt:
     Hard:
     21:
     1.000,1.000,0.059,0.332,1.000,1361.000,8.000,45.000,1.000,0.000:





1000
0100
1000
0001
0010
0100
1000
0001
,
0100
0010
0100
0001
1000
0100
0010
0001
,
1000
0010
0100
0010
1000
0001
0010
0100
,
1000
0001
0100
0010
0100
0001
1000
0100
,
0010
0001
1000
0100
1000
0001
0100
0010
,
0100
0001
0010
0100
1000
0001
0100
0010
,
0100
0001
1000
0100
0010
0100
1000
0001
,
0100
0010
0100
0001
1000
0100
0010
0001
,
1000
0001
0010
0100
1000
0001
1000
0010
1000
0100
1000
0001
0010
0100
1000
0001
,
1000
0010
1000
0001
0100
0010
0100
0001
1000
0100
1000
0001
0010
0100
1000
0001
,
1000
0010
1000
0100
1000
0001
0010
0100
1000
0001
1000
0010
1000
0001
0100
0010
,
0100
0001
1000
0100
1000
0001
0010
0100
1000
0001
1000
0010
1000
0001
0100
0010
,
1000
0001
0100
0001
0100
0010
1000
0001
1000
0100
1000
0001
1000
0010
0100
0001
,
0100
0001
1000
0010
1000
0001
0010
0001
1000
0100
0010
0001
1000
0001
0100
0001
,
1000
0010
1000
0100
1000
0001
0010
0001
0100
0001
1000
0010
0100
0001
1000
0010
,
1000
0100
1000
0001
0010
0001
0100
0001
1000
0010
0100
0001
1000
0001
1000
0100
,
1000
0001
1000
0010
0100
0001
1000
0001
0010
0001
0100
0001
1000
0010
0100
0001
,
1000
0001
0010
0001
1000
0100
0010
0100
1000
0001
0100
0001
1000
0010
0100
0001
,
1000
0001
0010
0001
0100
0001
1000
0010
0100
0001
1000
0001
0010
0001
1000
0100
,
0010
0100
1000
0001
0100
0001
1000
0010
0100
0001
1000
0001
0010
0001
1000
0100
,
1000
0001
0010
0001
0010
0100
1000
0001
1000
0010
1000
0001
1000
0100
0010
0001
,
0010
0001
1000
0100
1000
0001
0100
0001
1000
0010
0100
0001
1000
0001
0010
0001
,
1000
0100
1000
0010
1000
0001
0100
0001
0010
0001
1000
0100
0010
0001
1000
0100
,
1000
0010
1000
0001
0100
0001
0010
0001
1000
0100
0010
0001
1000
0001
1000
0010
,
0100
0001
0100
0010
1000
0001
1000
0100
1000
0010
1000
0001
0100
0010
1000
0001
,
1000
0100
1000
0001
0010
0100
0010
0001
1000
0010
1000
0001
0100
0010
1000
0001
,
1000
0100
1000
0010
1000
0001
0100
0010
1000
0001
1000
0100
1000
0001
0010
0100
,
0010
0001
1000
0010
1000
0001
0100
0010
1000
0001
1000
0100
1000
0001
0010
0100
,
1000
0001
1000
0010
1000
0010
0100
0001
1000
0001
0010
0001
1000
0001
0100
0010
,
1000
0010
1000
0001
0100
0001
1000
0100
1000
0001
0010
0100
1000
0001
1000
0010
,
1000
0001
0100
0001
0010
0001
1000
0100
1000
0010
1000
0001
0100
0010
1000
0001
,
0100
0001
0010
0001
1000
0100
1000
0010
1000
0001
0100
0010
1000
0001
0100
0010
,
1000
0001
1000
0100
0010
0001
1000
0001
0100
0001
0010
0001
1000
0100
0010
0001
,
1000
0001
0100
0001
1000
0010
0100
0010
1000
0001
0010
0001
1000
0100
0010
0001
,
1000
0001
0100
0001
0010
0001
1000
0100
0010
0001
1000
0001
0100
0001
1000
0010
,
0100
0010
1000
0001
0010
0001
1000
0100
0010
0001
1000
0001
0100
0010
1000
0001
,
0010
0001
1000
0100
1000
0100
0010
0001
1000
0001
0100
0001
1000
0001
0010
0100
,
1000
0100
1000
0001
0010
0001
1000
0010
1000
0001
0100
0010
1000
0001
1000
0010
,
0100
0110
0101
1001
,
1000
0010
1000
0100
0010
0001
1000
0000
,
1001
0000
0001
0000
0100
0000
0010
1000
,
0100
0010
0001
1000
0001
0000
1000
0100
,
1000
0001
0010
0100
,
1000
0001
0100
0010
,
0100
0000
0100
0000
0001
0000
1000
0100
,
0010
0100
1000
0001
0100
0000
0010
0000
,
0100
0100
0001
1000
,
0200
0000
0000
2300
0000
0000
3002
0000
,
0103
0000
0100
0000
0001
0000
1000
0100
,
0010
0100
1000
0001
0100
0000
0010
0000
,
1000
1000
0001
0010
,
0100
1000
0010
0100
,
0001
0000
0001
0000
0100
0000
0010
1000
,
0100
0010
0100
1000
0001
0000
0100
0000
,
0001
0001
0010
0100
,
2000
0000
3002
0000
,
0103
0000
0100
0000
0001
0000
0010
0100
,
1000
0010
0100
0001
0100
0000
0001
1000
,
0100
1000
0010
0100
,
0001
0010
0100
1000
,
0001
0000
0001
0000
0100
0000
0010
1000
,
0010
0100
0001
0010
0100
0000
1000
0000
,
0001
0001
0100
0010
,
2000
0000
0000
3200
0000
0000
0320
0000
,
0031
0000
0001
0000
1000
0000
0010
0100
,
0001
1000
0001
0010
0100
0000
1000
0001
,
0100
0001
0010
0100
,
2000
0000
3002
0000
,
0103
0000
0100
0000
0001
0000
1000
0100
,
0010
0100
1000
0001
0100
0000
0010
0000
,
1000
1000
0001
0100
,
0002
0000
2003
0000
,
3200
0300
2000
3000
0002
0003
0200
0300
,
0020
0030
0200
0300
0002
0003
0020
0030
,
0200
0300
2000
3000
0002
0003
0200
0300
,
0020
0030
2000
3000
0002
0003
0020
0030
0200
0300
2000
3000
0002
0003
0200
0300
,
0001
1000
0100
0010
0100
1000
0001
1000
0010
1000
0100
1000
0001
0010
0100
0010
,
0001
1000
0001
0100
0001
1000
0010
0100
0010
1000
0001
0010
0001
1000
0100
0010
,
0001
1000
0001
0010
0001
0100
0001
1000
0010
0100
0010
1000
0001
1000
0010
1000
,
0100
1000
0001
0010
0100
1000
0001
1000
0010
0100
0010
1000
0001
1000
0100
1000
,
0001
0010
0001
1000
0100
1000
0001
1000
0010
0100
0010
1000
0001
1000
0100
1000
,
0001
0100
0001
1000
0010
1000
0001
1000
0100
0010
0100
1000
0001
1000
0010
0100
,
0010
1000
0001
0100
0001
1000
0010
1000
0001
0010
0001
1000
0100
1000
0001
0100
,
0010
0100
0001
1000
0001
0100
0010
1000
0001
1000
0100
0010
0100
1000
0001
0010
,
0001
1000
0001
0100
0010
0100
0001
1000
0001
0010
0001
0100
0001
1000
0010
0100
,
0010
1000
0001
1000
0100
1000
0001
0010
0100
0010
0001
1000
0010
1000
0001
0100
,
0010
1000
0001
1000
0010
1000
0100
1000
0001
0010
0100
0010
0001
1000
0001
0010
,
0001
0100
0001
1000
0010
0100
0001
1000
0001
0010
0100
0010
0001
1000
0001
0100
,
0001
1000
0010
1000
0001
0100
0001
1000
0001
0010
0100
0010
0001
1000
0001
0100
,
0001
1000
0100
1000
0001
0010
0001
1000
0001
0100
0010
0100
0001
1000
0001
0010
,
0100
0010
0001
1000
0100
1000
0001
0010
0001
1000
0010
1000
0001
0100
0001
1000
,
0100
0010
0100
1000
0001
1000
0010
0100
0001
1000
0010
1000
0001
0010
0100
1000
,
0001
1000
0010
0100
0010
1000
0001
1000
0100
1000
0010
1000
0001
0100
0010
0100
,
0001
1000
0001
0010
0001
1000
0100
0010
0100
1000
0001
0100
0001
1000
0010
0100
,
0001
1000
0001
0100
0001
0010
0001
1000
0100
0010
0100
1000
0001
1000
0100
1000
,
0010
1000
0001
0100
0010
1000
0001
1000
0100
0010
0100
1000
0001
1000
0010
1000
,
0001
0100
0001
1000
0010
1000
0001
1000
0100
0010
0100
1000
0001
1000
0010
1000
,
0001
0010
0001
1000
0100
1000
0001
1000
0010
0100
0010
1000
0001
1000
0100
0010
,
0100
1000
0001
0010
0001
1000
0100
1000
0001
0100
0001
1000
0010
1000
0001
0010
,
0100
0010
0001
1000
0001
0010
0100
1000
0001
1000
0010
0100
0001
1000
0010
0100
,
0001
1000
0001
0010
0100
0010
0001
1000
0001
0100
0001
0010
0001
1000
0100
0010
,
0100
1000
0001
1000
0010
1000
0001
0100
0010
0100
0001
1000
0100
1000
0001
0010
,
0100
1000
0001
1000
0100
1000
0010
1000
0001
0100
0010
0100
0001
1000
0001
0100
,
0001
0010
0001
1000
0100
0010
0001
1000
0001
0100
0010
0100
0001
1000
0001
0010
,
0001
1000
0100
1000
0001
0010
0001
1000
0001
0100
0010
0100
0001
1000
0001
0010
,
0001
1000
0010
1000
0001
0100
0001
1000
0001
0010
0100
0010
0001
1000
0001
0100
,
0010
0110
1010
1001
,
0001
1000
0100
0010
0001
1000
0001
0000
,
1001
0000
1000
0000
0010
0000
0100
0001
,
0010
0100
1000
0001
1000
0000
0001
0010
,
0001
1000
0100
0010
,
0001
1000
0010
0100
,
0010
0000
0010
0000
1000
0000
0001
0010
,
0100
0010
0001
1000
0010
0000
0100
0000
,
0010
0010
1000
0001
,
0020
0000
0000
0032
0000
0000
2003
0000
,
3010
0000
0010
0000
1000
0000
0001
0010
,
0100
0010
0001
1000
0010
0000
0100
0000
,
0001
0001
1000
0100
,
0010
0001
0100
0010
,
1000
0000
1000
0000
0010
0000
0100
0001
,
0010
0100
0010
0001
1000
0000
0010
0000
,
1000
1000
0100
0010
,
0002
0000
2003
0000
,
3010
0000
0010
0000
1000
0000
0100
0010
,
0001
0100
0010
1000
0010
0000
1000
0001
,
0010
0001
0100
0010
,
1000
0100
0010
0001
,
1000
0000
1000
0000
0010
0000
0100
0001
,
0100
0010
1000
0100
0010
0000
0001
0000
,
1000
1000
0010
0100
,
0002
0000
0000
0023
0000
0000
0230
0000
,
1300
0000
1000
0000
0001
0000
0100
0010
,
1000
0001
1000
0100
0010
0000
0001
1000
,
0010
1000
0100
0010
,
0002
0000
2003
0000
,
3010
0000
0010
0000
1000
0000
0001
0010
,
0100
0010
0001
1000
0010
0000
0100
0000
,
0001
0001
1000
0010
,
2000
0000
3002
0000
,
0203
0000
0000
0300
0000
0000
0000
0000
,
0000
0000
0000
0000
,
M000
0000
0000
0000
;

//---------------dance-single - Mad Matt----------------
#NOTES:
     dance-single:
     Mad Matt:
     Challenge:
     22:
     1.000,1.000,0.000,0.332,1.000,1403.000,0.000,45.000,1.000,0.000:

1000
0100
1000
0001
0010
0100
1000
0001
,
0100
0010
0100
0001
1000
0100
0010
0001
,
1000
0010
0100
0010
1000
0001
0010
0100
,
1000
0001
0100
0010
0100
0001
1000
0100
,
0010
0001
1000
0100
1000
0001
0100
0010
,
0100
0001
0010
0100
1000
0001
0100
0010
,
0100
0001
1000
0100
0010
0100
1000
0001
,
0100
0010
0100
0001
1000
0100
0010
0001
,
1000
0100
0010
0001
0100
0010
1000
0001
0010
0100
1000
0010
0100
0001
1000
0100
,
1000
0010
1000
0001
0100
0010
1000
0001
1000
0100
0010
0001
0100
0010
1000
0001
,
0010
0100
1000
0001
0010
0001
0100
0001
1000
0010
0100
0001
1000
0001
0010
0100
,
1000
0010
0100
0001
1000
0100
0010
0100
1000
0010
0100
0001
1000
0001
0010
0100
,
1000
0001
0010
0001
0100
0001
1000
0010
1000
0100
1000
0001
0010
0100
1000
0001
,
0010
0100
1000
0001
0010
0001
0100
0001
1000
0010
1000
0100
1000
0001
0010
0100
,
1000
0001
1000
0010
0100
0001
1000
0001
0010
0100
1000
0001
1000
0010
0100
0001
,
1000
0001
0010
0100
1000
0010
0100
0001
1000
0001
0010
0100
1000
0010
0100
0001
,
1000
0001
0010
0100
1000
0010
0100
0001
1000
0100
0010
0001
0100
0010
1000
0001
,
0010
0001
0100
0001
1000
0010
0100
0001
1000
0001
0010
0100
1000
0010
0100
0001
,
1000
0100
0010
0001
1000
0100
1000
0010
1000
0001
0100
0010
1000
0001
1000
0100
,
0010
0001
0100
0010
1000
0001
0010
0100
0010
0001
0100
0010
1000
0001
0010
0100
,
1000
0001
0010
0001
0100
0001
1000
0010
1000
0100
1000
0001
0010
0100
1000
0001
,
0010
0100
1000
0001
0010
0001
0100
0001
1000
0010
1000
0100
1000
0001
0010
0100
,
1000
0001
1000
0010
0100
0001
1000
0001
0010
0100
1000
0001
1000
0010
0100
0001
,
1000
0001
0010
0100
1000
0010
0100
0001
1000
0001
0010
0100
1000
0010
0100
0001
,
1000
0010
0100
0001
0010
0100
1000
0001
0100
0010
1000
0100
0010
0001
1000
0010
,
1000
0100
1000
0001
0010
0100
1000
0001
1000
0010
0100
0001
0010
0100
1000
0001
,
0100
0010
1000
0001
0100
0001
0010
0001
1000
0100
0010
0001
1000
0001
0100
0010
,
1000
0100
0010
0001
1000
0010
0100
0010
1000
0100
0010
0001
1000
0001
0100
0010
,
1000
0001
0100
0001
0010
0001
1000
0100
1000
0010
1000
0001
0100
0010
1000
0001
,
0100
0010
1000
0001
0100
0001
0010
0001
1000
0100
1000
0010
1000
0001
0100
0010
,
1000
0001
1000
0100
0010
0001
1000
0001
0100
0010
1000
0001
1000
0100
0010
0001
,
1000
0001
0100
0010
1000
0100
0010
0001
1000
0001
0100
0010
1000
0100
0010
0001
,
1000
0001
0100
0010
1000
0100
0010
0001
1000
0010
0100
0001
0010
0100
1000
0001
,
0100
0001
0010
0001
1000
0100
0010
0001
1000
0001
0100
0010
1000
0100
0010
0001
,
1000
0010
0100
0001
1000
0010
1000
0100
1000
0001
0010
0100
1000
0001
1000
0010
,
0100
0001
0010
0100
1000
0001
0100
0010
0100
0001
0010
0100
1000
0001
0100
0010
,
1000
0001
0100
0001
0010
0001
1000
0100
1000
0010
1000
0001
0100
0010
1000
0001
,
0100
0010
1000
0001
0100
0001
0010
0001
1000
0100
1000
0010
1000
0001
0100
0010
,
1000
0001
1000
0100
0010
0001
1000
0001
0100
0010
1000
0001
1000
0100
0010
0001
,
1000
0001
0100
0010
1000
0100
0010
0001
1000
0001
0100
0010
1000
0100
0010
0001
,
1000
0000
0001
0000
0100
0000
0010
1000
,
0100
0010
0001
1000
0001
0000
1000
0100
,
1000
0001
0010
0100
,
1000
0001
0100
0010
,
0100
0000
0100
0000
0001
0000
1000
0100
,
0010
0100
1000
0001
0100
0000
0010
0000
,
0100
0100
0001
1000
,
0200
0000
0000
2300
0000
0000
3002
0000
,
0103
0000
0100
0000
0001
0000
1000
0100
,
0010
0100
1000
0001
0100
0000
0010
0000
,
1000
1000
0001
0010
,
0100
1000
0010
0100
,
0001
0000
0001
0000
0100
0000
0010
1000
,
0100
0010
0100
1000
0001
0000
0100
0000
,
0001
0001
0010
0100
,
2000
0000
3002
0000
,
0103
0000
0100
0000
0001
0000
0010
0100
,
1000
0010
0100
0001
0100
0000
0001
1000
,
0100
1000
0010
0100
,
0001
0010
0100
1000
,
0001
0000
0001
0000
0100
0000
0010
1000
,
0010
0100
0001
0010
0100
0000
1000
0000
,
0001
0001
0100
0010
,
2000
0000
0000
3200
0000
0000
0320
0000
,
0031
0000
0001
0000
1000
0000
0010
0100
,
0001
1000
0001
0010
0100
0000
1000
0001
,
0100
0001
0010
0100
,
2000
0000
3002
0000
,
0103
0000
0100
0000
0001
0000
1000
0100
,
0010
0100
1000
0001
0100
0000
0010
0000
,
1000
1000
0001
0100
,
0002
0000
2003
0000
,
3200
0300
2000
3000
0002
0003
0200
0300
,
0020
0030
0200
0300
0002
0003
0020
0030
,
0200
0300
2000
3000
0002
0003
0200
0300
,
0020
0030
2000
3000
0002
0003
0020
0030
0200
0300
2000
3000
0002
0003
0200
0300
,
0001
0010
0100
0010
0001
0100
0010
0100
0001
1000
0001
0010
0100
1000
0001
1000
,
0010
0100
0010
1000
0100
0010
0100
1000
0001
1000
0010
0100
0001
0010
0100
1000
,
0001
0010
0001
0100
0010
0100
0001
0010
0001
1000
0001
0100
0010
1000
0001
0010
,
0001
1000
0100
1000
0010
0100
0010
1000
0100
1000
0001
1000
0010
0100
0010
1000
,
0001
0010
0100
1000
0010
1000
0001
0100
0010
1000
0001
1000
0100
0010
0001
0100
,
0001
1000
0010
0100
0001
1000
0001
0010
0001
1000
0010
0100
0001
1000
0001
0010
,
0001
0100
0010
1000
0001
1000
0100
1000
0010
0100
0001
1000
0001
0010
0001
0100
,
0010
1000
0001
1000
0100
1000
0010
0100
0001
1000
0001
0010
0100
1000
0010
0100
,
0001
1000
0100
0010
0100
1000
0010
0100
0010
1000
0001
1000
0100
0010
0001
1000
,
0001
0100
0010
0100
0001
0010
0100
0010
0001
1000
0001
0100
0010
1000
0100
0010
,
0001
1000
0100
1000
0010
0100
0010
1000
0100
1000
0001
1000
0010
0100
0001
1000
,
0100
1000
0001
0010
0001
0100
0010
0100
0001
0010
0001
1000
0001
0100
0010
0100
,
0001
1000
0100
0010
0001
0100
0001
1000
0010
0100
0001
1000
0001
0010
0100
1000
,
0010
1000
0001
0100
0010
1000
0001
1000
0100
1000
0001
0100
0010
1000
0001
1000
,
0100
1000
0010
0100
0001
1000
0001
0010
0001
0100
0010
1000
0001
1000
0100
1000
,
0010
0100
0001
1000
0001
0010
0001
0100
0010
1000
0001
1000
0100
0010
0001
0100
,
0001
1000
0010
0100
0001
0010
0100
0010
0001
1000
0001
0100
0010
1000
0001
1000
,
0100
0010
0100
1000
0010
0100
0010
1000
0001
1000
0100
0010
0001
0100
0010
1000
,
0001
0100
0001
0010
0100
0010
0001
0100
0001
1000
0001
0010
0100
1000
0001
0100
,
0001
1000
0010
1000
0100
0010
0100
1000
0010
1000
0001
1000
0100
0010
0100
1000
,
0001
1000
0010
0100
0001
0010
0001
1000
0100
0010
0001
1000
0001
0100
0010
1000
,
0100
1000
0001
0010
0100
1000
0001
1000
0010
1000
0001
0010
0100
1000
0001
1000
,
0010
1000
0100
0010
0001
1000
0001
0100
0001
0010
0100
1000
0001
1000
0010
1000
,
0100
0010
0001
1000
0001
0100
0001
0010
0100
1000
0001
1000
0010
0100
0001
0010
,
0001
1000
0010
0100
0010
1000
0100
0010
0100
1000
0001
1000
0010
0100
0001
1000
,
0001
0010
0100
0010
0001
0100
0010
0100
0001
1000
0001
0010
0100
1000
0010
0100
,
0001
1000
0010
1000
0100
0010
0100
1000
0010
1000
0001
1000
0100
0010
0001
1000
,
0010
1000
0001
0100
0001
0010
0100
0010
0001
0100
0001
1000
0001
0010
0100
0010
,
0001
1000
0010
0100
0001
0010
0001
1000
0100
0010
0001
1000
0001
0100
0010
1000
,
0100
1000
0001
0010
0100
1000
0001
1000
0010
1000
0001
0010
0100
1000
0001
1000
,
0010
1000
0100
0010
0001
1000
0001
0100
0001
0010
0100
1000
0001
1000
0010
1000
,
0100
0010
0001
1000
0001
0100
0001
0010
0100
1000
0001
1000
0010
0100
0010
1000
,
0001
0000
1000
0000
0010
0000
0100
0001
,
0010
0100
1000
0001
1000
0000
0001
0010
,
0001
1000
0100
0010
,
0001
1000
0010
0100
,
0010
0000
0010
0000
1000
0000
0001
0010
,
0100
0010
0001
1000
0010
0000
0100
0000
,
0010
0010
1000
0001
,
0020
0000
0000
0032
0000
0000
2003
0000
,
3010
0000
0010
0000
1000
0000
0001
0010
,
0100
0010
0001
1000
0010
0000
0100
0000
,
0001
0001
1000
0100
,
0010
0001
0100
0010
,
1000
0000
1000
0000
0010
0000
0100
0001
,
0010
0100
0010
0001
1000
0000
0010
0000
,
1000
1000
0100
0010
,
0002
0000
2003
0000
,
3010
0000
0010
0000
1000
0000
0100
0010
,
0001
0100
0010
1000
0010
0000
1000
0001
,
0010
0001
0100
0010
,
1000
0100
0010
0001
,
1000
0000
1000
0000
0010
0000
0100
0001
,
0100
0010
1000
0100
0010
0000
0001
0000
,
1000
1000
0010
0100
,
0002
0000
0000
0023
0000
0000
0230
0000
,
1300
0000
1000
0000
0001
0000
0100
0010
,
1000
0001
1000
0100
0010
0000
0001
1000
,
0010
1000
0100
0010
,
0002
0000
2003
0000
,
3010
0000
0010
0000
1000
0000
0001
0010
,
0100
0010
0001
1000
0010
0000
0100
0000
,
0001
0001
1000
0010
,
2000
0000
3002
0000
,
0203
0000
0000
0300
0000
0000
0000
0000
,
0000
0000
0000
0000
,
M000
0000
0000
0000
;
