#TITLE:Doin' The Kirby;
#SUBTITLE:;
#ARTIST:EliteFerrex;
#TITLETRANSLIT:;
#SUBTITLETRANSLIT:;
#ARTISTTRANSLIT:;
#CREDIT:;
#BANNER:banner.jpg;
#BACKGROUND:background.jpg;
#LYRICSPATH:;
#CDTITLE:../ov1_title.png;
#MUSIC:Doin' The Kirby.mp3;
#OFFSET:-0.084;
#SAMPLESTART:0.084;
#SAMPLELENGTH:8.280;
#SELECTABLE:YES;
#DISPLAYBPM:170.000;
#BPMS:0.000=169.997,1.000=170.008,2.000=169.997,4.000=170.008,5.000=169.997,8.000=170.008,9.000=169.997,11.000=170.008,12.000=169.997,14.000=170.008,15.000=169.997,18.000=170.008,19.000=169.997,21.000=170.008,22.000=169.997;
#STOPS:;
#BGCHANGES:;
// cache tags:
#FIRSTBEAT:0.000;
#LASTBEAT:15.000;
#SONGFILENAME:Songs/owenviau1 Simfiles 5/Doin' The Kirby - [owenviau1] v1.2/Doin' The Kirby.sm;
#HASMUSIC:1;
#HASBANNER:1;
#MUSICLENGTH:8.314;
// end cache tags

//---------------dance-single - ----------------
#NOTES:
     dance-single:
     :
     Beginner:
     1:
     0.103,0.090,0.120,0.000,0.000,5.000,1.000,0.000,0.000,0.000:
0010
0000
0000
0000
,
1000
0000
0000
0000
,
0001
0000
0000
0000
,
0100
0000
0000
1001
,
0000
0000
0000
0000
,
0000
0000
0000
0000
;

//---------------dance-single - ----------------
#NOTES:
     dance-single:
     :
     Easy:
     3:
     0.172,0.135,0.120,0.000,0.000,9.000,1.000,0.000,0.000,0.000:
0010
0000
0001
0000
,
1000
0000
0100
0000
,
0001
0000
0010
0000
,
0100
0000
1000
1001
,
0000
0000
0000
0000
,
0000
0000
0000
0000
;

//---------------dance-single - ----------------
#NOTES:
     dance-single:
     :
     Medium:
     5:
     0.292,0.203,0.120,0.000,0.000,16.000,1.000,0.000,0.000,0.000:
0010
1000
0001
0100
,
1000
0001
0100
0010
,
0001
0100
0010
1000
,
0100
0010
1000
1001
,
0000
0000
0000
0000
,
0000
0000
0000
0000
;

//---------------dance-single - ----------------
#NOTES:
     dance-single:
     :
     Hard:
     8:
     0.619,0.428,0.120,0.000,1.000,35.000,1.000,0.000,0.000,0.000:
0010
0100
0001
1000
0010
0100
0001
0000
0010
0100
0000
0000
,
1000
0100
0010
0001
1000
0010
0100
0000
1000
0010
0000
0000
,
0001
0010
1000
0100
0001
1000
0010
0000
0100
1000
0000
0001
,
0100
0000
1000
0010
0100
0001
1000
0000
0000
1001
0000
0000
,
0000
0000
0000
0000
,
0000
0000
0000
0000
;

//---------------dance-single - ----------------
#NOTES:
     dance-single:
     :
     Challenge:
     12:
     1.000,0.857,1.000,0.000,1.000,35.000,35.000,0.000,0.000,0.000:
1010
0101
0011
1100
1010
0101
1001
0000
1010
0110
0000
0000
,
1100
0110
0011
1001
1010
0110
0101
0000
1001
0110
0000
0000
,
1001
0110
1001
0110
1001
1010
0110
0000
0101
1001
0000
0011
,
1100
0000
1001
0110
1100
0011
0110
0000
0000
1001
0000
0000
,
0000
0000
0000
0000
,
0000
0000
0000
0000
;
