#TITLE:Extratone in a Perfect World;
#SUBTITLE:;
#ARTIST:Annoying Ringtone;
#TITLETRANSLIT:;
#SUBTITLETRANSLIT:;
#ARTISTTRANSLIT:;
#CREDIT:;
#BANNER:../Jawn - ban.png;
#BACKGROUND:../Jawn - bg.png;
#LYRICSPATH:;
#CDTITLE:;
#MUSIC:Extratone in A Perfect World.ogg;
#OFFSET:-0.080;
#SAMPLESTART:23.860;
#SAMPLELENGTH:12.000;
#SELECTABLE:YES;
#BPMS:0.000=250.000;
#STOPS:;
#BGCHANGES:;
// cache tags:
#FIRSTBEAT:0.000;
#LASTBEAT:433.250;
#SONGFILENAME:Songs/Jimmy Jawns/Extratone in a Perfect World - [Aoreo]/Extratone in A Perfect World.sm;
#HASMUSIC:1;
#HASBANNER:1;
#MUSICLENGTH:104.280;
// end cache tags

//---------------dance-single - J. Nero----------------
#NOTES:
     dance-single:
     J. Nero:
     Challenge:
     19:
     1.000,1.000,0.182,1.000,1.000,1121.000,19.000,118.000,0.000,0.000:
1000
0001
0100
0001
1000
0100
0010
0001
1000
0001
0100
0010
0100
0001
0010
0001
,
1000
0100
0010
0001
1000
0010
1000
0001
0100
0001
1000
0010
0100
0010
1000
0100
,
1000
0100
0010
0001
1000
0001
0100
0010
0100
0001
1000
0100
1000
0010
1000
0001
,
0100
0010
0100
0001
1000
0100
1000
0001
0100
0010
1000
0001
0100
0001
0010
0001
,
1000
0100
0010
0001
1000
0001
0100
0010
0100
0001
1000
0010
0100
0001
0010
0100
,
0010
0001
1000
0001
0100
0010
0100
0001
1000
0001
0100
0010
1000
0010
1000
0100
,
0010
0001
1000
0001
0100
0010
0100
0001
1000
0001
0100
0010
0100
0001
0010
0001
,
1000
0100
0010
0001
1000
0001
0100
0010
0100
0001
1000
0100
0010
0100
1000
0010
,
0100
0001
0010
0100
0010
0001
0100
0001
1000
0100
0010
0100
1000
0010
1000
0001
,
0100
0010
0100
0001
1000
0100
0010
0001
1000
0001
0100
0010
1000
0100
1000
0001
,
0100
0010
0100
0001
1000
0100
1000
0010
0100
0001
0100
0010
1000
0001
1000
0100
,
0010
0100
1000
0010
1000
0001
0010
0100
0010
0001
0100
0001
1000
0010
0100
0001
,
1000
0100
0010
0001
1000
0001
0100
0010
1000
0001
1000
0100
0010
0100
1000
0001
,
1000
0010
0100
0001
1000
0001
0100
0010
1000
0001
1000
0100
0010
0100
1000
0001
,
1000
0010
0100
0001
0100
0010
1000
0001
0100
0001
1000
0001
0010
0100
0010
0001
,
1000
0000
0001
0000
0100
0000
0001
0000
0010
0100
1000
0010
0400
0000
0300
0000
,
0001
0100
0001
0010
0100
1000
0010
0100
0010
1000
0100
0010
0001
1000
0010
0100
,
0002
0000
0023
0000
0230
0000
2300
3002
,
1003
0100
0010
0100
1000
0001
0100
0010
0100
0001
0010
0100
1000
0001
0100
0001
,
2000
0000
3020
0230
0320
0030
2000
3002
,
1003
0010
0100
0001
0010
0100
1000
0001
0100
0001
1000
0100
0010
0001
1000
0001
,
0200
0000
0302
0000
0023
0000
0230
2300
,
3001
0100
0001
1000
0100
0010
0001
0100
0001
1000
0010
1000
0100
0010
0001
0100
,
0002
0000
2003
3020
0230
0300
0002
0023
,
0230
0000
0000
0000
2300
0000
0000
0000
3020
0000
0430
0300
0020
0000
0430
0300
,
0001
1000
0100
0010
0100
1000
0001
0100
0001
1000
0010
0100
0010
1000
0100
0010
,
0002
0000
0000
0000
2003
0000
0000
0000
3020
0000
0430
0300
0020
0000
0430
0300
,
0002
0000
0000
0000
2003
0000
0000
0000
3200
0000
0340
0030
0200
0000
0340
0030
,
0002
0000
0000
0000
2003
0000
0000
0000
3020
0000
0430
0300
0020
0000
0430
0300
,
0001
0100
0001
1000
0100
0010
0100
1000
,
0020
0230
0320
0230
,
0301
0000
0000
0000
1000
0000
0000
0000
0200
0300
0000
0000
0020
0000
0030
0000
0002
0000
0000
0003
0020
0000
0030
0000
0200
0300
0000
0000
1000
0000
0000
0000
,
0001
0100
0001
0010
,
0100
1000
0010
0100
,
0001
1000
0100
0010
,
0100
1000
0010
0100
,
0001
0010
0100
1000
,
0001
0100
0010
0100
,
0001
1000
0100
0010
,
0100
1000
0001
0100
,
0202
0303
0001
0000
0011
0000
0010
0100
,
1000
1000
1010
0010
,
0220
0330
0100
0000
0101
0000
0001
0000
,
0010
0010
1100
0100
,
2200
3300
1000
0000
1010
0000
0010
0100
,
0001
0001
0011
0010
,
0220
0330
0100
0000
1100
0000
1000
0010
,
0200
0000
0301
0000
0010
0000
0000
0000
0100
1000
0010
0100
0001
0000
0000
0000
,
2000
0000
3001
0000
2002
3003
0001
0000
,
0010
0100
1100
1000
,
2002
3003
0202
0303
,
0001
0000
0010
0100
1000
0000
0001
0000
,
0202
0303
2002
3003
,
1000
1000
0100
0010
,
0022
0033
2002
3003
,
1000
0000
1000
0000
,
0001
0100
0001
0010
,
0100
1000
0010
0100
,
0010
1000
0100
0010
,
0001
0000
0000
0000
1000
0000
0000
0000
0001
0100
0001
0010
0100
1000
0010
0100
,
0001
0000
0000
0000
1000
0000
0000
0000
0001
0100
0001
1000
0010
0100
0010
1000
,
0001
0100
0001
1000
0100
0010
0001
1000
0100
1000
0001
0010
0100
0010
0001
1000
,
0001
0100
0010
0100
0001
1000
0001
0100
0010
0100
0001
1000
0001
0100
0010
0100
,
0001
1000
0100
0010
0001
1000
0100
1000
0001
0100
0010
0100
0001
1000
0010
1000
,
0100
0010
0100
1000
0001
1000
0010
0100
0001
1000
0001
0010
0100
0010
0001
1000
,
0001
0100
0010
1000
0010
0100
0001
1000
0001
0010
0100
0010
0001
1000
0010
0100
,
0001
1000
0001
0010
0100
0010
0001
1000
0100
1000
0001
0100
0010
1000
0001
0010
,
0001
1000
0010
0100
0001
1000
0001
0100
0010
1000
0001
1000
0100
0010
0001
1000
,
0010
0100
0010
1000
0001
1000
0100
0010
0001
1000
0001
0100
0010
0100
0001
1000
,
0001
0010
0100
1000
0001
1000
0100
0010
0001
1000
0010
1000
0001
0010
0100
0010
,
0001
1000
0010
0100
0001
1000
0001
0010
0100
0010
0001
1000
0001
0100
0010
1000
,
0001
1000
0100
0010
0001
1000
0001
0100
0010
1000
0001
1000
0100
0010
0001
0100
,
0001
1000
0100
0010
0100
1000
0010
1000
0001
0010
0100
0010
0001
0100
0001
1000
,
0010
0100
0010
1000
0001
0010
0100
1000
0001
1000
0010
0100
0001
0010
0001
1000
,
0010
0100
0010
1000
0001
0010
0001
0100
0010
1000
0010
0100
0001
1000
0001
0010
,
0100
0000
1000
0000
0010
0000
1000
0000
0100
0010
0001
0100
0040
0000
0030
0000
,
1000
0010
1000
0100
0010
0001
0100
0010
0100
0001
0010
0100
1000
0001
0100
0010
,
2000
0000
3200
0000
0320
0000
0032
2003
,
3001
0010
0100
0010
0001
1000
0010
0100
0010
1000
0100
0010
0001
1000
0010
1000
,
0002
0000
0203
0320
0230
0300
0002
2003
,
3001
0100
0010
1000
0100
0010
0001
1000
0010
1000
0001
0010
0100
1000
0001
1000
,
0020
0000
2030
0000
3200
0000
0320
0032
,
1003
0010
1000
0001
0010
0100
1000
0010
1000
0001
0100
0001
0010
0100
1000
0010
,
2000
0000
3002
0203
0320
0030
2000
3200
,
0320
0000
0000
0000
0032
0000
0000
0000
0203
0000
0340
0030
0200
0000
0340
0030
,
2000
0000
0000
0000
3002
0000
0000
0000
0023
0000
0430
0300
0020
0000
0430
0300
,
2000
0000
0000
0000
3002
0000
0000
0000
0203
0000
0340
0030
0200
0000
0340
0030
,
2000
0000
0000
0000
3002
0000
0000
0000
0023
0000
0430
0300
0020
0000
0430
0300
,
2000
0000
0000
0000
3002
0000
0000
0000
0203
0000
0340
0030
0200
0000
0340
0030
,
2000
3002
0023
0230
,
1300
0001
0100
0001
0010
0100
1000
0010
,
0100
0010
1000
0100
0010
0001
1000
0001
,
1000
0100
0010
0001
0100
0001
1000
0010
0100
0001
0010
0001
1000
0100
1000
0010
,
0100
0001
1000
0010
0100
0001
1000
0100
0010
0001
0100
0001
1000
0100
0010
0001
,
1000
0010
0100
0001
0010
0001
1000
0100
0010
0001
0100
0001
1000
0010
1000
0100
,
0010
0001
1000
0100
0010
0001
1000
0010
0100
0001
0010
0001
1000
0010
0100
0001
,
1000
0001
0010
0100
1000
0010
1000
0001
0100
0010
1000
0100
1000
0001
0010
0001
,
0100
0010
1000
0001
0100
0010
1000
0001
0010
0100
1000
0010
1000
0001
0010
0100
,
1000
0001
0100
0010
1000
0100
1000
0001
0010
0100
1000
0010
1000
0001
0100
0001
,
0010
0000
0100
0000
1000
0000
0010
0000
0100
0010
1000
0100
1000
0001
0100
0010
,
1000
0001
0010
0100
1000
0001
1000
0010
0100
0001
0010
0001
1000
0100
1000
0010
,
0100
0001
1000
0010
0100
0001
1000
0100
0010
0001
0100
0001
1000
0100
0010
0001
,
1000
0010
0100
0001
0010
0001
1000
0100
0010
0001
0100
0001
1000
0010
1000
0100
,
0010
0001
1000
0100
0010
0001
1000
0010
0100
0001
0010
0001
1000
0010
0100
0001
,
1000
0001
0010
0100
1000
0010
1000
0001
0100
0010
1000
0100
1000
0001
0010
0001
,
0100
0010
1000
0001
0100
0010
1000
0001
0010
0100
1000
0010
1000
0001
0010
0100
,
1000
0001
0100
0010
1000
0100
1000
0001
0010
0100
1000
0010
1000
0001
0100
0001
,
1000
0000
0100
0000
0010
0000
0100
0000
1000
0001
0100
0001
0010
0100
1000
0010
,
0200
0000
0000
0000
0000
0300
0000
0000
0000
0000
0000
0000
0000
0000
0000
0000
;

//---------------dance-single - J. Nero (18+)----------------
#NOTES:
     dance-single:
     J. Nero (18+):
     Hard:
     18:
     1.000,1.000,0.182,1.000,1.000,1023.000,19.000,118.000,0.000,0.000:
1000
0001
0100
0001
1000
0100
0010
0001
1000
0001
0100
0010
0100
0001
0010
0001
,
1000
0100
0010
0001
1000
0010
1000
0001
0100
0001
1000
0010
0100
0010
1000
0100
,
1000
0100
0010
0001
1000
0001
0100
0010
0100
0001
1000
0100
1000
0010
1000
0001
,
0100
0010
0100
0001
1000
0100
1000
0001
0100
0010
1000
0001
0100
0001
0010
0001
,
1000
0100
0010
0001
1000
0001
0100
0010
0100
0001
1000
0010
0100
0001
0010
0100
,
0010
0001
1000
0001
0100
0010
0100
0001
1000
0001
0100
0010
1000
0010
1000
0100
,
0010
0001
1000
0001
0100
0010
0100
0001
1000
0001
0100
0010
0100
0001
0010
0001
,
1000
0100
0010
0001
1000
0001
0100
0010
0100
0001
1000
0100
0010
0100
1000
0001
,
0100
0001
1000
0100
0010
0100
1000
0010
,
0100
0001
1000
0100
0010
0001
1000
0010
,
0100
0010
1000
0100
0010
0100
1000
0010
,
0100
0010
1000
0100
0010
0001
0100
0010
,
1000
0100
0010
0001
1000
0001
0100
0010
1000
0001
1000
0100
0010
0100
1000
0001
,
1000
0010
0100
0001
1000
0001
0100
0010
1000
0001
1000
0100
0010
0100
1000
0001
,
1000
0010
0100
0001
0100
0010
1000
0001
0100
0001
1000
0001
0010
0100
0010
0001
,
1000
0000
0001
0000
0100
0000
0001
0000
0010
0100
1000
0010
0400
0000
0300
0000
,
0001
0100
0001
0010
0100
1000
0010
0100
0010
1000
0100
0010
0001
1000
0010
0100
,
0002
0000
0023
0000
0230
0000
2300
3002
,
1003
0100
0010
0100
1000
0001
0100
0010
0100
0001
0010
0100
1000
0001
0100
0001
,
2000
0000
3020
0230
0320
0030
2000
3002
,
1003
0010
0100
0001
0010
0100
1000
0001
0100
0001
1000
0100
0010
0001
1000
0001
,
0200
0000
0302
0000
0023
0000
0230
2300
,
3001
0100
0001
1000
0100
0010
0001
0100
0001
1000
0010
1000
0100
0010
0001
0100
,
0002
0000
2003
3020
0230
0300
0002
0023
,
0230
0000
0000
0000
2300
0000
0000
0000
3020
0000
0430
0300
0020
0000
0430
0300
,
0001
1000
0100
0010
0100
1000
0001
0100
0001
1000
0010
0100
0010
1000
0100
0010
,
0002
0000
0000
0000
2003
0000
0000
0000
3020
0000
0430
0300
0020
0000
0430
0300
,
0002
0000
0000
0000
2003
0000
0000
0000
3200
0000
0340
0030
0200
0000
0340
0030
,
0002
0000
0000
0000
2003
0000
0000
0000
3020
0000
0430
0300
0020
0000
0430
0300
,
0001
0100
0001
1000
0100
0010
0100
1000
,
0020
0230
0320
0230
,
0301
0000
0000
0000
1000
0000
0000
0000
0200
0300
0000
0000
0020
0000
0030
0000
0002
0000
0000
0003
0020
0000
0030
0000
0200
0300
0000
0000
1000
0000
0000
0000
,
0001
0100
0001
0010
,
0100
1000
0010
0100
,
0001
1000
0100
0010
,
0100
1000
0010
0100
,
0001
0010
0100
1000
,
0001
0100
0010
0100
,
0001
1000
0100
0010
,
0100
1000
0001
0100
,
0202
0303
0001
0000
0011
0000
0010
0100
,
1000
1000
1010
0010
,
0220
0330
0100
0000
0101
0000
0001
0000
,
0010
0010
1100
0100
,
2200
3300
1000
0000
1010
0000
0010
0100
,
0001
0001
0011
0010
,
0220
0330
0100
0000
1100
0000
1000
0010
,
0200
0000
0301
0000
0010
0000
0000
0000
0100
1000
0010
0100
0001
0000
0000
0000
,
2000
0000
3001
0000
2002
3003
0001
0000
,
0010
0100
1100
1000
,
2002
3003
0202
0303
,
0001
0000
0010
0100
1000
0000
0001
0000
,
0202
0303
2002
3003
,
1000
1000
0100
0010
,
0022
0033
2002
3003
,
1000
0000
1000
0000
,
0001
0100
0001
0010
,
0100
1000
0010
0100
,
0010
1000
0100
0010
,
0001
0000
0000
0000
1000
0000
0000
0000
0001
0100
0001
0010
0100
1000
0010
0100
,
0001
1000
0100
0010
,
0100
1000
0010
0100
,
0010
1000
0001
0010
,
0100
1000
0010
0100
,
0001
0010
0100
1000
0001
1000
0010
0100
0001
1000
0001
0010
0100
0010
0001
1000
,
0001
0100
0010
1000
0010
0100
0001
1000
0001
0010
0100
0010
0001
1000
0010
0100
,
0001
1000
0001
0010
0100
0010
0001
1000
0100
1000
0001
0100
0010
1000
0001
0010
,
0001
1000
0010
0100
0001
1000
0001
0100
0010
1000
0001
1000
0100
0010
0001
1000
,
0010
0100
0010
1000
0001
1000
0100
0010
0001
1000
0001
0100
0010
0100
0001
1000
,
0001
0010
0100
1000
0001
1000
0100
0010
0001
1000
0010
1000
0001
0010
0100
0010
,
0001
1000
0010
0100
0001
1000
0001
0010
0100
0010
0001
1000
0001
0100
0010
1000
,
0001
1000
0100
0010
0001
1000
0001
0100
0010
1000
0001
1000
0100
0010
0001
0100
,
0001
1000
0100
0010
0100
1000
0010
1000
0001
0010
0100
0010
0001
0100
0001
1000
,
0010
0100
0010
1000
0001
0010
0100
1000
0001
1000
0010
0100
0001
0010
0001
1000
,
0010
0100
0010
1000
0001
0010
0001
0100
0010
1000
0010
0100
0001
1000
0001
0010
,
0100
0000
1000
0000
0010
0000
1000
0000
0100
0010
0001
0100
0040
0000
0030
0000
,
1000
0010
1000
0100
0010
0001
0100
0010
0100
0001
0010
0100
1000
0001
0100
0010
,
2000
0000
3200
0000
0320
0000
0032
2003
,
3001
0010
0100
0010
0001
1000
0010
0100
0010
1000
0100
0010
0001
1000
0010
1000
,
0002
0000
0203
0320
0230
0300
0002
2003
,
3001
0100
0010
1000
0100
0010
0001
1000
0010
1000
0001
0010
0100
1000
0001
1000
,
0020
0000
2030
0000
3200
0000
0320
0032
,
1003
0010
1000
0001
0010
0100
1000
0010
1000
0001
0100
0001
0010
0100
1000
0010
,
2000
0000
3002
0203
0320
0030
2000
3200
,
0320
0000
0000
0000
0032
0000
0000
0000
0203
0000
0340
0030
0200
0000
0340
0030
,
2000
0000
0000
0000
3002
0000
0000
0000
0023
0000
0430
0300
0020
0000
0430
0300
,
2000
0000
0000
0000
3002
0000
0000
0000
0203
0000
0340
0030
0200
0000
0340
0030
,
2000
0000
0000
0000
3002
0000
0000
0000
0023
0000
0430
0300
0020
0000
0430
0300
,
2000
0000
0000
0000
3002
0000
0000
0000
0203
0000
0340
0030
0200
0000
0340
0030
,
2000
3002
0023
0230
,
1300
0001
0100
0001
0010
0100
1000
0010
,
0100
0010
1000
0100
0010
0001
1000
0001
,
1000
0100
0010
0001
0100
0001
1000
0010
0100
0001
0010
0001
1000
0100
1000
0010
,
0100
0010
1000
0100
0010
0100
1000
0001
,
1000
0010
0100
0001
0010
0001
1000
0100
0010
0001
0100
0001
1000
0010
1000
0100
,
0010
0001
0100
0010
0100
0001
0010
0100
,
1000
0001
0010
0100
1000
0010
1000
0001
0100
0010
1000
0100
1000
0001
0010
0001
,
0100
0001
1000
0100
0010
0100
1000
0010
,
1000
0001
0100
0010
1000
0100
1000
0001
0010
0100
1000
0010
1000
0001
0100
0001
,
0010
0000
0100
0000
1000
0000
0010
0000
0100
0010
1000
0100
1000
0001
0100
0010
,
1000
0001
0010
0100
1000
0001
1000
0010
0100
0001
0010
0001
1000
0100
1000
0010
,
0100
0001
1000
0010
0100
0001
1000
0100
0010
0001
0100
0001
1000
0100
0010
0001
,
1000
0010
0100
0001
0010
0001
1000
0100
0010
0001
0100
0001
1000
0010
1000
0100
,
0010
0001
1000
0100
0010
0001
1000
0010
0100
0001
0010
0001
1000
0010
0100
0001
,
1000
0001
0010
0100
1000
0010
1000
0001
0100
0010
1000
0100
1000
0001
0010
0001
,
0100
0010
1000
0001
0100
0010
1000
0001
0010
0100
1000
0010
1000
0001
0010
0100
,
1000
0001
0100
0010
1000
0100
1000
0001
0010
0100
1000
0010
1000
0001
0100
0001
,
1000
0000
0100
0000
0010
0000
0100
0000
1000
0001
0100
0001
0010
0100
1000
0010
,
0200
0000
0000
0000
0000
0300
0000
0000
0000
0000
0000
0000
0000
0000
0000
0000
;

//---------------dance-single - J. Nero (17++)----------------
#NOTES:
     dance-single:
     J. Nero (17++):
     Medium:
     17:
     1.000,1.000,0.182,1.000,1.000,999.000,19.000,118.000,0.000,0.000:
1000
0001
0100
0001
1000
0100
0010
0001
1000
0001
0100
0010
0100
0001
0010
0001
,
1000
0100
0010
0001
1000
0010
1000
0001
0100
0001
1000
0010
0100
0010
1000
0100
,
1000
0100
0010
0001
1000
0001
0100
0010
0100
0001
1000
0100
1000
0010
1000
0001
,
0100
0010
0100
0001
1000
0100
1000
0001
0100
0010
1000
0001
0100
0001
0010
0001
,
1000
0100
0010
0001
1000
0001
0100
0010
0100
0001
1000
0010
0100
0001
0010
0100
,
0010
0001
1000
0001
0100
0010
0100
0001
1000
0001
0100
0010
1000
0010
1000
0100
,
0010
0001
1000
0001
0100
0010
0100
0001
1000
0001
0100
0010
0100
0001
0010
0001
,
1000
0100
0010
0001
1000
0001
0100
0010
0100
0001
1000
0100
0010
0100
1000
0001
,
0100
0001
1000
0100
0010
0100
1000
0010
,
0100
0001
1000
0100
0010
0001
1000
0010
,
0100
0010
1000
0100
0010
0100
1000
0010
,
0100
0010
1000
0100
0010
0001
0100
0010
,
1000
0100
0010
0001
1000
0001
0100
0010
1000
0001
1000
0100
0010
0100
1000
0001
,
1000
0010
0100
0001
1000
0001
0100
0010
1000
0001
1000
0100
0010
0100
1000
0001
,
1000
0010
0100
0001
0100
0010
1000
0001
0100
0001
1000
0001
0010
0100
0010
0001
,
1000
0000
0001
0000
0100
0000
0001
0000
0010
0100
1000
0010
0400
0000
0300
0000
,
0001
0100
0001
0010
0100
1000
0010
0100
0010
1000
0100
0010
0001
1000
0010
0100
,
0002
0000
0023
0000
0230
0000
2300
3002
,
1003
0100
0010
0100
1000
0001
0100
0010
0100
0001
0010
0100
1000
0001
0100
0001
,
2000
0000
3020
0230
0320
0030
2000
3002
,
1003
0010
0100
0001
0010
0100
1000
0001
0100
0001
1000
0100
0010
0001
1000
0001
,
0200
0000
0302
0000
0023
0000
0230
2300
,
3001
0100
0001
1000
0100
0010
0001
0100
0001
1000
0010
1000
0100
0010
0001
0100
,
0002
0000
2003
3020
0230
0300
0002
0023
,
0230
0000
0000
0000
2300
0000
0000
0000
3020
0000
0430
0300
0020
0000
0430
0300
,
0001
1000
0100
0010
0100
1000
0001
0100
0001
1000
0010
0100
0010
1000
0100
0010
,
0002
0000
0000
0000
2003
0000
0000
0000
3020
0000
0430
0300
0020
0000
0430
0300
,
0002
0000
0000
0000
2003
0000
0000
0000
3200
0000
0340
0030
0200
0000
0340
0030
,
0002
0000
0000
0000
2003
0000
0000
0000
3020
0000
0430
0300
0020
0000
0430
0300
,
0001
0100
0001
1000
0100
0010
0100
1000
,
0020
0230
0320
0230
,
0301
0000
0000
0000
1000
0000
0000
0000
0200
0300
0000
0000
0020
0000
0030
0000
0002
0000
0000
0003
0020
0000
0030
0000
0200
0300
0000
0000
1000
0000
0000
0000
,
0001
0100
0001
0010
,
0100
1000
0010
0100
,
0001
1000
0100
0010
,
0100
1000
0010
0100
,
0001
0010
0100
1000
,
0001
0100
0010
0100
,
0001
1000
0100
0010
,
0100
1000
0001
0100
,
0202
0303
0001
0000
0011
0000
0010
0100
,
1000
1000
1010
0010
,
0220
0330
0100
0000
0101
0000
0001
0000
,
0010
0010
1100
0100
,
2200
3300
1000
0000
1010
0000
0010
0100
,
0001
0001
0011
0010
,
0220
0330
0100
0000
1100
0000
1000
0010
,
0200
0000
0301
0000
0010
0000
0000
0000
0100
1000
0010
0100
0001
0000
0000
0000
,
2000
0000
3001
0000
2002
3003
0001
0000
,
0010
0100
1100
1000
,
2002
3003
0202
0303
,
0001
0000
0010
0100
1000
0000
0001
0000
,
0202
0303
2002
3003
,
1000
1000
0100
0010
,
0022
0033
2002
3003
,
1000
0000
1000
0000
,
0001
0100
0001
0010
,
0100
1000
0010
0100
,
0010
1000
0100
0010
,
0001
0000
0000
0000
1000
0000
0000
0000
0001
0100
0001
0010
0100
1000
0010
0100
,
0001
1000
0100
0010
,
0100
1000
0010
0100
,
0010
1000
0001
0010
,
0100
1000
0010
0100
,
0001
0010
0100
1000
0001
1000
0010
0100
0001
1000
0001
0010
0100
0010
0001
1000
,
0001
0100
0010
1000
0010
0100
0001
1000
0001
0010
0100
0010
0001
1000
0010
0100
,
0001
1000
0001
0010
0100
0010
0001
1000
0100
1000
0001
0100
0010
1000
0001
0010
,
0001
1000
0010
0100
0001
1000
0001
0100
0010
1000
0001
1000
0100
0010
0001
1000
,
0010
0100
0010
1000
0001
1000
0100
0010
0001
1000
0001
0100
0010
0100
0001
1000
,
0001
0100
0010
0100
0001
0010
0100
1000
,
0001
1000
0010
0100
0001
1000
0001
0010
0100
0010
0001
1000
0001
0100
0010
1000
,
0001
0100
0010
1000
0100
0010
0100
1000
,
0001
1000
0100
0010
0100
1000
0010
1000
0001
0010
0100
0010
0001
0100
0001
1000
,
0010
0100
0001
0010
0100
1000
0010
0100
,
0010
0100
0010
1000
0001
0010
0001
0100
0010
1000
0010
0100
0001
1000
0001
0010
,
0100
0000
1000
0000
0010
0000
1000
0000
0100
0010
0001
0100
0040
0000
0030
0000
,
1000
0010
1000
0100
0010
0001
0100
0010
0100
0001
0010
0100
1000
0001
0100
0010
,
2000
0000
3200
0000
0320
0000
0032
2003
,
3001
0010
0100
0010
0001
1000
0010
0100
0010
1000
0100
0010
0001
1000
0010
1000
,
0002
0000
0203
0320
0230
0300
0002
2003
,
3001
0100
0010
1000
0100
0010
0001
1000
0010
1000
0001
0010
0100
1000
0001
1000
,
0020
0000
2030
0000
3200
0000
0320
0032
,
1003
0010
1000
0001
0010
0100
1000
0010
1000
0001
0100
0001
0010
0100
1000
0010
,
2000
0000
3002
0203
0320
0030
2000
3200
,
0320
0000
0000
0000
0032
0000
0000
0000
0203
0000
0340
0030
0200
0000
0340
0030
,
2000
0000
0000
0000
3002
0000
0000
0000
0023
0000
0430
0300
0020
0000
0430
0300
,
2000
0000
0000
0000
3002
0000
0000
0000
0203
0000
0340
0030
0200
0000
0340
0030
,
2000
0000
0000
0000
3002
0000
0000
0000
0023
0000
0430
0300
0020
0000
0430
0300
,
2000
0000
0000
0000
3002
0000
0000
0000
0203
0000
0340
0030
0200
0000
0340
0030
,
2000
3002
0023
0230
,
1300
0001
0100
0001
0010
0100
1000
0010
,
0100
0010
1000
0100
0010
0001
1000
0001
,
1000
0100
0010
0001
0100
0001
1000
0010
0100
0001
0010
0001
1000
0100
1000
0010
,
0100
0010
1000
0100
0010
0100
1000
0001
,
1000
0010
0100
0001
0010
0001
1000
0100
0010
0001
0100
0001
1000
0010
1000
0100
,
0010
0001
0100
0010
0100
0001
0010
0100
,
1000
0001
0010
0100
1000
0010
1000
0001
0100
0010
1000
0100
1000
0001
0010
0001
,
0100
0001
1000
0100
0010
0100
1000
0010
,
1000
0001
0100
0010
1000
0100
1000
0001
0010
0100
1000
0010
1000
0001
0100
0001
,
0010
0000
0100
0000
1000
0000
0010
0000
0100
0010
1000
0100
1000
0001
0100
0010
,
1000
0001
0010
0100
1000
0001
1000
0010
0100
0001
0010
0001
1000
0100
1000
0010
,
0100
0001
1000
0010
0100
0001
1000
0100
0010
0001
0100
0001
1000
0100
0010
0001
,
1000
0010
0100
0001
0010
0001
1000
0100
0010
0001
0100
0001
1000
0010
1000
0100
,
0010
0001
1000
0100
0010
0001
1000
0010
0100
0001
0010
0001
1000
0010
0100
0001
,
1000
0001
0010
0100
1000
0010
1000
0001
0100
0010
1000
0100
1000
0001
0010
0001
,
0100
0010
1000
0001
0100
0010
1000
0001
0010
0100
1000
0010
1000
0001
0010
0100
,
1000
0001
0100
0010
1000
0100
1000
0001
0010
0100
1000
0010
1000
0001
0100
0001
,
1000
0000
0100
0000
0010
0000
0100
0000
1000
0001
0100
0001
0010
0100
1000
0010
,
0200
0000
0000
0000
0000
0300
0000
0000
0000
0000
0000
0000
0000
0000
0000
0000
;

//---------------dance-single - J. Nero (17)----------------
#NOTES:
     dance-single:
     J. Nero (17):
     Easy:
     17:
     1.000,1.000,0.182,1.000,1.000,953.000,19.000,118.000,0.000,0.000:
1000
0001
0100
0001
1000
0100
0010
0001
1000
0001
0100
0010
0100
0001
0010
0001
,
1000
0100
0010
0001
1000
0010
1000
0001
0100
0001
1000
0010
0100
0010
1000
0100
,
1000
0100
0010
0001
1000
0001
0100
0010
0100
0001
1000
0100
1000
0010
1000
0001
,
0100
0010
0100
0001
1000
0100
1000
0001
0100
0010
1000
0001
0100
0001
0010
0001
,
1000
0100
0010
0001
1000
0001
0100
0010
0100
0001
1000
0010
0100
0001
0010
0100
,
0010
0001
1000
0001
0100
0010
0100
0001
1000
0001
0100
0010
1000
0010
1000
0100
,
0010
0001
1000
0001
0100
0010
0100
0001
1000
0001
0100
0010
0100
0001
0010
0001
,
1000
0100
0010
0001
1000
0001
0100
0010
0100
0001
1000
0100
0010
0100
1000
0001
,
0100
0001
1000
0100
0010
0100
1000
0010
,
0100
0001
1000
0100
0010
0001
1000
0010
,
0100
0010
1000
0100
0010
0100
1000
0010
,
0100
0000
0010
0000
1000
0000
0100
0000
0010
0000
0001
0000
0100
0010
0100
0001
,
1000
0000
0001
0000
0100
0000
0001
0000
0010
0000
0100
0000
1000
0000
0001
0100
,
0001
0000
1000
0000
0100
0000
0010
0000
0100
0000
1000
0000
0001
0000
0100
0001
,
0100
0000
0010
0000
1000
0000
0100
0000
0010
0000
0001
0000
0400
0300
0004
0003
,
1000
0000
0001
0000
0100
0000
0001
0000
0010
0100
1000
0010
0400
0000
0300
0000
,
0001
0100
0001
0010
0100
1000
0010
0100
0010
1000
0100
0010
0001
1000
0010
0100
,
0002
0000
0023
0000
0230
0000
2300
3002
,
1003
0100
0010
0100
1000
0001
0100
0010
0100
0001
0010
0100
1000
0001
0100
0001
,
2000
0000
3020
0230
0320
0030
2000
3002
,
1003
0010
0100
0001
0010
0100
1000
0001
0100
0001
1000
0100
0010
0001
1000
0001
,
0200
0000
0302
0000
0023
0000
0230
2300
,
3001
0100
0001
1000
0100
0010
0001
0100
0001
1000
0010
1000
0100
0010
0001
0100
,
0002
0000
2003
3020
0230
0300
0002
0023
,
0230
0000
0000
0000
2300
0000
0000
0000
3020
0000
0430
0300
0020
0000
0430
0300
,
0001
1000
0100
0010
0100
1000
0001
0100
0001
1000
0010
0100
0010
1000
0100
0010
,
0002
0000
0000
0000
2003
0000
0000
0000
3020
0000
0430
0300
0020
0000
0430
0300
,
0002
0000
0000
0000
2003
0000
0000
0000
3200
0000
0340
0030
0200
0000
0340
0030
,
0002
0000
0000
0000
2003
0000
0000
0000
3020
0000
0430
0300
0020
0000
0430
0300
,
0001
0100
0001
1000
0100
0010
0100
1000
,
0020
0230
0320
0230
,
0301
0000
0000
0000
1000
0000
0000
0000
0200
0300
0000
0000
0020
0000
0030
0000
0002
0000
0000
0003
0020
0000
0030
0000
0200
0300
0000
0000
1000
0000
0000
0000
,
0001
0100
0001
0010
,
0100
1000
0010
0100
,
0001
1000
0100
0010
,
0100
1000
0010
0100
,
0001
0010
0100
1000
,
0001
0100
0010
0100
,
0001
1000
0100
0010
,
0100
1000
0001
0100
,
0202
0303
0001
0000
0011
0000
0010
0100
,
1000
1000
1010
0010
,
0220
0330
0100
0000
0101
0000
0001
0000
,
0010
0010
1100
0100
,
2200
3300
1000
0000
1010
0000
0010
0100
,
0001
0001
0011
0010
,
0220
0330
0100
0000
1100
0000
1000
0010
,
0200
0000
0301
0000
0010
0000
0000
0000
0100
1000
0010
0100
0001
0000
0000
0000
,
2000
0000
3001
0000
2002
3003
0001
0000
,
0010
0100
1100
1000
,
2002
3003
0202
0303
,
0001
0000
0010
0100
1000
0000
0001
0000
,
0202
0303
2002
3003
,
1000
1000
0100
0010
,
0022
0033
2002
3003
,
1000
0000
1000
0000
,
0001
0100
0001
0010
,
0100
1000
0010
0100
,
0010
1000
0100
0010
,
0001
0000
0000
0000
1000
0000
0000
0000
0001
0100
0001
0010
0100
1000
0010
0100
,
0001
1000
0100
0010
,
0100
1000
0010
0100
,
0010
1000
0001
0010
,
0100
1000
0010
0100
,
0001
0010
0100
1000
0001
1000
0010
0100
0001
1000
0001
0010
0100
0010
0001
1000
,
0001
0100
0010
1000
0010
0100
0001
1000
0001
0010
0100
0010
0001
1000
0010
0100
,
0001
1000
0001
0010
0100
0010
0001
1000
0100
1000
0001
0100
0010
1000
0001
0010
,
0001
1000
0010
0100
0001
1000
0001
0100
0010
1000
0001
1000
0100
0010
0001
1000
,
0010
0100
0010
1000
0001
1000
0100
0010
0001
1000
0001
0100
0010
0100
0001
1000
,
0001
0100
0010
0100
0001
0010
0100
1000
,
0001
1000
0010
0100
0001
1000
0001
0010
0100
0010
0001
1000
0001
0100
0010
1000
,
0001
0100
0010
1000
0100
0010
0100
1000
,
0001
1000
0100
0010
0100
1000
0010
1000
0001
0010
0100
0010
0001
0100
0001
1000
,
0010
0100
0001
0010
0100
1000
0010
0100
,
0010
0100
0010
1000
0001
0010
0001
0100
0010
1000
0010
0100
0001
1000
0001
0010
,
0100
0000
1000
0000
0010
0000
1000
0000
0100
0010
0001
0100
0040
0000
0030
0000
,
1000
0010
1000
0100
0010
0001
0100
0010
0100
0001
0010
0100
1000
0001
0100
0010
,
2000
0000
3200
0000
0320
0000
0032
2003
,
3001
0010
0100
0010
0001
1000
0010
0100
0010
1000
0100
0010
0001
1000
0010
1000
,
0002
0000
0203
0320
0230
0300
0002
2003
,
3001
0100
0010
1000
0100
0010
0001
1000
0010
1000
0001
0010
0100
1000
0001
1000
,
0020
0000
2030
0000
3200
0000
0320
0032
,
1003
0010
1000
0001
0010
0100
1000
0010
1000
0001
0100
0001
0010
0100
1000
0010
,
2000
0000
3002
0203
0320
0030
2000
3200
,
0320
0000
0000
0000
0032
0000
0000
0000
0203
0000
0340
0030
0200
0000
0340
0030
,
2000
0000
0000
0000
3002
0000
0000
0000
0023
0000
0430
0300
0020
0000
0430
0300
,
2000
0000
0000
0000
3002
0000
0000
0000
0203
0000
0340
0030
0200
0000
0340
0030
,
2000
0000
0000
0000
3002
0000
0000
0000
0023
0000
0430
0300
0020
0000
0430
0300
,
2000
0000
0000
0000
3002
0000
0000
0000
0203
0000
0340
0030
0200
0000
0340
0030
,
2000
3002
0023
0230
,
1300
0001
0100
0001
0010
0100
1000
0010
,
0100
0010
1000
0100
0010
0001
1000
0001
,
1000
0100
0010
0001
0100
0001
1000
0010
0100
0001
0010
0001
1000
0100
1000
0010
,
0100
0010
1000
0100
0010
0100
1000
0001
,
1000
0010
0100
0001
0010
0001
1000
0100
0010
0001
0100
0001
1000
0010
1000
0100
,
0010
0001
0100
0010
0100
0001
0010
0100
,
1000
0001
0010
0100
1000
0010
1000
0001
0100
0010
1000
0100
1000
0001
0010
0001
,
0100
0001
1000
0100
0010
0100
1000
0010
,
1000
0001
0100
0010
1000
0100
1000
0001
0010
0100
1000
0010
1000
0001
0100
0001
,
0010
0000
0100
0000
1000
0000
0010
0000
0100
0010
1000
0100
1000
0001
0100
0010
,
1000
0001
0010
0100
1000
0001
1000
0010
0100
0001
0010
0001
1000
0100
1000
0010
,
0100
0001
0010
0100
1000
0010
0100
0001
,
1000
0010
0100
0001
0010
0001
1000
0100
0010
0001
0100
0001
1000
0010
1000
0100
,
0010
0001
0100
0010
0100
0001
0010
0100
,
1000
0001
0010
0100
1000
0010
1000
0001
0100
0010
1000
0100
1000
0001
0010
0001
,
0100
0010
1000
0100
0010
0100
1000
0001
,
1000
0001
0100
0010
1000
0100
1000
0001
0010
0100
1000
0010
1000
0001
0100
0001
,
1000
0000
0100
0000
0010
0000
0100
0000
1000
0001
0100
0001
0010
0100
1000
0010
,
0200
0000
0000
0000
0000
0300
0000
0000
0000
0000
0000
0000
0000
0000
0000
0000
;

//---------------dance-single - J. Nero (16)----------------
#NOTES:
     dance-single:
     J. Nero (16):
     Beginner:
     16:
     1.000,1.000,0.182,1.000,1.000,867.000,19.000,118.000,0.000,0.000:
1000
0000
0100
0000
1000
0000
0010
0000
0100
0000
0001
0000
1000
0000
0001
0100
,
0001
0000
1000
0000
0100
0000
0010
0000
0100
0000
1000
0000
0001
0000
0010
0100
,
1000
0000
0001
0000
0100
0000
0010
0000
0100
0000
0001
0000
4000
3000
0400
0300
,
0010
0000
0100
0000
1000
0000
0010
0000
0100
0000
0010
0000
1000
0001
1000
0100
,
0010
0000
0001
0000
1000
0000
0001
0000
0100
0000
0010
0000
1000
0000
0001
0100
,
0010
0000
0100
0000
0001
0000
0010
0000
0100
0000
1000
0000
0001
0000
0100
0001
,
0010
0000
0100
0000
1000
0000
0010
0000
0100
0000
0010
0000
4000
3000
0004
0003
,
0100
0000
0001
0000
0010
0000
0100
0000
1000
0010
0100
0010
1000
0001
0010
0100
,
1000
0001
1000
0100
0010
0100
1000
0010
,
0100
0001
1000
0100
0010
0001
1000
0010
,
0100
0010
1000
0100
0010
0100
1000
0010
,
0100
0000
0010
0000
1000
0000
0100
0000
0010
0000
0001
0000
0100
0010
0100
0001
,
1000
0000
0001
0000
0100
0000
0001
0000
0010
0000
0100
0000
1000
0000
0001
0100
,
0001
0000
1000
0000
0100
0000
0010
0000
0100
0000
1000
0000
0001
0000
0100
0001
,
0100
0000
0010
0000
1000
0000
0100
0000
0010
0000
0001
0000
0400
0300
0004
0003
,
1000
0000
0001
0000
0100
0000
0001
0000
0010
0100
1000
0010
0400
0000
0300
0000
,
0001
0100
0001
0010
0100
1000
0010
0100
0010
1000
0100
0010
0001
1000
0010
0100
,
0002
0000
0023
0000
0230
0000
2300
3002
,
1003
0100
0010
0100
1000
0001
0100
0010
0100
0001
0010
0100
1000
0001
0100
0001
,
2000
0000
3020
0230
0320
0030
2000
3002
,
1003
0010
0100
0001
0010
0100
1000
0001
0100
0001
1000
0100
0010
0001
1000
0001
,
0200
0000
0302
0000
0023
0000
0230
2300
,
3001
0100
0001
1000
0100
0010
0001
0100
0001
1000
0010
1000
0100
0010
0001
0100
,
0002
0000
2003
3020
0230
0300
0002
0023
,
0230
0000
0000
0000
2300
0000
0000
0000
3020
0000
0430
0300
0020
0000
0430
0300
,
0001
1000
0100
0010
0100
1000
0001
0100
0001
1000
0010
0100
0010
1000
0100
0010
,
0002
0000
0000
0000
2003
0000
0000
0000
3020
0000
0430
0300
0020
0000
0430
0300
,
0002
0000
0000
0000
2003
0000
0000
0000
3200
0000
0340
0030
0200
0000
0340
0030
,
0002
0000
0000
0000
2003
0000
0000
0000
3020
0000
0430
0300
0020
0000
0430
0300
,
0001
0100
0001
1000
0100
0010
0100
1000
,
0020
0230
0320
0230
,
0301
0000
0000
0000
1000
0000
0000
0000
0200
0300
0000
0000
0020
0000
0030
0000
0002
0000
0000
0003
0020
0000
0030
0000
0200
0300
0000
0000
1000
0000
0000
0000
,
0001
0100
0001
0010
,
0100
1000
0010
0100
,
0001
1000
0100
0010
,
0100
1000
0010
0100
,
0001
0010
0100
1000
,
0001
0100
0010
0100
,
0001
1000
0100
0010
,
0100
1000
0001
0100
,
0202
0303
0001
0000
0011
0000
0010
0100
,
1000
1000
1010
0010
,
0220
0330
0100
0000
0101
0000
0001
0000
,
0010
0010
1100
0100
,
2200
3300
1000
0000
1010
0000
0010
0100
,
0001
0001
0011
0010
,
0220
0330
0100
0000
1100
0000
1000
0010
,
0200
0000
0301
0000
0010
0000
0000
0000
0100
1000
0010
0100
0001
0000
0000
0000
,
2000
0000
3001
0000
2002
3003
0001
0000
,
0010
0100
1100
1000
,
2002
3003
0202
0303
,
0001
0000
0010
0100
1000
0000
0001
0000
,
0202
0303
2002
3003
,
1000
1000
0100
0010
,
0022
0033
2002
3003
,
1000
0000
1000
0000
,
0001
0100
0001
0010
,
0100
1000
0010
0100
,
0010
1000
0100
0010
,
0001
0000
0000
0000
1000
0000
0000
0000
0001
0100
0001
0010
0100
1000
0010
0100
,
0001
1000
0100
0010
,
0100
1000
0010
0100
,
0010
1000
0001
0010
,
0100
1000
0010
0100
,
0001
0000
0100
0000
0001
0000
1000
0000
0100
0000
0010
0000
0001
0000
1000
0010
,
1000
0000
0100
0000
0010
0000
0001
0000
0100
0000
0010
0000
1000
0000
0001
0100
,
0001
0000
0010
0000
0100
0000
1000
0000
0010
0000
0100
0000
0040
0030
4000
3000
,
0001
0000
0010
0000
0100
0000
1000
0000
0010
1000
0010
0100
0001
1000
0100
0010
,
0001
0100
0010
1000
0001
1000
0100
0010
0001
1000
0001
0100
0010
0100
0001
1000
,
0001
0100
0010
0100
0001
0010
0100
1000
,
0001
1000
0010
0100
0001
1000
0001
0010
0100
0010
0001
1000
0001
0100
0010
1000
,
0001
0100
0010
1000
0100
0010
0100
1000
,
0001
1000
0100
0010
0100
1000
0010
1000
0001
0010
0100
0010
0001
0100
0001
1000
,
0010
0100
0001
0010
0100
1000
0010
0100
,
0010
0100
0010
1000
0001
0010
0001
0100
0010
1000
0010
0100
0001
1000
0001
0010
,
0100
0000
1000
0000
0010
0000
1000
0000
0100
0010
0001
0100
0040
0000
0030
0000
,
1000
0010
1000
0100
0010
0001
0100
0010
0100
0001
0010
0100
1000
0001
0100
0010
,
2000
0000
3200
0000
0320
0000
0032
2003
,
3001
0010
0100
0010
0001
1000
0010
0100
0010
1000
0100
0010
0001
1000
0010
1000
,
0002
0000
0203
0320
0230
0300
0002
2003
,
3001
0100
0010
1000
0100
0010
0001
1000
0010
1000
0001
0010
0100
1000
0001
1000
,
0020
0000
2030
0000
3200
0000
0320
0032
,
1003
0010
1000
0001
0010
0100
1000
0010
1000
0001
0100
0001
0010
0100
1000
0010
,
2000
0000
3002
0203
0320
0030
2000
3200
,
0320
0000
0000
0000
0032
0000
0000
0000
0203
0000
0340
0030
0200
0000
0340
0030
,
2000
0000
0000
0000
3002
0000
0000
0000
0023
0000
0430
0300
0020
0000
0430
0300
,
2000
0000
0000
0000
3002
0000
0000
0000
0203
0000
0340
0030
0200
0000
0340
0030
,
2000
0000
0000
0000
3002
0000
0000
0000
0023
0000
0430
0300
0020
0000
0430
0300
,
2000
0000
0000
0000
3002
0000
0000
0000
0203
0000
0340
0030
0200
0000
0340
0030
,
2000
3002
0023
0230
,
1300
0001
0100
0001
0010
0100
1000
0010
,
0100
0010
1000
0100
0010
0001
1000
0001
,
1000
0100
0010
0001
0100
0001
1000
0010
0100
0001
0010
0001
1000
0100
1000
0010
,
0100
0010
1000
0100
0010
0100
1000
0001
,
1000
0010
0100
0001
0010
0001
1000
0100
0010
0001
0100
0001
1000
0010
1000
0100
,
0010
0001
0100
0010
0100
0001
0010
0100
,
1000
0001
0010
0100
1000
0010
1000
0001
0100
0010
1000
0100
1000
0001
0010
0001
,
0100
0001
1000
0100
0010
0100
1000
0010
,
1000
0001
0100
0010
1000
0100
1000
0001
0010
0100
1000
0010
1000
0001
0100
0001
,
0010
0000
0100
0000
1000
0000
0010
0000
0100
0010
1000
0100
1000
0001
0100
0010
,
1000
0001
0010
0100
1000
0001
1000
0010
0100
0001
0010
0001
1000
0100
1000
0010
,
0100
0001
0010
0100
1000
0010
0100
0001
,
1000
0010
0100
0001
0010
0001
1000
0100
0010
0001
0100
0001
1000
0010
1000
0100
,
0010
0001
0100
0010
0100
0001
0010
0100
,
1000
0001
0010
0100
1000
0010
1000
0001
0100
0010
1000
0100
1000
0001
0010
0001
,
0100
0010
1000
0100
0010
0100
1000
0001
,
1000
0001
0100
0010
1000
0100
1000
0001
0010
0100
1000
0010
1000
0001
0100
0001
,
1000
0000
0100
0000
0010
0000
0100
0000
1000
0001
0100
0001
0010
0100
1000
0010
,
0200
0000
0000
0000
0000
0300
0000
0000
0000
0000
0000
0000
0000
0000
0000
0000
;
