#TITLE:MAX 300 Super-Max-Me Mix;
#SUBTITLE:;
#ARTIST:Jondi & Spesh;
#TITLETRANSLIT:;
#SUBTITLETRANSLIT:;
#ARTISTTRANSLIT:;
#CREDIT:;
#BANNER:MAX 300 Super-Max-Me Mix.png;
#BACKGROUND:MAX 300 Super-Max-Me Mix-bg.png;
#LYRICSPATH:;
#CDTITLE:rr-ddr-v2.PNG;
#MUSIC:MAX 300 Super-Max-Me Mix.mp3;
#OFFSET:-1.055;
#SAMPLESTART:37.850;
#SAMPLELENGTH:12.000;
#SELECTABLE:YES;
#DISPLAYBPM:*;
#BPMS:0.000=300.000,124.000=320.000,252.000=140.000,268.000=300.000,396.000=320.000;
#STOPS:;
#BGCHANGES:;
// cache tags:
#FIRSTBEAT:28.000;
#LASTBEAT:519.500;
#SONGFILENAME:Songs/new cc/MAX 300 Super-Max-Me Mix/MAX 300 Super-Max-Me Mix.sm;
#HASMUSIC:1;
#HASBANNER:1;
#MUSICLENGTH:108.094;
// end cache tags

//---------------dance-single - ----------------
#NOTES:
     dance-single:
     :
     Challenge:
     10:
     0.978,1.000,0.620,0.583,0.000,610.000,67.000,63.000,0.000,0.000:
0000
0000
0000
0000
,
0000
0000
0000
0000
,
0000
0000
0000
0000
,
0000
0000
0000
0000
,
0000
0000
0000
0000
,
0000
0000
0000
0000
,
0000
0000
0000
0000
,
1000
0000
0100
1000
0001
0000
0100
0000
,
0001
0100
1100
0000
,
0100
0000
0001
0100
0001
0000
1000
0000
,
0100
0001
0110
0000
,
0001
0000
0100
0001
1000
0000
0100
0000
,
1000
0100
0101
0000
,
0100
0000
1000
0100
1000
0000
0001
0000
,
0100
1000
0110
0000
,
0001
0000
0020
0000
0000
0130
0000
0000
,
2000
0000
0000
3100
0000
0000
0001
0000
,
1000
0000
0200
0000
0000
0310
0000
0000
,
2000
0000
0000
3100
0000
0000
0010
0000
,
0010
0000
1001
0000
0000
1100
0000
0000
,
0101
0000
0000
1100
0000
0000
1001
0000
,
0100
0000
0110
0000
0000
0011
0000
0000
,
0101
0000
0000
0011
0000
0000
0110
0000
,
1000
0000
0020
0000
0000
0130
0000
0000
,
0002
0000
0000
0103
0000
0000
1000
0000
,
0001
0000
0200
0000
0000
0310
0000
0000
,
0002
0000
0000
0103
0000
0000
0010
0000
,
0010
0000
1001
0000
0000
0101
0000
0000
,
1100
0000
0000
0101
0000
0000
1001
0000
,
0100
0000
0110
0000
0000
1010
0000
0000
,
0010
0000
0000
0010
0000
0000
0010
0000
,
0001
1000
0001
0100
0010
1000
0100
1000
,
0001
0100
0001
0000
,
1000
0001
1000
0010
0100
0001
0010
0001
,
1000
0010
1000
0000
,
1000
0001
1000
0100
0010
0001
0100
0001
,
1000
0100
1000
0000
,
0001
1000
0001
0010
0100
1000
0010
1000
,
0001
0000
0010
0000
0001
0000
0000
0010
,
0001
0000
0000
0001
0100
0000
0000
0100
,
1000
0000
0000
1000
0010
0000
0000
0010
,
1000
0000
0000
1000
0100
0000
0000
0100
,
0001
0000
0000
0001
0010
0000
0000
0010
,
0001
0000
0000
1000
0001
0000
0000
0010
,
0001
0000
0000
1000
0010
0000
0000
0100
,
0001
0000
0000
1000
0010
0000
0000
1000
,
0001
0000
0000
0001
0100
0000
0000
0000
,
0101
0101
1100
1100
,
0101
0101
1100
1100
,
1010
0101
0011
1100
,
1001
0110
0101
1100
,
0001
0010
0001
0000
1000
0100
1000
0000
,
0001
1000
0001
0000
1000
0001
1000
0000
,
1010
0101
0011
1100
,
1001
0110
0101
1100
,
1000
1000
0001
0001
,
1000
1000
0001
0001
,
0011
1100
1010
0101
,
1001
0110
1100
0101
,
1000
0100
1000
0000
0001
0100
0001
0000
,
1000
0001
1000
0000
0001
1000
0001
0000
,
0011
1100
0011
1100
,
1001
0101
1100
0101
,
0010
1000
0001
0100
0010
0001
1000
0100
,
1000
0001
0010
0100
0001
1000
0100
0010
,
0001
0010
0100
1000
0100
0010
0100
0001
,
0100
1000
0100
1000
0001
0100
0001
0100
,
1000
0000
1000
0000
0010
0100
0000
0010
,
0200
0000
0301
0000
0010
0100
0000
0010
,
0200
0000
0301
0000
0100
0010
0000
1000
,
0020
0100
0130
0000
,
0001
0000
0001
0000
0100
0010
0000
0100
,
0020
0000
1030
0000
0100
0010
0000
0100
,
0020
0000
1030
0000
0010
0100
0000
0001
,
0200
0010
0310
0000
,
0001
0000
0001
0000
1000
0100
1000
0000
,
0001
0100
0001
1000
0100
1000
0001
0001
,
1000
0000
1000
0000
0001
1000
0001
0000
,
0100
0010
0100
0001
0100
1000
0100
0001
,
1000
0000
1000
0000
0001
0100
0001
0000
,
1000
0100
1000
0001
0100
0001
1000
1000
,
0001
0000
0001
0000
1000
0001
1000
0000
,
0100
0010
0100
1000
0100
0001
0100
0001
,
2000
3002
0203
2300
,
3002
0203
0320
0230
,
2300
3200
0320
0032
,
2003
3002
0203
0320
,
0032
2003
3200
0302
,
2003
3200
0320
0230
,
0302
0203
0320
2030
,
3002
2003
3200
0320
,
0230
0000
0000
0000
0302
0000
0000
1003
,
0200
2300
3002
0003
,
2000
0000
0000
0000
3200
0000
0000
1000
,
0302
0000
2003
0000
3200
0000
0000
0300
,
0002
0000
0000
0000
0203
0000
0000
0001
,
2300
3002
0203
0300
,
1100
0000
0000
0101
0000
0000
1100
0000
,
0000
0101
0000
0000
1001
0000
0000
0000
,
0100
1000
0100
0000
0010
0001
0010
0000
,
0001
0100
0001
0000
1000
0100
1000
0000
,
0001
1000
0100
0000
1000
0100
0010
0000
,
0100
0001
0100
0000
0001
1000
0100
0000
,
0100
0001
0100
0000
0010
1000
0010
0000
,
1000
0100
1000
0000
0001
0100
0001
0000
,
1000
0001
0100
0000
0001
0100
0010
0000
,
0100
1000
0100
0000
1000
0001
0100
0000
,
0100
0001
0100
0000
0010
1000
0010
0000
,
1000
0100
1000
0000
0001
0100
0001
0000
,
1000
0001
1000
0000
0100
0010
0100
0000
,
1000
0001
0100
0000
0001
1000
0100
0000
,
1000
0100
0001
0100
,
1000
0100
0001
0100
,
1000
0001
0100
0001
1000
0010
0100
0001
,
0010
0001
1000
0001
0100
0001
1000
0000
,
0001
0100
0010
1000
0001
0100
0010
1000
,
0001
0100
0010
1000
0001
0100
0010
1000
,
0001
0010
0100
1000
0001
0010
0100
1000
,
0001
0010
0100
1000
0001
0010
0100
1000
,
0001
0010
0001
1000
0001
0010
0001
1000
,
0001
0010
0001
1000
0001
0010
0001
1000
,
0001
1000
0100
0001
0100
0001
0100
0000
,
1000
0001
0100
1000
0100
1000
0100
0000
,
0001
0100
0010
1000
0001
0100
0010
1000
,
0001
0100
0010
1000
0001
0100
0010
1000
,
0001
0010
0100
1000
0001
0010
0100
1000
,
0001
0010
0100
1000
0001
0010
0100
1000
,
0001
0010
0001
1000
0001
0010
0001
1000
,
0001
0010
0001
1000
0001
0010
0001
1000
,
0100
0000
0000
2002
0000
0000
0000
3003
;

//---------------dance-single - RR EDIT----------------
#NOTES:
     dance-single:
     RR EDIT:
     Hard:
     12:
     1.000,1.000,0.823,0.546,0.000,667.000,89.000,59.000,0.000,0.000:
0000
0000
0000
0000
,
0000
0000
0000
0000
,
0000
0000
0000
0000
,
0000
0000
0000
0000
,
0000
0000
0000
0000
,
0000
0000
0000
0000
,
0000
0000
0000
0000
,
1001
0100
0001
0100
,
0001
0100
0100
0100
,
0101
0001
0010
0100
,
1000
0001
0010
0100
,
0011
0100
1000
0100
,
1000
0100
0010
0001
,
1100
0010
1000
0100
,
0010
0001
0110
0000
,
0001
0000
0021
0000
0000
0230
0000
0000
,
2300
0000
0000
3200
0000
0300
1001
0000
,
0110
0000
0210
0000
0000
0320
0000
0000
,
2030
0000
0000
3200
0000
0300
0110
0000
,
1010
0000
1002
0000
0000
2003
0000
0000
,
3200
0000
0000
0320
0000
0030
0011
0000
,
0110
0000
1200
0000
0000
0320
0000
0000
,
0032
0000
0000
0023
0000
0030
0110
0000
,
1100
0000
0021
0000
0000
0230
0000
0000
,
0302
0000
0000
0203
0000
0300
1100
0000
,
0101
0000
1200
0000
0000
0320
0000
0000
,
0032
0000
0000
0203
0000
0300
0110
0000
,
1010
0000
1002
0000
0000
0203
0000
0000
,
0320
0000
0000
2030
0000
3000
1001
0000
,
0101
0000
0210
0000
0000
0320
0000
0000
,
0032
0000
0000
0023
0000
0000
0230
0000
,
0301
1000
0001
0100
0010
1000
0100
1000
,
0001
1000
0100
0010
0001
1000
0001
0000
,
1000
0001
1000
0010
0100
0001
0010
0001
,
1000
0100
0010
0100
1000
0001
0010
0000
,
1000
0001
1000
0100
0010
0001
0100
0001
,
1000
0010
0100
0001
1000
0100
0010
0000
,
0001
1000
0001
0010
0100
1000
0010
1000
,
0001
0100
0010
1000
0001
0100
0001
0000
,
0001
0010
0001
0010
0100
0010
0100
1000
,
0100
1000
0100
0010
0100
0010
0001
0010
,
0001
1000
0100
1000
0100
0010
0100
0010
,
0001
0010
0001
0100
0010
0100
0010
1000
,
0010
1000
0010
1000
0001
1000
0001
0010
,
0001
0010
0001
0100
0010
0100
0010
1000
,
0001
1000
0001
0100
0010
1000
0100
0010
,
0100
1000
0100
0010
0001
0000
0000
0000
,
0101
0100
1100
0100
,
0101
0001
0011
0010
,
1010
1000
1100
0100
,
0110
0010
0110
0100
,
0101
0001
0011
0010
,
0110
0100
1100
1000
,
1010
1001
0011
0110
,
1100
0110
0011
0110
,
1100
1000
1100
0100
,
0110
0010
0011
0001
,
0101
0100
1100
0100
,
0101
0110
1100
0101
,
1000
0100
1000
0100
0010
0100
0010
0001
,
0010
0001
1000
0001
1000
0001
1000
0100
,
1000
0100
0010
0001
0010
0001
0100
0010
,
0100
0010
1000
0100
0010
0001
0100
0010
,
1000
1000
0001
0100
0010
0001
1000
0100
,
1000
0001
0010
0100
0001
1000
0100
0010
,
0001
0010
0100
1000
0100
0010
0100
0001
,
0100
1000
0100
1000
0001
0100
0001
0100
,
1000
0000
1000
0000
0010
0100
0000
0010
,
0200
0000
0301
0000
0010
0100
0000
0010
,
0200
0000
0301
0000
0100
0010
0000
1000
,
0020
0100
0130
0000
,
0001
0000
0001
0000
0100
0010
0000
0100
,
0020
0000
1030
0000
0100
0010
0000
0100
,
0020
0000
1030
0000
0010
0100
0000
0001
,
0200
0010
0310
0000
,
0001
1000
0001
0100
0010
0100
0010
1000
,
0001
0100
0001
1000
0100
1000
0001
0100
,
0010
1000
0100
0010
0001
1000
0001
0010
,
0001
0010
0100
1000
0100
1000
0100
0000
,
0001
0010
0100
1000
0001
0100
0001
1000
,
0001
0100
0001
0010
0100
1000
0100
1000
,
0010
0100
0001
0010
0001
0100
0010
1000
,
0100
0010
0100
0010
1000
0001
0100
0001
,
2010
0001
0100
0001
,
0100
0010
0001
0010
,
0100
0010
0100
0001
,
0001
0000
0001
3000
1020
0000
0001
0030
,
1002
1000
0100
0010
,
1000
0100
0010
0100
,
0010
0100
0010
1000
,
0010
0000
1000
0000
0100
0000
0010
0003
,
0201
0000
0000
0000
0302
0000
0000
1003
,
0200
0000
2300
3000
1002
0000
0003
0000
,
2000
0000
0000
3000
0201
0000
0000
1000
,
0302
0000
2003
3000
0201
0000
0000
0300
,
0002
0000
0000
0003
0201
0000
0000
0001
,
2300
0000
3002
0003
0201
0000
0300
0000
,
1100
0000
0000
0110
0000
0000
1100
0000
,
0000
0011
0000
0000
0110
0000
0000
0000
,
1000
0100
0010
0000
0001
0010
0100
0000
,
1000
0100
0001
0000
0001
0100
1000
0000
,
0001
0010
1000
0000
1000
0010
0001
0000
,
1000
0001
0100
0000
0100
0001
1000
0000
,
1100
0100
0110
0010
,
0011
0010
1010
1000
,
1100
0100
0101
0001
,
1001
0100
1100
0001
,
0001
0100
0001
0000
0001
1000
0001
0000
,
0001
0010
0001
0000
0001
0100
0001
0000
,
0001
1000
0001
0000
0001
0100
0001
0000
,
1000
0001
1000
0000
1000
0010
1000
0000
,
1100
0110
1001
1100
,
0011
0110
0011
1100
,
1000
0001
0100
0001
1000
0010
0100
0001
,
0010
0001
1000
0001
0100
0001
1000
0000
,
0001
1000
0010
1000
0010
0100
0001
0010
,
0100
1000
0100
1000
0001
0100
0010
1000
,
0001
0010
0100
1000
0001
0100
0010
0100
,
1000
0010
0100
0001
1000
0100
0010
0001
,
0100
0010
0100
1000
0100
0001
0100
1000
,
0100
0010
0100
1000
0100
0001
0100
1000
,
0001
1000
0100
0001
1000
0001
0100
0001
,
1000
0001
0100
1000
0001
1000
0100
1000
,
0001
0010
0100
1000
0100
0010
0001
1000
,
0001
0010
0100
1000
0100
0010
0001
1000
,
0001
0010
1000
0010
0001
0010
1000
0010
,
0001
0010
1000
0010
0001
0010
0100
1000
,
0001
0010
0001
1000
0001
0010
0001
1000
,
0001
0010
0001
1000
0001
0010
0001
1000
,
1100
0000
0000
2002
0000
0000
0000
3003
;
