#TITLE:Toliet Story 1;
#SUBTITLE:;
#ARTIST:Ghidorah;
#TITLETRANSLIT:;
#SUBTITLETRANSLIT:;
#ARTISTTRANSLIT:;
#CREDIT:owenviau1;
#BANNER:;
#BACKGROUND:;
#LYRICSPATH:;
#CDTITLE:;
#MUSIC:Ghidorah - Toilet Story 1.mp3;
#OFFSET:-0.128;
#SAMPLESTART:161.756;
#SAMPLELENGTH:29.999;
#SELECTABLE:YES;
#BPMS:0.000=137.144,220.000=128.043,221.000=113.851,222.000=97.372,223.000=78.198,224.000=68.572,264.000=137.144;
#STOPS:;
#BGCHANGES:;
// cache tags:
#FIRSTBEAT:0.000;
#LASTBEAT:469.500;
#SONGFILENAME:Songs/owenviau1 Simfiles 7/Toilet Story 1 - [owenviau1] v1.0.1/Toilet Story 1.sm;
#HASMUSIC:1;
#HASBANNER:0;
#MUSICLENGTH:225.149;
// end cache tags

//---------------dance-single - 14.68 (15-) (owenvia----------------
#NOTES:
     dance-single:
     14.68 (15-) (owenvia:
     Hard:
     15:
     1.000,1.000,0.155,0.324,1.000,1877.000,35.000,73.000,20.000,4.000:
1000
0100
0010
0001
0100
0010
1000
0001
0010
0001
0100
0010
1000
0001
0010
0100
,
1000
0010
0100
0001
0100
0010
1000
0001
1000
0010
0100
0001
1000
0100
0010
0001
,
0100
0010
1000
0001
0010
0001
0100
0010
1000
0001
0010
0100
1000
0010
0100
0001
,
0100
0010
1000
0001
1000
0100
0010
0001
0100
0010
0100
0001
1000
0100
0010
0001
,
1000
0100
1000
0010
0100
0010
1000
0001
0100
0001
1000
0010
0100
0001
1000
0010
,
1000
0100
0010
0001
0100
0010
1000
0001
0100
0001
1000
0010
0100
0001
1000
0100
,
1000
0001
0010
0001
0100
0010
1000
0001
0010
0100
1000
0010
0100
0001
1000
0100
,
1000
0010
0100
0001
0010
0001
1000
0010
0100
0001
1000
0100
0010
0001
0100
0010
,
1000
0100
1000
0001
0010
0100
1000
0010
0100
0001
1000
0100
0010
0001
1000
0010
,
1000
0001
0100
0010
0100
0001
1000
0100
1000
0010
0100
0001
1000
0100
0010
0001
,
1000
0010
0100
0010
1000
0001
0010
0100
1000
0010
0100
0001
0100
0010
1000
0001
,
1000
0010
0100
0001
0010
0100
1000
0010
0100
0001
1000
0100
0010
0001
0100
0010
,
1000
0001
0010
0100
1000
0010
0100
0001
0010
0001
1000
0010
0100
0010
1000
0001
,
0010
0100
1000
0010
0100
0001
1000
0100
1000
0010
0100
0001
1000
0100
0010
0001
,
0100
0010
1000
0001
0100
0001
1000
0010
0100
0010
1000
0001
0010
0001
0100
0010
,
1000
0001
0010
0100
1000
0010
0100
0001
1000
0100
0010
0001
0100
0010
0100
0001
,
1000
0100
1000
0001
0010
0100
1000
0010
0100
0001
1000
0100
0010
0001
1000
0010
,
1000
0001
0100
0010
0100
0001
1000
0100
1000
0010
0100
0001
1000
0100
0010
0001
,
1000
0010
0100
0010
1000
0001
0010
0100
1000
0010
0100
0001
0100
0010
1000
0001
,
1000
0010
0100
0001
0010
0100
1000
0010
0100
0001
1000
0100
0010
0001
0100
0010
,
1000
0001
0010
0100
1000
0010
0100
0001
0010
0001
1000
0010
0100
0010
1000
0001
,
0010
0100
1000
0010
0100
0001
1000
0100
1000
0010
0100
0001
1000
0100
0010
0001
,
0100
0010
1000
0001
0100
0001
1000
0010
0100
0010
1000
0001
0010
0001
0100
0010
,
1000
0001
0010
0100
1000
0010
0100
0001
1000
0100
0010
0001
0100
0010
0100
0001
,
1000
0010
0100
0001
1000
0100
0010
0001
1000
0000
0010
0000
0100
0000
0001
0000
1000
0000
0100
0010
0001
0000
1000
0000
0010
0100
0001
0000
1000
0000
0010
0000
,
0100
0000
0010
0000
1000
0000
0001
0000
0100
0000
0010
0000
1000
0100
0010
0001
1000
0000
0010
0000
0100
0000
0001
0000
0010
0000
0001
0000
0100
0000
0010
0000
,
1000
0001
0010
0100
1000
0010
0100
0001
1000
0010
1000
0100
0010
0001
0100
0010
,
1000
0001
0010
0100
1000
0010
0100
0001
1000
0100
1000
0010
0100
0001
1000
0100
0010
0001
0100
0010
0100
0001
1000
0010
0100
0001
0100
0010
1000
0000
0001
0000
,
0100
0010
0100
0001
1000
0100
0010
0001
1000
0000
0010
0000
0100
0000
0001
0000
1000
0000
0100
0010
0001
0000
1000
0000
0010
0100
0001
0000
1000
0000
0010
0000
,
0100
0000
0010
0000
1000
0000
0001
0000
0100
0000
0001
0000
0010
0100
1000
0001
0100
0000
0010
0000
1000
0000
0001
0000
0010
0000
0001
0000
0100
0000
0010
0000
,
1000
0001
0010
0100
1000
0010
0100
0001
1000
0010
1000
0100
0010
0001
0100
0010
,
1000
0001
0010
0100
1000
0010
0100
0001
1000
0100
1000
0010
0100
0001
1000
0100
0010
0001
0100
0010
0100
0001
1000
0010
0100
0001
0100
0010
1000
0000
0001
0000
,
1000
0100
1000
0010
0100
0010
1000
0001
0100
0001
1000
0010
0100
0001
1000
0010
,
1000
0100
0010
0001
0100
0010
1000
0001
0100
0001
1000
0010
0100
0001
1000
0100
,
1000
0001
0010
0001
0100
0010
1000
0001
0010
0100
1000
0010
0100
0001
1000
0100
,
1000
0010
0100
0001
0010
0001
1000
0010
0100
0001
1000
0100
0010
0001
0100
0010
,
1000
0100
1000
0001
0010
0100
1000
0010
0100
0001
1000
0100
0010
0001
1000
0010
,
1000
0001
0100
0010
0100
0001
1000
0100
1000
0010
0100
0001
1000
0100
0010
0001
,
0100
0010
0100
0001
1000
0001
0010
0100
1000
0010
0100
0001
0100
0010
1000
0001
,
1000
0010
0100
0001
0010
0100
1000
0010
0100
0001
1000
0100
0010
0001
0100
0010
,
1000
0001
0010
0100
1000
0010
0100
0001
0010
0001
1000
0010
0100
0010
1000
0001
,
0010
0100
1000
0010
0100
0001
1000
0100
1000
0010
0100
0001
1000
0100
0010
0001
,
0100
0010
1000
0001
0100
0001
1000
0010
0100
0010
1000
0001
0010
0001
0100
0010
,
1000
0001
0010
0100
1000
0010
0100
0001
1000
0100
0010
0001
0100
0010
0100
0001
,
1000
0100
1000
0010
0100
0010
1000
0001
0100
0001
1000
0010
0100
0001
1000
0010
,
1000
0100
0010
0001
0100
0010
1000
0001
0100
0001
1000
0010
0100
0001
1000
0100
,
1000
0001
0010
0001
0100
0010
1000
0001
0010
0100
1000
0010
0100
0001
1000
0100
,
0010
0001
1000
0010
0100
0010
1000
0001
0010
0000
0100
0000
1000
0000
0010
0000
0100
0000
0001
0000
1000
0000
0100
0000
0010
0000
0001
0000
0100
0000
0010
0000
,
1000
0100
1000
0001
0010
0100
1000
0010
0100
0001
1000
0100
0010
0001
1000
0010
,
1000
0001
0100
0010
0100
0001
1000
0100
1000
0010
0100
0001
1000
0100
0010
0001
,
1000
0010
0100
0010
1000
0001
0010
0100
1000
0010
0100
0001
0100
0010
1000
0001
,
1000
0010
0100
0001
0010
0100
1000
0010
0100
0001
1000
0100
0010
0001
0100
0010
,
1000
0001
0010
0100
1000
0010
0100
0001
0010
0001
1000
0010
0100
0010
1000
0001
,
0010
0100
1000
0010
0100
0001
1000
0100
1000
0010
0100
0001
1000
0100
0010
0001
,
0100
0010
1000
0001
0100
0001
1000
0010
0100
0010
1000
0001
0010
0001
0100
0010
,
1000
0001
0010
0100
1000
0010
0100
0001
1000
0100
0010
0001
0100
0010
0100
0001
,
1000
M000
0010
0100
0011
0001
1000
0010
0110
0M00
1000
0010
0110
0M00
0001
1000
,
1010
00M0
1000
0100
0011
0001
1000
0010
0110
00M0
1000
M000
1001
0000
0001
000M
,
0011
0000
0001
1000
0110
00M0
1000
0001
0011
000M
1000
0001
1001
1000
0010
0100
,
0011
000M
1000
0010
1010
0001
0010
0M00
0110
0100
1000
M000
1001
0001
0100
0010
,
1010
M000
0002
0023
0230
2300
3020
0130
0002
0000
1003
0010
0210
0000
0301
2000
,
3200
0320
0032
0103
0110
1000
0100
0010
0011
000M
2000
3020
0230
0000
0302
2003
,
3200
0000
0310
0001
1001
M000
2000
3010
0120
0M00
1030
0100
0011
0002
2003
3020
,
0230
0000
0301
1000
1100
0010
0200
00M0
0302
1003
1010
00M0
0100
0001
1000
0100
,
0110
0000
0002
0003
0200
0300
0020
0030
2000
3000
0001
0000
0102
0000
2003
0000
3200
0000
0320
0030
0002
0003
2000
3000
0020
0030
0M00
0000
2000
3000
0020
0030
,
0120
0030
2000
3000
0002
0003
0200
0300
0002
0003
2000
3000
0020
0030
0200
0300
0002
0003
2000
0000
3200
0000
0320
0000
0032
0000
M003
0000
0200
0300
0020
0030
,
2010
3000
0002
0000
0023
0000
0230
0000
2301
0000
3010
0000
0100
0000
0020
0000
,
1032
2003
3020
0130
0011
0100
2000
3020
,
0231
1300
0002
0023
2130
3200
2300
3010
,
0101
1000
0100
0010
0201
0302
1003
0020
,
1030
0001
0010
0100
1000
0010
0100
0001
0010
0001
1000
0010
0100
0010
1000
0001
,
0010
0100
1000
0010
0100
0001
1000
0100
1000
0010
0100
0001
1000
0100
0010
0001
,
0100
0010
1000
0001
0100
0001
1000
0010
0100
0010
1000
0001
0010
0001
0100
0010
,
1000
0001
0010
0100
1000
0010
0100
0001
1000
0100
0010
0001
0100
0010
0100
0001
,
1000
0100
1000
0010
0100
0010
1000
0001
0100
0001
1000
0010
0100
0001
1000
0010
,
1000
0100
0010
0001
0100
0010
1000
0001
0100
0001
1000
0010
0100
0001
1000
0100
,
1000
0001
0010
0001
0100
0010
1000
0001
0010
0100
1000
0010
1000
0001
0010
0100
,
1000
0010
0100
0001
0010
0001
1000
0010
0100
0010
1000
0001
0010
0100
1000
0010
,
0100
0001
1000
0100
1000
0010
0100
0001
1000
0100
0010
0001
0100
0010
1000
0001
,
0100
0001
1000
0010
0100
0010
1000
0001
0010
0001
0100
0010
1000
0001
0010
0100
,
1000
0010
0100
0001
1000
0100
0010
0001
0100
0010
0100
0001
1000
0100
1000
0010
,
0100
0000
0010
0000
1000
0000
0001
0000
0100
0000
0001
0000
1000
0000
0010
0000
0100
0000
0000
0000
0001
0010
0100
1000
0001
0000
0000
0000
0100
0000
0000
0000
,
0010
0100
0001
1000
0010
0100
0001
1000
0010
1000
0100
0010
0001
0100
0010
1000
,
0001
0100
0001
1000
0010
0100
0001
1000
0100
1000
0001
0010
0001
0100
0010
1000
,
0001
0010
0100
1000
0010
0100
0001
1000
0100
1000
0010
0100
0001
0010
0001
1000
,
0010
0100
0001
1000
0100
0010
0001
0100
0010
1000
0100
1000
0001
0010
0100
1000
,
0010
0100
0001
1000
0100
0010
0001
1000
0010
1000
0001
0100
0010
0100
0001
1000
,
0100
1000
0010
0100
0001
1000
0100
0010
0001
0100
0010
0100
0001
1000
0001
0010
,
0100
1000
0010
0100
0001
0100
0010
1000
0001
1000
0010
0100
0001
0010
0100
1000
,
0010
0100
0001
1000
0100
0010
0001
0100
0010
1000
0001
0010
0100
1000
0010
0100
,
0001
0010
0001
1000
0010
0100
0010
1000
0001
0010
0100
1000
0010
0100
0001
1000
,
0100
1000
0010
0100
0001
1000
0100
0010
0001
0100
0010
1000
0001
0100
0001
1000
,
0010
0100
0010
1000
0001
0010
0001
0100
0010
0100
0001
1000
0010
0100
0001
1000
,
0010
1000
0100
0010
0001
0100
0010
1000
0001
0100
0001
1000
0010
0100
0001
1000
,
0100
1000
0001
0010
0001
0100
0010
1000
0001
0010
0100
1000
0010
0100
0001
1000
,
0100
1000
0010
0100
0001
0010
0001
1000
0010
0100
0001
1000
0100
0010
0001
0100
,
0010
1000
0100
1000
0001
0010
0100
1000
0010
0100
0001
1000
0100
0010
0001
1000
,
0010
1000
0001
0100
0010
0100
0001
1000
0100
1000
0010
0100
0001
1000
0100
0010
,
0001
0100
0010
0100
0001
1000
0001
0010
0100
1000
0010
0100
0001
0100
0010
1000
,
0001
1000
0010
0100
0001
0010
0100
1000
0010
0100
0001
1000
0100
0010
0001
0100
,
0010
1000
0001
0010
0100
1000
0010
0100
0001
0010
0001
1000
0010
0100
0010
1000
,
0001
0010
0100
1000
0010
0100
0001
1000
0100
1000
0010
0100
0001
1000
0100
0010
,
0001
0100
0010
1000
0001
0100
0001
1000
0010
0100
0010
1000
0001
0010
0001
1000
,
0100
0010
0001
1000
0010
0100
0001
1000
0010
1000
0100
0010
0001
0100
0010
1000
,
0001
0100
0001
1000
0010
0100
0001
1000
0100
1000
0001
0010
0001
0100
0010
1000
,
0001
0010
0100
1000
0010
0100
0001
1000
0010
1000
0100
0010
0001
0100
0010
1000
0001
0010
0100
1000
0001
0100
0010
1000
0001
0000
0100
0000
0001
0000
1000
0000
,
0010
0100
0001
1000
0100
0010
0001
0100
0010
1000
0100
1000
0001
0010
0100
1000
,
0010
0100
0001
1000
0100
0010
0001
1000
0010
1000
0001
0100
0010
0100
0001
1000
,
0100
1000
0010
0100
0001
1000
0100
0010
0001
0100
0010
0100
0001
1000
0001
0010
,
0100
1000
0010
0100
0001
0100
0010
1000
0001
1000
0010
0100
0001
0010
0100
1000
,
0010
0100
0001
1000
0100
0010
0001
0100
0010
1000
0001
0010
0100
1000
0010
0100
,
0001
0010
0001
1000
0010
0100
0010
1000
0001
0010
0100
1000
0010
0100
0001
1000
,
0100
1000
0010
0100
0001
1000
0100
0010
0001
0100
0010
1000
0001
0100
0001
1000
,
0010
0100
0010
1000
0001
0010
0001
0100
0010
0100
0001
1000
0010
0100
0001
1000
,
0100
0010
0001
0100
0010
1000
0100
1000
0001
0010
0100
1000
0010
0100
0001
1000
,
0100
0010
0001
1000
0010
1000
0001
0100
0010
0100
0001
1000
0100
1000
0010
0100
,
0001
1000
0100
0010
0001
0100
0010
0100
0001
0010
0100
1000
0010
0100
0001
1000
,
0001
0000
0010
0100
1000
0000
0010
0000
0000
0000
0000
0000
0000
0000
0000
0000
,
0000
0000
0000
0000
;

//---------------dance-single - 18.90 (19-) (owenvia----------------
#NOTES:
     dance-single:
     18.90 (19-) (owenvia:
     Challenge:
     19:
     1.000,1.000,0.155,0.329,1.000,2532.000,35.000,74.000,19.000,4.000:
1000
0100
0010
0001
0100
0010
1000
0001
0010
0001
0100
0010
1000
0001
0010
0100
,
1000
0010
0100
0001
0100
0010
1000
0001
1000
0010
0100
0001
1000
0100
0010
0001
,
0100
0010
1000
0001
0010
0001
0100
0010
1000
0001
0010
0100
1000
0010
0100
0001
,
0100
0010
1000
0001
1000
0100
0010
0001
0100
0010
0100
0001
1000
0100
0010
0001
,
1000
0010
0100
0001
1000
0100
1000
0010
0100
0001
1000
0100
0010
0001
0100
0010
0100
0001
1000
0010
0100
0001
1000
0100
,
0010
0001
0100
0010
1000
0001
0010
0100
1000
0001
0010
0001
0100
0010
1000
0001
0100
0001
1000
0010
0100
0010
1000
0001
,
0100
0001
0010
0100
1000
0010
0100
0001
1000
0010
1000
0100
0010
0001
0100
0010
0100
0001
1000
0010
0100
0001
0100
0010
,
1000
0010
0100
0001
0010
0001
1000
0010
0100
0001
1000
0100
0010
0001
0100
0010
,
1000
0001
0010
0001
0100
0010
1000
0001
0010
0100
1000
0010
0100
0001
1000
0010
1000
0100
0010
0001
0100
0010
0100
0001
,
1000
0010
0100
0010
1000
0001
0010
0100
1000
0010
0100
0001
1000
0010
1000
0100
0010
0001
0100
0010
1000
0001
0010
0100
,
1000
0001
0010
0001
1000
0010
0100
0010
1000
0001
0100
0001
0010
0100
1000
0010
0100
0001
1000
0100
0010
0001
0100
0010
,
1000
0001
0100
0001
0010
0100
1000
0010
0100
0001
1000
0100
0010
0001
0100
0010
,
1000
0001
0010
0001
0100
0010
1000
0001
0010
0100
1000
0010
0100
0001
1000
0010
1000
0001
0100
0010
0100
0001
1000
0010
,
1000
0100
0010
0001
0100
0010
1000
0001
0010
0100
1000
0001
0010
0001
0100
0010
1000
0001
0010
0100
1000
0010
0100
0001
,
1000
0010
1000
0100
0010
0001
0100
0010
0100
0001
1000
0001
0100
0010
0100
0001
1000
0100
1000
0010
0100
0001
1000
0100
,
1000
0000
0010
0000
0100
0000
0010
0000
1000
0000
0001
0000
0100
0000
0001
0000
0010
0000
0100
0000
1000
0000
0010
0000
0100
0000
0001
0000
1000
0000
0100
0000
0010
0000
0001
0000
0100
0000
0000
0010
0000
0000
0100
0000
0000
0001
0000
0000
,
1000
0010
0100
0001
1000
0100
1000
0010
0100
0001
1000
0100
0010
0001
0100
0010
0100
0001
1000
0010
0100
0001
1000
0100
,
0010
0001
0100
0010
1000
0001
0010
0100
1000
0001
0010
0001
0100
0010
1000
0001
0100
0001
1000
0010
0100
0010
1000
0001
,
0100
0001
0010
0100
1000
0010
0100
0001
1000
0010
1000
0100
0010
0001
0100
0010
0100
0001
1000
0010
0100
0001
0100
0010
,
1000
0010
0100
0001
1000
0100
1000
0010
0100
0001
1000
0100
0010
0001
0100
0010
0100
0001
1000
0010
0100
0001
1000
0100
,
0010
0001
0100
0010
1000
0001
0010
0100
1000
0001
0010
0001
0100
0010
1000
0001
0100
0001
1000
0010
0100
0010
1000
0001
,
0100
0001
0010
0100
1000
0010
0100
0001
1000
0010
1000
0100
0010
0001
0100
0010
0100
0001
1000
0010
0100
0001
0100
0010
,
1000
0010
0100
0001
1000
0100
1000
0010
0100
0001
1000
0100
0010
0001
0100
0010
0100
0001
1000
0010
0100
0001
1000
0100
,
0010
0001
0100
0010
1000
0001
0010
0100
1000
0001
0010
0001
0100
0010
1000
0001
0100
0001
1000
0010
0100
0010
1000
0001
,
0100
0010
0100
0001
1000
0100
0010
0001
1000
0000
0010
0000
0100
0000
0001
0000
1000
0000
0100
0010
0001
0000
1000
0000
0010
0100
0001
0000
1000
0000
0010
0000
,
0100
0000
0010
0000
1000
0000
0001
0000
0100
0000
0010
0000
1000
0100
0010
0001
1000
0000
0010
0000
0100
0000
0001
0000
0010
0000
0001
0000
0100
0000
0010
0000
,
1000
0001
0010
0100
1000
0010
0100
0001
1000
0010
1000
0100
0010
0001
0100
0010
,
1000
0001
0010
0100
1000
0010
0100
0001
1000
0100
1000
0010
0100
0001
1000
0100
0010
0001
0100
0010
0100
0001
1000
0010
0100
0001
0100
0010
1000
0000
0001
0000
,
0100
0010
0100
0001
1000
0100
0010
0001
1000
0000
0010
0000
0100
0000
0001
0000
1000
0000
0100
0010
0001
0000
1000
0000
0010
0100
0001
0000
1000
0000
0010
0000
,
0100
0000
0010
0000
1000
0000
0001
0000
0100
0000
0001
0000
0010
0100
1000
0001
0100
0000
0010
0000
1000
0000
0001
0000
0010
0000
0001
0000
0100
0000
0010
0000
,
1000
0001
0010
0100
1000
0010
0100
0001
1000
0010
1000
0100
0010
0001
0100
0010
,
1000
0001
0010
0100
1000
0010
0100
0001
1000
0100
1000
0010
0100
0001
1000
0100
0010
0001
0100
0010
0100
0001
1000
0010
0100
0001
0100
0010
1000
0000
0001
0000
,
1000
0100
0010
0001
1000
0100
1000
0010
0100
0001
1000
0100
0010
0001
0100
0010
0100
0001
1000
0010
0100
0001
1000
0100
,
0010
0001
0100
0010
1000
0001
0010
0100
1000
0001
0010
0001
0100
0010
1000
0001
0100
0001
1000
0010
0100
0010
1000
0001
,
0100
0001
0010
0100
1000
0010
0100
0001
1000
0010
1000
0100
0010
0001
0100
0010
0100
0001
1000
0010
0100
0001
0100
0010
,
1000
0000
0010
0000
0100
0000
0001
0000
1000
0000
0100
0000
1000
0000
0010
0000
0100
0000
0001
0000
1000
0000
0100
0000
0010
0000
0000
0001
0000
0000
0100
0000
0000
0010
0000
0000
1000
0000
0000
0001
0000
0000
0010
0000
0000
0100
0000
0000
,
1000
0001
0100
0010
1000
0001
0010
0100
1000
0001
0010
0001
0100
0010
1000
0001
0100
0001
1000
0010
0100
0010
1000
0001
,
0100
0001
0010
0100
1000
0010
0100
0001
1000
0010
1000
0100
0010
0001
0100
0010
0100
0001
1000
0010
0100
0001
0100
0010
,
1000
0010
0100
0001
1000
0100
1000
0010
0100
0001
1000
0100
0010
0001
0100
0010
0100
0001
1000
0010
0100
0001
1000
0100
,
0010
0000
0001
0000
0100
0000
0010
0000
1000
0000
0001
0000
0010
0000
0100
0000
1000
0000
0001
0000
0010
0000
0001
0000
0100
0000
0000
0010
0000
0000
1000
0000
0000
0001
0000
0000
0010
0000
0000
0100
0000
0000
1000
0000
0000
0001
0000
0000
,
0100
0010
0100
0001
1000
0100
1000
0010
0100
0001
1000
0100
0010
0001
0100
0010
0100
0001
1000
0010
0100
0001
1000
0100
,
0010
0001
0100
0010
1000
0001
0010
0100
1000
0001
0010
0001
0100
0010
1000
0001
0100
0001
1000
0010
0100
0010
1000
0001
,
0100
0001
0010
0100
1000
0010
0100
0001
1000
0010
1000
0100
0010
0001
0100
0010
0100
0001
1000
0010
0100
0001
0100
0010
,
1000
0010
0100
0001
1000
0100
1000
0010
0100
0001
1000
0100
0010
0001
0100
0010
0100
0001
1000
0010
0100
0001
1000
0100
,
0010
0001
0100
0010
1000
0001
0010
0100
1000
0001
0010
0001
0100
0010
1000
0001
0100
0001
1000
0010
0100
0010
1000
0001
,
0100
0001
0010
0100
1000
0010
0100
0001
1000
0010
1000
0100
0010
0001
0100
0010
0100
0001
1000
0010
0100
0001
0100
0010
,
1000
0010
0100
0001
1000
0100
1000
0010
0100
0001
1000
0100
0010
0001
0100
0010
0100
0001
1000
0010
0100
0001
1000
0100
,
0010
0000
0000
0001
0000
0000
1000
0000
0000
0010
0000
0000
0100
0000
0000
0010
0000
0000
1000
0000
0000
0001
0000
0000
0010
0000
0000
0000
0100
0000
0000
0000
1000
0000
0000
0000
0001
0000
0000
0000
0010
0000
0000
0000
0001
0000
0000
0000
0100
0000
0000
0000
0010
0000
0000
0000
1000
0000
0000
0000
0001
0000
0000
0000
0100
0000
0000
0000
0001
0000
0000
0000
1000
0000
0000
0000
0010
0000
0000
0000
0100
0000
0000
0000
0010
0000
0000
0000
1000
0000
0000
0000
0001
0000
0000
0000
,
1000
0010
0100
0001
1000
0100
1000
0010
0100
0001
1000
0100
0010
0001
0100
0010
0100
0001
1000
0010
0100
0001
1000
0100
,
0010
0001
0100
0010
1000
0001
0010
0100
1000
0001
0010
0001
0100
0010
1000
0001
0100
0001
1000
0010
0100
0010
1000
0001
,
0100
0001
0010
0100
1000
0010
0100
0001
1000
0010
1000
0100
0010
0001
0100
0010
0100
0001
1000
0010
0100
0001
0100
0010
,
1000
0000
0010
0000
0100
0000
0001
0000
1000
0000
0100
0000
1000
0000
0010
0000
0100
0000
0001
0000
1000
0000
0100
0000
0010
0000
0001
0000
0100
0000
0010
0000
0100
0000
0001
0000
1000
0000
0000
0100
0000
0000
0010
0000
0000
0001
0000
0000
,
1000
0001
0100
0010
1000
0001
0010
0100
1000
0001
0010
0001
0100
0010
1000
0001
0100
0001
1000
0010
0100
0010
1000
0001
,
0100
0001
0010
0100
1000
0010
0100
0001
1000
0010
1000
0100
0010
0001
0100
0010
0100
0001
1000
0010
0100
0001
0100
0010
,
1000
0010
0100
0001
1000
0100
1000
0010
0100
0001
1000
0100
0010
0001
0100
0010
0100
0001
1000
0010
0100
0001
1000
0100
,
0010
0000
0001
0000
0100
0000
0010
0000
1000
0000
0001
0000
0010
0000
0000
0100
0000
0000
1000
0000
0000
0010
0000
0000
0100
0000
0000
0001
0000
0000
1000
0000
0000
0100
0000
0000
1000
0000
0000
0010
0000
0000
0100
0000
0000
0001
0000
0000
,
1000
M000
0010
0100
0011
0001
1000
0010
0110
0M00
1000
0010
0110
0M00
0001
1000
,
1010
00M0
1000
0100
0011
0001
1000
0010
0110
00M0
1000
M000
1001
0000
0001
000M
,
0011
0000
0001
1000
0110
0010
1000
0001
0011
000M
1000
0001
1001
1000
0010
0100
,
0011
000M
1000
0010
1010
0001
0010
0M00
0110
0100
1000
M000
1001
0001
0100
0010
,
1010
M000
0002
0023
0230
2300
3020
0230
0302
0000
1003
0010
0210
0000
0301
2000
,
3200
0320
0032
0103
0110
1000
0100
0010
0011
000M
2000
3020
0230
0000
0302
2003
,
3200
0000
0310
0001
1001
M000
2000
3010
0120
0M00
1030
0100
0011
0002
2003
3020
,
0230
0000
0301
1000
1100
0010
0200
00M0
0302
1003
1010
00M0
0100
0001
1000
0100
,
0110
0000
0002
0003
0200
0300
0020
0030
2000
3000
0001
0000
0102
0000
2003
0000
3200
0000
0320
0030
0002
0003
2000
3000
0020
0030
0M00
0000
2000
3000
0020
0030
,
0120
0030
2000
3000
0002
0003
0200
0300
0002
0003
2000
3000
0020
0030
0200
0300
0002
0003
2000
0000
3200
0000
0320
0000
0032
0000
M003
0000
0200
0300
0020
0030
,
2010
3000
0002
0000
0023
0000
0230
0000
2301
0000
3010
0000
0100
0000
0020
0000
,
1032
2003
3020
0130
0011
0100
2000
3020
,
0231
1300
0002
0023
2130
3200
2300
3010
,
0101
1000
0100
0010
0201
0302
1003
0020
,
1030
0100
0010
0001
0100
0010
1000
0010
0100
0001
1000
0100
0010
0001
0100
0010
0100
0001
1000
0010
0100
0001
1000
0100
,
0010
0001
0100
0010
1000
0001
0010
0100
1000
0001
0010
0001
0100
0010
1000
0001
0100
0001
1000
0010
0100
0010
1000
0001
,
0100
0001
0010
0100
1000
0010
0100
0001
1000
0010
1000
0100
0010
0001
0100
0010
0100
0001
1000
0010
0100
0001
0100
0010
,
1000
0010
0100
0001
1000
0100
1000
0010
0100
0001
1000
0100
0010
0001
0100
0010
0100
0001
1000
0010
0100
0001
1000
0100
,
0010
0001
0100
0010
1000
0001
0010
0100
1000
0001
0010
0001
0100
0010
1000
0001
0100
0001
1000
0010
0100
0010
1000
0001
,
0100
0001
0010
0100
1000
0010
0100
0001
1000
0010
1000
0100
0010
0001
0100
0010
0100
0001
1000
0010
0100
0001
0100
0010
,
1000
0010
0100
0001
1000
0100
1000
0010
0100
0001
1000
0100
0010
0001
0100
0010
0100
0001
1000
0010
0100
0001
1000
0100
,
1000
0010
0100
0001
1000
0100
1000
0010
0100
0001
1000
0100
0010
0001
0100
0010
0100
0001
1000
0010
0100
0001
1000
0100
,
0010
0001
0100
0010
1000
0001
0010
0100
1000
0001
0010
0001
0100
0010
1000
0001
0100
0001
1000
0010
0100
0010
1000
0001
,
0100
0001
0010
0100
1000
0010
0100
0001
1000
0010
1000
0100
0010
0001
0100
0010
0100
0001
1000
0010
0100
0001
0100
0010
,
1000
0010
0100
0001
1000
0100
1000
0010
0100
0001
1000
0100
0010
0001
0100
0010
0100
0001
1000
0010
0100
0001
1000
0100
,
0010
0000
0000
0000
0001
0000
0000
0000
0100
0000
0000
0000
0010
0000
0000
0000
1000
0000
0000
0000
0001
0000
0000
0000
0010
0000
0000
0000
0100
0000
0000
0000
1000
0000
0000
0000
0001
0000
0000
0000
0010
0000
0000
0000
0001
0000
0000
0000
1000
0000
0000
0000
0000
0000
0000
0000
0000
0000
0000
0000
0010
0000
0000
0100
0000
0000
0001
0000
0000
1000
0000
0000
0100
0000
0000
0000
0000
0000
0000
0000
0000
0000
0000
0000
0010
0000
0000
0000
0000
0000
0000
0000
0000
0000
0000
0000
,
0001
1000
0100
0010
0001
0100
0010
0100
0001
1000
0010
0100
0001
1000
0100
0010
0001
0100
0010
1000
0001
0010
0100
1000
,
0001
0010
0001
0100
0010
1000
0001
0100
0001
1000
0010
0100
0010
1000
0001
0100
0001
0010
0100
1000
0010
0100
0001
1000
,
0010
1000
0100
0010
0001
0100
0010
0100
0001
1000
0010
0100
0001
0100
0010
1000
0010
0100
0001
1000
0100
1000
0010
0100
,
0001
1000
0100
0010
0001
0100
0010
0100
0001
1000
0010
0100
0001
1000
0100
0010
0001
0100
0010
1000
0001
0010
0100
1000
,
0001
0010
0001
0100
0010
1000
0001
0100
0001
1000
0010
0100
0010
1000
0001
0100
0001
0010
0100
1000
0010
0100
0001
1000
,
0010
1000
0100
0010
0001
0100
0010
0100
0001
1000
0010
0100
0001
0100
0010
1000
0010
0100
0001
1000
0100
1000
0010
0100
,
0001
1000
0100
0010
0001
0100
0010
0100
0001
1000
0010
0100
0001
1000
0100
1000
0010
0100
0001
1000
0100
1000
0010
0100
,
0001
1000
0100
0010
0001
0100
0010
0100
0001
1000
0010
0100
0001
1000
0100
0010
0001
0100
0010
1000
0001
0010
0100
1000
,
0001
0010
0001
0100
0010
1000
0001
0100
0001
1000
0010
0100
0010
1000
0001
0100
0001
0010
0100
1000
0010
0100
0001
1000
,
0010
1000
0100
0010
0001
0100
0010
0100
0001
1000
0010
0100
0001
0100
0010
1000
0010
0100
0001
1000
0100
1000
0010
0100
,
0001
1000
0100
0010
0001
0100
0010
0100
0001
1000
0010
0100
0001
1000
0100
0010
0001
0100
0001
1000
0100
0010
0001
0100
,
0010
0100
0001
1000
0010
0100
0001
1000
0100
0010
0001
0100
0010
1000
0001
0010
0100
1000
0001
0010
0001
0100
0010
1000
,
0001
0100
0001
1000
0010
0100
0010
1000
0001
0100
0001
0010
0100
1000
0010
0100
0001
1000
0010
1000
0100
0010
0001
0100
,
0010
0100
0001
1000
0010
0100
0001
0100
0010
1000
0010
0100
0001
1000
0100
1000
0010
0100
0001
1000
0100
0010
0001
0100
,
0010
0100
0001
1000
0010
0100
0001
1000
0100
0010
0001
0100
0010
1000
0001
0010
0100
1000
0001
0010
0001
0100
0010
1000
,
0001
0100
0001
1000
0010
0100
0010
1000
0001
0100
0001
0010
0100
1000
0010
0100
0001
1000
0010
1000
0100
0010
0001
0100
,
0010
0100
0001
1000
0010
0100
0001
0100
0010
1000
0010
0100
0001
1000
0100
1000
0010
0100
0001
1000
0100
0010
0001
0100
,
0010
0100
0001
1000
0010
0100
0001
1000
0100
1000
0010
0100
0001
1000
0100
1000
0010
0100
0001
1000
0100
0010
0001
0100
,
0010
0100
0001
1000
0010
0100
0001
1000
0100
0010
0001
0100
0010
1000
0001
0010
0100
1000
0001
0010
0001
0100
0010
1000
,
0001
0000
0100
0000
0001
0000
1000
0000
0010
0000
0100
0000
0010
0000
1000
0000
0001
0000
0100
0000
0001
0000
0010
0000
0100
0000
1000
0000
0010
0000
0100
0000
0001
0000
1000
0000
0010
0000
0000
0100
0000
0000
0001
0000
0000
1000
0000
0000
,
0100
0010
0001
1000
0010
0100
0001
0100
0010
1000
0010
0100
0001
1000
0100
1000
0010
0100
0001
1000
0100
0010
0001
0100
,
0010
0100
0001
1000
0010
0100
0001
1000
0100
0010
0001
0100
0010
1000
0001
0010
0100
1000
0001
1000
0100
0010
0001
0100
,
0010
0100
0001
1000
0010
0100
0001
1000
0100
0010
0001
0100
0010
1000
0001
0010
0100
1000
0001
0010
0001
0100
0010
1000
,
0001
0000
0000
0010
0000
0000
0100
0000
0000
1000
0000
0000
0010
0000
0000
0100
0000
0000
0001
0000
0000
1000
0000
0000
0010
0000
0000
1000
0000
0000
0100
0000
0000
0010
0000
0000
0001
0000
0000
0100
0000
0000
0010
0000
0000
1000
0000
0000
0001
0000
0000
0010
0000
0000
0100
0000
0000
1000
0000
0000
0001
0000
0000
0100
0000
0000
0010
0000
0000
1000
0000
0000
0001
0000
0000
0000
0100
0000
0000
0000
0010
0000
0000
0000
1000
0000
0000
0000
0001
0000
0000
0000
0010
0000
0000
0000
,
0100
1000
0001
0100
0010
1000
0001
0100
0010
1000
0010
0100
0001
1000
0100
1000
0010
0100
0001
1000
0100
0010
0001
0100
,
0010
0100
0001
1000
0010
0100
0001
1000
0100
0010
0001
0100
0010
1000
0001
0010
0100
1000
0001
0010
0001
0100
0010
1000
,
0001
0100
0001
1000
0010
0100
0010
1000
0001
0100
0001
0010
0100
1000
0010
0100
0001
1000
0010
1000
0100
0010
0001
0100
,
0010
0100
0001
1000
0010
0100
0001
0100
0010
1000
0010
0100
0001
1000
0100
1000
0010
0100
0001
1000
0100
0010
0001
0100
,
0010
0100
0001
1000
0010
0100
0001
1000
0100
1000
0010
0100
0001
1000
0100
1000
0010
0100
0001
1000
0100
0010
0001
0100
,
0010
0100
0001
1000
0010
0100
0001
1000
0100
0010
0001
0100
0010
1000
0001
0010
0100
1000
0001
0010
0001
0100
0010
1000
,
0001
0100
0001
1000
0010
0100
0010
1000
0001
0100
0001
0010
0100
1000
0010
0100
0001
1000
0010
1000
0100
0010
0001
0100
,
0010
0000
0100
0000
0001
0000
1000
0000
0010
0000
0100
0000
0001
0000
0100
0000
0010
0000
1000
0000
0010
0000
0100
0000
0001
0000
1000
0000
0100
0000
1000
0000
0010
0000
0100
0000
0001
0000
0000
1000
0000
0000
0010
0000
0000
1000
0000
0000
,
0100
0010
0001
0100
0010
1000
0001
0010
0100
1000
0010
0100
0001
1000
0100
1000
,
0010
0100
0001
1000
0100
0010
0001
1000
0010
1000
0100
0010
0001
0100
0010
1000
,
0001
0100
0001
1000
0010
0100
0010
1000
0001
0010
0100
1000
0010
0100
0001
1000
,
0001
0000
0010
0100
1000
0000
0010
0000
0000
0000
0000
0000
0000
0000
0000
0000
,
0000
0000
0000
0000
;
