#TITLE:AAA;
#SUBTITLE:;
#ARTIST:DJ.Amuro remixed by DM Ashura;
#TITLETRANSLIT:;
#SUBTITLETRANSLIT:;
#ARTISTTRANSLIT:;
#CREDIT:;
#BANNER:AAA-bn.png;
#BACKGROUND:AAA-bg.png;
#LYRICSPATH:;
#CDTITLE:cdtitle.png;
#MUSIC:AAA.mp3;
#OFFSET:-0.043;
#SAMPLESTART:144.023;
#SAMPLELENGTH:12.000;
#SELECTABLE:YES;
#BPMS:0.000=80.000,16.000=160.000,176.000=80.000,192.000=160.000,287.000=80.000,303.000=160.000;
#STOPS:220.000=0.380
;
#BGCHANGES:;
// cache tags:
#FIRSTBEAT:8.000;
#LASTBEAT:463.000;
#SONGFILENAME:Songs/toune 3/AAA/AAA.sm;
#HASMUSIC:1;
#HASBANNER:1;
#MUSICLENGTH:195.061;
// end cache tags

//---------------dance-single - ----------------
#NOTES:
     dance-single:
     :
     Hard:
     9:
     0.687,0.979,0.415,0.195,0.172,819.000,81.000,38.000,0.000,0.000:
0000
0000
0000
0000
,
0000
0000
0000
0000
,
1000
0100
0001
0100
1000
0100
0001
0100
,
1000
0010
0001
0010
2000
0100
3001
1001
,
1000
0100
0010
1000
0010
0001
0100
0000
,
0001
0100
0010
0001
0010
1000
0100
0000
,
1000
0010
0001
0010
0100
0010
1000
0000
,
0001
0010
1000
0010
0100
0010
0001
0000
,
1000
0100
0010
0100
1000
0001
0100
0010
,
0100
0001
0010
0100
1000
0010
0100
0001
,
1000
0100
0001
0100
0010
0100
1000
0010
,
0100
0001
1000
0200
0010
0010
0010
0310
,
1001
0001
0100
0000
0010
1000
0001
0000
,
1000
0001
0010
0010
0001
0100
0010
0000
,
1000
0100
1000
0001
0100
0001
0010
0000
,
0200
0000
2300
0010
3010
0000
1001
0000
,
1001
1000
0100
0000
0010
0001
1000
0000
,
0001
1000
0010
0010
1000
0100
0010
0000
,
0001
0100
0001
1000
0100
1000
0010
0000
,
0200
0000
0302
0010
0013
0000
1001
0000
,
0100
1010
0100
0011
,
0100
0000
0000
0000
1001
0000
0000
0000
0010
0000
0000
0000
1001
0000
0000
1000
,
0100
0000
0000
0000
0011
0000
0000
0000
0100
0000
0000
1000
0010
0000
0000
0100
,
0001
0000
0000
0001
0010
0000
0000
0010
0100
0000
0000
0100
1000
0000
0000
0000
,
0100
0011
0100
1010
,
0100
0000
0000
0000
1001
0000
0000
0000
0010
0000
0000
0000
1001
0000
0000
0001
,
0100
1010
0100
0011
,
1000
0000
0100
0000
0010
0000
0001
0000
0100
0010
0100
0010
0100
0000
0000
0000
,
0010
1000
0010
1000
0100
1000
0010
0100
,
0000
0010
0100
0010
0000
1000
1010
0000
,
0010
0001
0010
0001
0100
0001
0010
0100
,
0000
0010
0100
0010
0000
0001
0011
0000
,
0100
0001
0100
0001
0010
0001
0100
0010
,
0000
0100
0010
0100
0000
0001
0101
0000
,
0100
1000
0100
1000
0010
1000
0100
0010
,
0000
0100
0010
0100
0000
1000
1100
0000
,
0010
1000
0100
0001
0100
0010
0001
0100
,
0000
0001
0010
1000
0000
0010
0011
0000
,
0010
0001
0100
1000
0100
0010
1000
0100
,
0000
1000
0010
0001
0000
0010
1010
0000
,
0100
0001
0010
1000
0010
0100
1000
0010
,
0000
1000
0100
0001
0000
0100
1100
0000
,
0100
1000
0010
0001
0010
0100
0001
0010
,
0000
0001
0100
1000
0000
0100
0101
0000
,
1001
1000
0000
0010
0000
0100
0000
0001
0000
0010
0100
1000
0000
0010
0100
0001
,
0000
1000
0000
0010
0000
0001
0000
0010
0000
1000
0001
0100
0000
0001
1000
0100
,
0000
0001
0000
0010
0000
0100
0000
1000
0000
0010
0100
0001
0000
0010
0100
1000
,
0000
0001
0000
0010
0000
1000
0000
0010
0000
0001
1000
0100
0000
1000
0001
0100
,
0010
1000
0010
1000
0100
0001
0100
0001
,
0100
1000
0100
1000
0001
0010
0100
0010
,
0001
0100
0001
0100
0010
0001
0010
0001
,
0010
1000
0010
1000
0100
0010
0110
0000
,
0001
0100
0010
1000
0100
0010
0001
0010
,
0001
0100
0010
1000
0100
0010
0001
0100
,
0001
0010
0100
1000
0010
0100
0001
1000
,
1001
0000
0000
0000
0010
0100
0010
0100
0010
0000
0000
0000
1000
0000
0000
0000
,
1100
0000
0000
0000
0010
1000
0010
0000
0100
0000
0001
0000
0010
0000
0100
0000
,
1000
0010
0100
0001
1000
1000
0001
0010
,
0100
1000
0001
0010
0100
1000
0001
0100
,
1000
0000
0100
0000
0001
0000
0100
0000
0001
1000
0001
0000
1000
0000
0010
0000
,
1000
0010
0100
0001
0100
0001
1000
0100
,
0001
0100
0010
0001
0100
0001
1000
1000
,
0100
0100
0010
0010
0001
0001
0100
1000
,
0100
0001
0010
0100
1001
0000
0001
1000
,
0100
0010
0100
0000
0001
0000
1000
0000
0100
0010
0100
0000
0001
0000
1000
0000
,
0100
0010
0100
0000
0001
0000
1000
0000
0100
0010
0100
0000
1000
0000
0010
0000
,
0100
0000
0001
0000
0010
0000
0100
0000
1000
0001
1000
0000
0110
0000
0000
0000
,
0000
0000
0000
0000
0010
0100
0010
0000
1001
0000
0000
0000
1000
0000
0100
0000
,
0010
0100
1000
0100
0001
0100
1000
0100
,
0010
0001
0100
0010
0001
0010
1000
0100
,
0001
0100
0010
0001
0100
0010
1000
0100
,
0010
0001
0100
0010
1000
0001
1002
0203
,
0320
0032
0023
2030
3200
0302
0203
0320
,
0032
0000
2003
0000
3020
0000
0230
0000
0310
1000
0001
1000
0200
0000
0320
0000
,
0032
0203
2300
3200
0320
2030
3200
0302
,
0203
0000
0320
0000
0032
0000
2003
0000
3010
0100
1001
0000
1000
0000
0100
0000
,
1000
0000
0001
0100
0001
0000
1020
0000
,
0031
0000
0201
0000
1300
0000
0010
1000
,
0010
0000
0100
0001
0100
0000
1002
0000
,
0013
0000
2001
0000
3100
0000
1001
1000
,
0100
0001
0100
1000
0010
0100
1001
0001
,
0010
0100
0010
0001
1000
0000
1001
1000
,
0001
0000
0010
1000
0001
0000
1000
0100
,
0001
0000
0010
0000
0100
0000
1000
0001
1000
0000
0000
0000
0010
0000
1000
0000
,
0100
0000
1000
0000
0001
0000
0100
0000
0010
1000
0001
0000
1000
0000
0100
0000
,
0010
0000
1000
0000
0010
0000
0100
0000
1000
0010
0100
0000
0010
0000
0001
0000
,
0100
0000
0001
0000
1000
0000
0100
0000
0010
0001
1000
0000
0001
0000
0100
0000
,
0010
0000
0001
0000
0010
0000
0100
0000
0001
0010
0100
0000
0100
0000
0001
0000
,
0010
0000
0001
0000
1000
0000
0010
0000
0100
0001
1000
0000
0001
0000
0010
0000
,
0100
0000
0001
0000
0100
0000
0010
0000
0001
0100
0010
0000
0100
0000
1000
0000
,
0010
0000
1000
0000
0001
0000
0010
0000
0100
1000
0001
0000
1000
0000
0010
0000
,
0100
1000
0100
0010
1001
0000
0010
0001
,
0101
0001
0010
0100
1100
1000
0010
0100
,
0110
1000
0001
1000
1001
0100
0010
1000
,
1010
1000
0100
0010
0011
0001
1000
0100
,
0110
0010
0001
1000
1001
0000
0100
1000
,
1010
1000
0100
0010
0011
0001
0100
0010
,
0110
0001
1000
0001
1001
0010
0100
0001
,
0101
0001
0010
0100
1100
1000
0001
0010
,
0110
0000
0100
0000
1000
0001
1000
0001
1000
0000
0000
0000
0010
0000
0011
0000
,
0000
0101
0000
1001
0000
1100
0000
0010
,
0100
0001
0000
0010
0100
1000
1000
1010
,
0000
1100
0000
1001
0000
0101
0000
0010
,
0100
1000
0000
0010
0100
0001
0010
1010
,
0000
1100
0000
1001
0000
0101
0000
0010
,
0100
1000
0000
0010
0100
0001
0001
0011
,
0000
0101
0000
1001
0000
1100
0000
0010
,
0100
0001
0000
0010
0100
1000
0001
0000
,
0101
0010
1100
1000
,
1010
0100
0011
1000
,
1100
0010
0101
0001
,
0011
0000
0100
0000
1010
0000
1000
1000
,
0100
0100
0010
0010
0001
0001
1000
1000
,
0010
0010
0001
0001
0010
0010
1000
1000
,
1000
1000
0001
0001
0001
0001
0100
0100
,
0100
0000
0100
0000
0001
0010
0100
1000
0100
0010
0001
0000
1001
0000
0000
0000
;

//---------------dance-single - ----------------
#NOTES:
     dance-single:
     :
     Medium:
     6:
     0.444,0.623,0.287,0.205,0.000,510.000,56.000,40.000,0.000,0.000:
0000
0000
0000
0000
,
0000
0000
0000
0000
,
0001
0010
1000
0010
,
0001
0100
2000
3010
,
0001
0100
0001
0010
,
1000
0100
1000
0010
,
0001
1000
0010
0001
,
1000
0001
0010
0110
,
0001
0100
0001
0010
,
1000
0100
1000
0010
,
0001
0010
0100
1000
,
0010
1000
0001
0000
0220
0000
0330
0000
,
1001
0000
0010
0000
0100
1000
0100
0000
,
0001
0100
1000
0100
,
0001
0001
1000
1000
,
0020
0130
0010
1001
,
1001
0000
0010
0000
0100
0001
0100
0000
,
1000
0100
0001
0100
,
1000
1000
0001
0001
,
0020
0130
0010
1001
,
0000
0101
0000
1100
,
0000
1001
0000
1001
,
0010
1100
0010
0100
,
1000
0100
0010
0001
,
0000
1100
0000
0101
,
0000
1001
0000
1001
,
0010
0101
0010
1100
,
0001
1000
0001
1000
0020
0000
0030
0000
,
0000
0001
0000
0001
0000
0001
0000
0010
,
0000
0100
0000
0100
0000
0001
1000
0001
,
0000
1000
0000
1000
0000
1000
0000
0010
,
0000
0100
0000
0100
0000
1000
0001
1000
,
0000
1000
0000
1000
0000
1000
0000
0100
,
0000
0010
0000
0010
0000
1000
0001
1000
,
0000
0001
0000
0001
0000
0001
0000
0100
,
0000
0010
0000
0010
0000
0001
1000
0001
,
0000
0100
0000
0010
0000
0010
0000
0100
,
0000
0001
0100
1000
0000
0100
0100
0000
,
0000
0100
0000
0010
0000
0010
0000
0100
,
0000
1000
0100
0001
0000
0100
0100
0000
,
0000
0010
0000
0100
0000
0100
0000
0010
,
0000
1000
0010
0001
0000
0010
0010
0000
,
0000
0010
0000
0100
0000
0100
0000
0010
,
0000
0001
0010
1000
0000
0010
0010
0000
,
1001
0001
0100
0010
1000
0110
0001
0110
,
1000
0001
0100
1000
0100
1001
0010
1001
,
0000
1000
0100
0010
0001
0110
1000
0110
,
0001
1000
0100
0001
0100
1001
0010
1001
,
0100
0100
0010
0010
,
0001
0010
0001
0000
1000
0100
1000
0000
,
0100
0100
0010
0010
,
1000
0010
1000
0000
0110
0000
1001
0000
,
1000
0100
0010
1000
,
0001
0100
0010
0001
,
1000
0010
0100
0010
,
1001
0000
0100
0010
0100
0000
0001
0000
,
0011
0100
0010
0100
,
0001
0000
0010
0000
0001
1000
0001
0000
,
0010
1000
0010
1000
,
0001
0000
1000
0000
1001
0000
0001
0100
,
0001
0000
1000
0010
1000
0000
0100
1000
,
0100
0000
0010
0001
0010
0000
0002
0000
,
0023
0230
2300
3010
,
0001
0000
0010
0000
1001
0000
1000
0001
,
0020
0030
1000
0001
0020
0030
1000
0001
,
0020
0030
1000
0001
0020
0030
0001
0000
,
0100
0010
1000
0110
,
0000
0000
0100
0010
0100
0000
0001
1000
,
0001
1000
0001
0100
,
0010
0000
1000
0000
1001
0000
0001
0010
,
0100
0000
0010
0100
1000
0000
0100
1000
,
0001
0000
0100
0000
1001
0000
2000
3000
,
0200
0300
2000
3000
0002
0003
0020
0030
,
2000
3000
0200
0300
0010
0010
0002
0003
,
0200
0300
0002
0003
2000
3000
0020
0030
,
0002
0003
0200
0300
0010
0010
0001
0000
,
0001
1000
1000
0200
,
0301
0020
1030
0100
,
0100
0010
0010
2000
,
3100
0002
0013
1001
,
0010
0010
0100
1001
,
0100
0000
0100
0000
0010
0000
1000
0001
,
1000
0000
0010
0100
0010
0000
1000
0100
,
0010
0001
1000
0000
1001
0000
0100
0000
,
0010
0000
1000
0000
0100
1000
0001
0000
,
0100
0000
0100
0000
0001
0010
0100
0000
,
0010
0000
0001
0000
0100
0001
1000
0000
,
0100
0000
0100
0000
1000
0010
0100
0000
,
0100
0000
0001
0000
0010
0001
1000
0000
,
0010
0000
0010
0000
1000
0100
0010
0000
,
0100
0000
1000
0000
0010
1000
0001
0000
,
0010
0010
1001
0100
,
1010
0100
0011
0100
,
0110
1000
1001
0100
,
0101
0010
1100
0001
,
0110
1000
1001
0010
,
0101
0010
1100
0010
,
0110
0001
1001
0010
,
1010
0100
0011
1000
,
0110
0000
0001
1000
0001
0000
0100
1000
,
0000
0010
0000
1000
0000
0001
0000
0100
,
0000
1000
0000
0100
0010
0000
0001
0100
,
0000
0001
0000
1000
0000
0010
0000
0100
,
0000
0001
0000
0100
0010
0000
0100
0001
,
0000
0010
0000
0001
0000
1000
0000
0100
,
0000
0001
0000
0100
0010
0000
1000
0100
,
0000
1000
0000
0001
0000
0010
0000
0100
,
0000
1000
0000
0100
0010
0000
1000
0000
,
0010
0100
0010
0001
,
0100
0010
0100
0001
,
0010
0100
1000
1000
,
0100
0010
1001
0002
,
0023
0230
2300
3002
,
0203
0320
2030
3001
,
0001
1000
1000
0010
,
0010
0000
1000
0100
0001
0000
1001
0000
;

//---------------dance-single - ----------------
#NOTES:
     dance-single:
     :
     Easy:
     3:
     0.267,0.356,0.097,0.092,0.000,328.000,19.000,18.000,0.000,0.000:
0000
0000
0000
0000
,
0000
0000
0000
0000
,
1000
0000
0001
0000
,
1000
0000
0020
0030
,
1000
0000
1000
0000
,
0001
0000
0001
0000
,
0100
0100
0100
0000
,
0010
0010
0010
0000
,
1000
0000
1000
0000
,
0001
0000
0001
0000
,
0010
0010
0010
0000
,
0100
0100
0100
0000
,
1001
0000
0010
0010
,
1000
0000
0001
0000
,
1000
0000
0001
0000
,
0200
0300
1001
0000
,
1001
0000
0010
0010
,
0001
0000
1000
0000
,
0001
0000
1000
0000
,
0200
0300
1001
0000
,
0000
0010
0000
0010
,
0000
0001
0000
1000
,
0100
0000
0100
0000
,
0010
0000
0010
0000
,
0000
0010
0000
0010
,
0000
1000
0000
0001
,
0100
0000
0100
0000
,
0010
0000
0200
0300
,
0000
1000
0000
1000
,
0010
0000
0010
0001
,
0000
0001
0000
0001
,
0010
0000
0010
1000
,
0000
0001
0000
0001
,
0010
0000
0100
1000
,
0000
1000
0000
1000
,
0010
0000
0100
0001
,
0000
0010
0000
0100
,
1000
0000
0010
0010
,
0000
0010
0000
0100
,
0001
0000
0010
0010
,
0000
0100
0000
0010
,
0001
0000
0100
0100
,
0000
0100
0000
0010
,
1000
0000
0100
0100
,
1001
1000
0010
0100
,
0001
0010
0100
1001
,
0001
0010
0100
1000
,
0010
0100
1001
0000
,
0010
0000
0100
0000
,
1000
1000
0001
0001
,
0010
0000
0100
0000
,
0001
0001
0010
1001
,
0001
0010
0100
0000
,
1000
0010
0100
0000
,
0001
0100
0010
0000
,
1001
0010
0010
0000
,
1100
0010
0000
0010
,
0000
0100
1000
1000
,
0100
0000
0100
0000
,
1000
0000
1001
1000
,
1000
0001
0001
0010
,
0010
0100
0100
2000
,
3100
0020
0031
0000
,
1000
0000
1001
0010
,
0200
0300
0010
0000
0200
0300
0010
0000
,
0200
0300
0010
0000
0200
0300
1000
0000
,
0000
0100
0000
0110
,
0000
0010
0010
0100
,
0100
0001
0010
0100
,
1000
0000
1001
0010
,
0010
0100
0100
0010
,
0010
0000
1001
0001
,
0010
0001
1000
0100
,
1000
0000
0010
0000
0100
0001
1000
0000
,
0010
1000
0001
0100
,
0010
0000
1000
0000
0100
1000
0001
0000
,
0000
1000
0000
0020
,
0030
0200
0300
0010
,
0000
0100
0000
0002
,
0003
2000
3000
1001
,
0100
0100
0000
1001
,
0010
0010
0000
0001
,
0001
1000
1000
0010
,
0100
0010
1001
0010
,
0000
0001
1000
1000
,
0010
0000
1000
1000
,
0100
0000
0001
0001
,
0010
0000
0001
0001
,
0000
1000
0100
0100
,
0000
0100
0001
0100
,
0010
0000
1000
1000
,
0000
0100
1000
0010
,
0100
0010
1000
0010
,
0100
0001
1000
0010
,
1000
0100
0001
1000
,
0010
0001
1000
0100
,
0010
0100
0001
0100
,
0010
1000
0001
0100
,
0001
0010
0100
0001
,
0010
1000
1000
0010
,
0000
0100
0000
0001
,
0000
0010
0100
1000
,
0000
0010
0000
0100
,
0000
0010
0100
0010
,
0000
1000
0000
0001
,
0000
0010
0100
0001
,
0000
0010
0000
0100
,
0000
0001
0100
0001
,
0000
0010
0000
1000
,
0010
0100
0000
1000
,
0000
0010
0000
0001
,
0010
0100
0000
2000
,
3100
0020
0031
2000
,
3010
0200
0301
1000
,
0000
0001
0000
0100
,
0000
0010
0100
1001
;

//---------------dance-single - Copied from----------------
#NOTES:
     dance-single:
     Copied from:
     Beginner:
     2:
     0.144,0.237,0.062,0.036,0.000,178.000,12.000,7.000,0.000,0.000:
0000
0000
0000
0000
,
0000
0000
0000
0000
,
0001
0000
1000
0000
,
0001
0000
1000
0000
,
0001
0000
0000
0000
,
1000
0000
0000
0000
,
0010
0000
0010
0000
,
0100
0000
0100
0000
,
0001
0000
0000
0000
,
1000
0000
0000
0000
,
0100
0000
0100
0000
,
0010
0000
0010
0000
,
1001
0000
0100
0000
,
0001
0000
0000
0000
,
1000
0000
0000
0000
,
0010
0000
1001
0000
,
1001
0000
0100
0000
,
1000
0000
0000
0000
,
0001
0000
0000
0000
,
0010
0000
1001
0000
,
0000
0100
0000
0000
,
0000
1000
0000
0000
,
0010
0000
0000
0000
,
0100
0000
0000
0000
,
0000
0100
0000
0000
,
0000
0001
0000
0000
,
0010
0000
0000
0000
,
0100
0000
0020
0030
,
0000
0001
0000
0000
,
0100
0000
0000
1000
,
0000
0000
0000
1000
,
0000
0000
0100
0000
,
0000
1000
0000
0000
,
0100
0000
0000
0001
,
0000
0000
0000
0001
,
0000
0000
0010
0000
,
0000
0100
0000
0000
,
0001
0000
0000
0100
,
0000
0100
0000
0000
,
1000
0000
0000
0100
,
0000
0000
0000
0100
,
0000
0000
0000
0010
,
0000
0000
0000
0100
,
0000
0000
0010
0000
,
1001
0000
0100
0000
,
1000
0000
0010
0000
,
1000
0000
0010
0000
,
0100
0000
1001
0000
,
0100
0000
0000
0000
,
0001
0000
1000
0000
,
0100
0000
0000
0000
,
1000
0000
0100
0000
,
1000
0000
0010
0000
,
0001
0000
0010
0000
,
1000
0000
0100
0000
,
1001
0100
0000
0000
,
0001
0000
0000
0100
,
0000
0000
0001
0000
,
0010
0000
0000
0000
,
0001
0000
0000
0001
,
0000
1000
0000
0100
,
0000
0010
0000
0002
,
0003
0200
0300
0000
,
0000
0000
1001
0000
,
0020
0030
0000
0000
0020
0030
0000
0000
,
0020
0030
0000
0000
0020
0030
0000
0000
,
0000
0010
0000
0000
,
0000
0100
0000
0010
,
0000
1000
0000
0010
,
0000
0000
1001
0000
,
0100
0000
0010
0000
,
0100
0000
0000
1000
,
0000
1000
0001
0000
,
0001
0000
0010
0010
,
0000
0001
0000
0010
,
0000
0001
0100
0100
,
0000
0000
0000
0100
,
0000
0000
0000
0100
,
0000
0000
0000
1000
,
0000
0000
0000
1001
,
0000
0010
0000
1001
,
0000
0100
0000
1000
,
0000
0001
0000
0100
,
0000
0100
0000
0100
,
0000
0000
0001
0000
,
0100
0000
0000
0001
,
0000
0000
1000
0000
,
0100
0000
0000
1000
,
0000
0000
0010
0000
,
0000
0010
0000
0010
,
0000
0000
0001
0000
,
0000
0010
0000
0100
,
0000
0100
0000
0100
,
0000
1000
0000
0100
,
0000
0010
0000
0001
,
0000
1000
0000
0010
,
0000
0010
0000
0010
,
0000
0001
0000
0010
,
0000
0100
0000
1000
,
0000
0001
0000
0100
,
0000
0000
0000
1000
,
0000
0000
0010
0000
,
0000
0100
0000
0000
,
0000
0100
0000
0100
,
0000
0000
0000
1000
,
0000
0000
0010
0000
,
0000
0100
0000
0000
,
0000
1000
0000
1000
,
0000
0000
0000
0001
,
0000
0010
0000
0000
,
0000
0100
0000
0000
,
0100
0000
0000
0001
,
0000
0100
0000
0001
,
0000
0010
0000
0001
,
0000
1000
0000
0010
,
0000
0100
0000
1001
;
