#TITLE:The Scales of Strangeness;
#SUBTITLE:;
#ARTIST:dbk2;
#TITLETRANSLIT:;
#SUBTITLETRANSLIT:;
#ARTISTTRANSLIT:;
#CREDIT:Mad Matt;
#BANNER:../Banner.png;
#BACKGROUND:../bg.png;
#LYRICSPATH:;
#CDTITLE:;
#MUSIC:The Scales of Strangeness.ogg;
#OFFSET:0.005;
#SAMPLESTART:108.300;
#SAMPLELENGTH:17.100;
#SELECTABLE:YES;
#BPMS:0.000=195.000;
#STOPS:;
#BGCHANGES:;
// cache tags:
#FIRSTBEAT:8.000;
#LASTBEAT:495.500;
#SONGFILENAME:Songs/Tachyon Epsilon/The Scales of Strangeness - [Mad Matt]/The Scales of Strangeness.sm;
#HASMUSIC:1;
#HASBANNER:1;
#MUSICLENGTH:154.463;
// end cache tags

//---------------dance-single - Mad Matt----------------
#NOTES:
     dance-single:
     Mad Matt:
     Challenge:
     22:
     1.000,1.000,0.006,0.278,1.000,1626.000,1.000,43.000,0.000,0.000:

0000
0000
0000
0000
,
0000
0000
0000
0000
,
1000
0000
0010
0100
0001
0000
1000
0000
0001
0100
0010
0000
1000
0000
0001
0000
,
1000
0000
0100
0010
0001
0000
1000
0000
0001
0010
0100
0000
1000
0000
0001
0000
,
0100
0000
0010
1000
0001
0000
0100
0000
0010
1000
0001
0000
0010
0000
0100
0000
,
1000
0000
0001
0100
0001
0000
0100
0000
0010
0100
0010
0000
0100
0000
0001
0000
,
1000
0100
1000
0010
1000
0001
0100
0010
1000
0001
0100
0001
0010
0001
1000
0010
,
0200
0000
0300
0010
0100
0001
0100
0010
,
1000
0010
0100
0001
1000
0001
0010
0001
1000
0100
1000
0001
0100
0000
0000
0000
,
0001
0010
0100
1000
0010
0100
0001
1000
0100
0010
0001
0100
0010
1000
0001
0010
,
0001
1000
0010
0100
0010
1000
0001
0010
0001
1000
0010
1000
0002
0000
0000
0003
0000
0000
0000
0000
0000
0000
0000
0000
,
1000
0100
0010
0001
1000
0000
0020
0000
2030
0000
3002
0000
2003
0000
3200
0000
,
0320
0000
0000
0230
0000
0000
0320
0000
0000
0032
0000
0000
0203
0000
0000
0302
0000
0000
1003
0100
0010
0001
0000
0000
,
1000
0010
0100
0001
1000
0001
0010
0001
1000
0100
0010
0100
1000
0010
0100
0001
,
1000
0100
1000
0001
0010
0001
0100
0010
1000
0001
1000
0100
0010
0001
0100
0001
,
1000
0010
0100
0001
1000
0001
0010
0001
1000
0100
0010
0100
1000
0010
0100
0001
,
1000
0100
1000
0001
0010
0001
0100
0010
1000
0001
1000
0100
0010
0001
0100
0001
,
1000
0010
0100
0001
1000
0001
0010
0001
1000
0100
0010
0100
1000
0001
1000
0010
0100
0001
1000
0001
0010
0001
1000
0100
,
0010
0001
1000
0001
0100
0001
1000
0010
0100
0001
1000
0001
0010
0001
1000
0100
1000
0001
0100
0010
1000
0001
0010
0001
,
1000
0010
0100
0001
1000
0001
0010
0001
1000
0100
0010
0100
1000
0010
0100
0001
,
1000
0100
1000
0001
0010
0001
0100
0010
1000
0001
1000
0100
0010
0001
0100
0001
,
2000
3010
0100
0001
1000
0100
0020
0031
,
2000
0000
3010
0000
0100
0000
0001
0000
0010
0000
0100
0000
1000
0000
0010
0100
,
0002
1003
0100
1000
0001
0010
0200
1300
,
0020
0130
0001
1000
0100
0010
0100
1000
,
0020
0130
0001
1000
0100
1000
0020
0130
,
0020
0000
0130
0000
0001
0000
1000
0000
0100
0000
0010
0100
1000
0010
1000
0001
,
0020
0130
1000
0001
0100
0001
0020
0130
,
2000
3001
0100
0010
1000
0001
0010
0100
,
2000
0000
0000
0000
,
0000
0000
0001
0000
0000
0001
0000
0000
0001
0000
0000
0001
0000
3000
0001
0000
,
1000
0010
0100
0001
1000
0001
0010
0100
1000
0001
1000
0010
0100
0001
1000
0001
,
0010
0100
1000
0001
1000
0010
0100
0001
1000
0001
0010
0100
0010
0001
0100
0001
,
1000
0010
0100
0001
1000
0001
0010
0001
1000
0100
0010
0100
1000
0010
0100
0001
,
1000
0100
1000
0001
0010
0001
0100
0010
1000
0001
1000
0100
0010
0001
0100
0001
,
1000
0010
0100
0001
1000
0001
0010
0001
1000
0100
0010
0100
1000
0010
0100
0001
,
1000
0100
1000
0001
0010
0001
0100
0010
1000
0001
1000
0100
0010
0001
0100
0001
,
1000
0010
0100
0001
1000
0001
0010
0001
1000
0100
0010
0100
1000
0001
1000
0010
0100
0001
1000
0001
0010
0001
1000
0100
,
0010
0001
1000
0001
0100
0001
1000
0010
0100
0001
1000
0001
0010
0001
1000
0100
1000
0001
0100
0010
1000
0001
0010
0001
,
1000
0010
0100
0001
1000
0001
0010
0001
1000
0100
0010
0100
1000
0010
0100
0001
,
1000
0100
1000
0001
0010
0001
0100
0010
1000
0001
1000
0100
0010
0001
0100
0001
,
1000
0100
0010
0001
1000
0001
0100
0001
1000
0010
0100
0010
1000
0100
0010
0001
,
1000
0010
1000
0001
0100
0001
0010
0100
1000
0001
1000
0010
0100
0001
0010
0001
,
1000
0100
0010
0001
1000
0001
0100
0001
1000
0010
0100
0010
1000
0100
0010
0001
,
1000
0010
1000
0001
0100
0001
0010
0100
1000
0001
1000
0010
0100
0001
0010
0001
,
1000
0100
0010
0001
1000
0001
0100
0001
1000
0010
0100
0010
1000
0001
1000
0100
0010
0001
1000
0001
0100
0001
1000
0010
,
0100
0001
1000
0001
0010
0001
1000
0100
0010
0001
1000
0001
0100
0001
1000
0010
1000
0001
0010
0100
1000
0001
0100
0001
,
1000
0100
0010
0001
1000
0001
0100
0001
1000
0010
0100
0010
1000
0100
0010
0001
,
1000
0010
1000
0001
0100
0001
0010
0100
1000
0001
1000
0010
0100
0001
0010
0001
,
1000
0100
1000
0001
0100
0010
1000
0001
1000
0100
1000
0001
0400
0000
0000
0000
0000
0000
0000
0000
0000
0000
0000
0000
,
0301
1000
0010
1000
0001
0010
0001
0100
0001
1000
0100
0010
0100
1000
0010
1000
,
0001
0010
0100
0010
0001
1000
0001
0100
0010
1000
0001
0010
0001
1000
0100
1000
,
0001
0000
0000
0010
0100
1000
0001
0000
0000
0100
0010
0100
0001
0000
0000
1000
0100
0010
0001
0000
0000
1000
0010
0100
,
0010
0000
0000
1000
0000
0000
0001
0000
0000
0010
0000
0000
0100
0000
0000
1000
0000
0000
0001
0000
0000
0100
0000
0000
0010
0000
1000
0000
0001
0000
0010
0000
0100
0000
0010
0000
0001
0000
1000
0000
0010
0000
0100
0000
0001
0000
1000
0000
,
0001
0010
0001
0100
0001
1000
0010
0100
0001
1000
0010
1000
0001
0010
0100
1000
,
0001
0100
0001
0010
0001
1000
0100
0010
0001
1000
0100
1000
0001
0100
0010
1000
,
0001
0010
0100
1000
0010
1000
0001
0100
0010
1000
0001
0100
0001
1000
0100
0010
,
0001
1000
0010
0100
0001
1000
0010
1000
0001
0010
0001
1000
0100
0010
0001
1000
0100
1000
0010
1000
0001
0100
0010
0100
,
0001
1000
0100
1000
0010
1000
0001
0010
0100
1000
0010
0100
0001
1000
0100
1000
,
0010
1000
0001
0010
0100
1000
0010
0100
0001
1000
0001
0010
0100
0000
0000
0000
,
1000
0010
0100
0001
,
1000
0100
0010
0001
,
2000
0000
0010
3000
0010
0000
2000
0000
0001
3000
0001
0000
2000
0000
0100
3000
,
0100
0000
2000
0000
3001
0000
1000
0000
0010
0000
0100
0000
0001
0000
0100
0010
,
2000
0000
0100
3000
0100
0000
2000
0000
0001
3000
0001
0000
2000
0000
0010
3000
,
0010
0000
2000
0000
3010
0000
1000
0000
0001
0000
0010
0000
0001
0000
1000
0100
,
0020
0000
0001
0030
0001
0000
0020
0000
0100
0030
0100
0000
2000
0000
0010
3000
,
0010
0000
2000
0000
3001
0000
0010
0000
0100
0000
1000
0000
0001
0000
1000
0010
,
0200
0000
0001
0300
0001
0000
2000
0000
0100
3000
0100
0000
0020
0000
0001
0030
,
0001
0200
0310
0100
0010
0100
0010
0100
,
0001
1000
0100
0010
0001
0100
0010
1000
0001
1000
0100
1000
0010
0100
0001
1000
,
0001
0010
0100
1000
0010
0100
0001
1000
0001
0010
0001
0100
0010
1000
0001
1000
,
0100
0000
1000
0001
0000
1000
0100
0000
1000
0010
0000
0100
,
0001
0000
1000
0100
0000
0010
0001
0000
0010
0100
0000
1000
,
0010
0000
0100
0001
0000
0100
0010
0000
1000
0010
0000
0100
,
0001
0000
1000
0100
0000
0010
0100
0000
1000
0001
0000
0100
,
0010
0000
1000
0001
0000
1000
0100
0000
0010
0001
0000
0010
,
0100
0000
1000
0010
0000
0100
0001
0000
1000
0001
0000
0010
,
0100
0000
0010
0001
0000
1000
0010
0000
0100
0001
0000
0100
,
0010
1000
0001
1000
0100
0010
0100
1000
0010
0100
0001
1000
,
0001
0010
0100
1000
0000
0001
0100
0000
0001
1000
0000
0001
,
0010
0000
0100
1000
0000
0100
0010
0000
0001
1000
0000
0010
,
0100
0001
1000
0100
0000
0010
0001
0000
0010
0100
0000
1000
,
0010
0000
0100
0001
0000
1000
0100
0000
1000
0010
0000
0100
,
0001
1000
0100
0010
0000
0001
0010
0000
0100
1000
0000
0010
,
0100
0000
0001
0100
0000
0010
1000
0000
0001
1000
0000
0100
,
0010
0001
0010
0100
0000
1000
0001
0000
0100
0010
0000
0100
,
0001
1000
0100
0010
0100
1000
0010
0100
0001
1000
0100
0010
,
0001
1000
0100
1000
0001
0010
0100
1000
0001
1000
0010
0100
0001
1000
0001
0010
0001
1000
0100
1000
0001
1000
0010
0100
,
0001
1000
0010
1000
0001
0010
0001
1000
0100
0010
0001
1000
0001
0100
0010
1000
0001
1000
0100
1000
0001
0010
0001
1000
,
0100
0010
0001
1000
0001
0100
0010
1000
0001
1000
0100
0010
0001
1000
0001
0100
0001
1000
0010
1000
0001
1000
0100
0010
,
0001
1000
0100
1000
0001
0100
0001
1000
0010
0100
0001
1000
0001
0010
0100
1000
0001
1000
0010
1000
0001
0100
0001
1000
,
0001
0010
0001
1000
0100
0010
0001
1000
0001
0100
0010
1000
0001
1000
0100
1000
0001
0010
0001
1000
0001
0100
0010
1000
,
0001
0100
0001
1000
0100
1000
0001
0010
0100
1000
0001
1000
0010
0100
0001
1000
0001
0010
0001
1000
0100
1000
0001
0010
,
0100
1000
0001
1000
0010
0100
0001
1000
0001
0010
0100
1000
0001
1000
0010
1000
0001
0100
0001
1000
0001
0010
0100
1000
,
0001
0010
0001
1000
0010
1000
0001
0100
0010
1000
0001
1000
0100
0010
0001
1000
0001
0100
0001
1000
0010
1000
0001
0100
,
0001
1000
0010
0100
0001
1000
0100
1000
0001
0010
0100
0010
0001
0100
0010
1000
,
0001
0010
0001
1000
0100
1000
0010
0100
0001
1000
0001
0010
0100
1000
0010
1000
,
0001
0100
0010
1000
0001
1000
0100
1000
0001
0010
0100
0010
0001
0100
0010
1000
,
0001
0010
0001
1000
0100
1000
0010
0100
0001
1000
0001
0010
0100
1000
0010
1000
,
0001
0100
0010
1000
0001
1000
0100
1000
0001
0010
0100
0010
0001
1000
0001
0100
0010
1000
0001
1000
0100
1000
0001
0010
,
0100
1000
0001
1000
0010
1000
0001
0100
0010
1000
0001
1000
0100
1000
0001
0010
0001
1000
0010
0100
0001
1000
0100
1000
,
0001
0100
0010
1000
0001
1000
0100
1000
0001
0010
0100
0010
0001
0100
0010
1000
,
0001
0010
0001
1000
0100
1000
0010
0100
0001
1000
0001
0010
0100
1000
0010
1000
,
0001
0010
0100
1000
0001
1000
0010
1000
0001
0100
0010
0100
0001
0010
0100
1000
,
0001
0100
0001
1000
0010
1000
0100
0010
0001
1000
0001
0100
0010
1000
0100
1000
,
0001
0010
0100
1000
0001
1000
0010
1000
0001
0100
0010
0100
0001
0010
0100
1000
,
0001
0100
0001
1000
0010
1000
0100
0010
0001
1000
0001
0100
0010
1000
0100
1000
,
0001
0010
0100
1000
0001
1000
0010
1000
0001
0100
0010
0100
0001
1000
0001
0010
0100
1000
0001
1000
0010
1000
0001
0100
,
0010
1000
0001
1000
0100
1000
0001
0010
0100
1000
0001
1000
0010
1000
0001
0100
0001
1000
0100
0010
0001
1000
0010
1000
,
0001
0010
0100
1000
0001
1000
0010
1000
0001
0100
0010
0100
0001
0010
0100
1000
,
0001
0100
0001
1000
0010
1000
0100
0010
0001
1000
0001
0100
0010
1000
0100
1000
,
0001
0100
0001
0100
0001
0100
0010
0100
,
0001
1000
0100
1000
0100
1000
0100
1000
,
0001
0010
0001
0010
0001
0010
0001
0010
,
0001
0100
0010
0100
0010
0100
0010
0100
,
0001
1000
0001
1000
0001
1000
0001
1000
,
0010
0100
0001
0100
0010
0100
0001
0100
,
0010
1000
0001
1000
0100
1000
0001
0200
,
0000
0000
0000
0000
,
0000
0000
0000
0000
,
0000
0000
0000
0000
,
0000
0000
0000
0000
,
0000
0000
0000
0000
0000
0000
0000
0300
;

//---------------dance-single - Mad Matt----------------
#NOTES:
     dance-single:
     Mad Matt:
     Hard:
     20:
     1.000,1.000,0.006,0.278,1.000,1610.000,1.000,43.000,0.000,0.000:







0000
0000
0000
0000
,
0000
0000
0000
0000
,
1000
0000
0010
0100
0001
0000
1000
0000
0001
0100
0010
0000
1000
0000
0001
0000
,
1000
0000
0100
0010
0001
0000
1000
0000
0001
0010
0100
0000
1000
0000
0001
0000
,
0100
0000
0010
1000
0001
0000
0100
0000
0010
1000
0001
0000
0010
0000
0100
0000
,
1000
0000
0001
0100
0001
0000
0100
0000
0010
0100
0010
0000
0100
0000
0001
0000
,
1000
0100
1000
0010
1000
0001
0100
0010
1000
0001
0100
0001
0010
0001
1000
0010
,
0200
0000
0300
0010
0100
0001
0100
0010
,
1000
0010
0100
0001
1000
0001
0010
0001
1000
0100
1000
0001
0100
0000
0000
0000
,
0001
0010
0100
1000
0010
0100
0001
1000
0100
0010
0001
0100
0010
1000
0001
0010
,
0001
1000
0010
0100
0010
1000
0001
0010
0001
1000
0010
1000
0002
0000
0000
0003
0000
0000
0000
0000
0000
0000
0000
0000
,
1000
0100
0010
0001
1000
0000
0020
0000
2030
0000
3002
0000
2003
0000
3200
0000
,
0320
0000
0000
0230
0000
0000
0320
0000
0000
0032
0000
0000
0203
0000
0000
0302
0000
0000
1003
0100
0010
0001
0000
0000
,
1000
0010
0100
0001
1000
0001
0010
0001
1000
0100
0010
0100
1000
0010
0100
0001
,
1000
0100
1000
0001
0010
0001
0100
0010
1000
0001
1000
0100
0010
0001
0100
0001
,
1000
0010
0100
0001
1000
0001
0010
0001
1000
0100
0010
0100
1000
0010
0100
0001
,
1000
0100
1000
0001
0010
0001
0100
0010
1000
0001
1000
0100
0010
0001
0100
0001
,
1000
0010
0100
0001
1000
0001
0010
0001
1000
0100
0010
0100
1000
0001
1000
0010
0100
0001
1000
0001
0010
0001
1000
0100
,
0010
0001
1000
0001
0100
0001
1000
0010
0100
0001
1000
0001
0010
0001
1000
0100
1000
0001
0100
0010
1000
0001
0010
0001
,
1000
0010
0100
0001
1000
0001
0010
0001
1000
0100
0010
0100
1000
0010
0100
0001
,
1000
0100
1000
0001
0010
0001
0100
0010
1000
0001
1000
0100
0010
0001
0100
0001
,
2000
3010
0100
0001
1000
0100
0020
0031
,
2000
0000
3010
0000
0100
0000
0001
0000
0010
0000
0100
0000
1000
0000
0010
0100
,
0002
1003
0100
1000
0001
0010
0200
1300
,
0020
0130
0001
1000
0100
0010
0100
1000
,
0020
0130
0001
1000
0100
1000
0020
0130
,
0020
0000
0130
0000
0001
0000
1000
0000
0100
0000
0010
0100
1000
0010
1000
0001
,
0020
0130
1000
0001
0100
0001
0020
0130
,
2000
3001
0100
0010
1000
0001
0010
0100
,
2000
0000
0000
0000
,
0000
0000
0001
0000
0000
0001
0000
0000
0001
0000
0000
0001
0000
3000
0001
0000
,
1000
0010
0100
0001
1000
0001
0010
0100
1000
0001
1000
0010
0100
0001
1000
0001
,
0010
0100
1000
0001
1000
0010
0100
0001
1000
0001
0010
0100
0010
0001
0100
0001
,
1000
0010
0100
0001
1000
0001
0010
0001
1000
0100
0010
0100
1000
0010
0100
0001
,
1000
0100
1000
0001
0010
0001
0100
0010
1000
0001
1000
0100
0010
0001
0100
0001
,
1000
0010
0100
0001
1000
0001
0010
0001
1000
0100
0010
0100
1000
0010
0100
0001
,
1000
0100
1000
0001
0010
0001
0100
0010
1000
0001
1000
0100
0010
0001
0100
0001
,
1000
0010
0100
0001
1000
0001
0010
0001
1000
0100
0010
0100
1000
0001
1000
0010
0100
0001
1000
0001
0010
0001
1000
0100
,
0010
0001
1000
0001
0100
0001
1000
0010
0100
0001
1000
0001
0010
0001
1000
0100
1000
0001
0100
0010
1000
0001
0010
0001
,
1000
0010
0100
0001
1000
0001
0010
0001
1000
0100
0010
0100
1000
0010
0100
0001
,
1000
0100
1000
0001
0010
0001
0100
0010
1000
0001
1000
0100
0010
0001
0100
0001
,
1000
0100
0010
0001
1000
0001
0100
0001
1000
0010
0100
0010
1000
0100
0010
0001
,
1000
0010
1000
0001
0100
0001
0010
0100
1000
0001
1000
0010
0100
0001
0010
0001
,
1000
0100
0010
0001
1000
0001
0100
0001
1000
0010
0100
0010
1000
0100
0010
0001
,
1000
0010
1000
0001
0100
0001
0010
0100
1000
0001
1000
0010
0100
0001
0010
0001
,
1000
0100
0010
0001
1000
0001
0100
0001
1000
0010
0100
0010
1000
0001
1000
0100
0010
0001
1000
0001
0100
0001
1000
0010
,
0100
0001
1000
0001
0010
0001
1000
0100
0010
0001
1000
0001
0100
0001
1000
0010
1000
0001
0010
0100
1000
0001
0100
0001
,
1000
0100
0010
0001
1000
0001
0100
0001
1000
0010
0100
0010
1000
0100
0010
0001
,
1000
0010
1000
0001
0100
0001
0010
0100
1000
0001
1000
0010
0100
0001
0010
0001
,
1000
0100
1000
0001
0100
0010
1000
0001
1000
0100
1000
0001
0400
0000
0000
0000
0000
0000
0000
0000
0000
0000
0000
0000
,
0301
1000
0010
1000
0001
0010
0001
0100
0001
1000
0100
0010
0100
1000
0010
1000
,
0001
0010
0100
0010
0001
1000
0001
0100
0010
1000
0001
0010
0001
1000
0100
1000
,
0001
0000
0000
0010
0100
1000
0001
0000
0000
0100
0010
0100
0001
0000
0000
1000
0100
0010
0001
0000
0000
1000
0010
0100
,
0010
0000
0000
1000
0000
0000
0001
0000
0000
0010
0000
0000
0100
0000
0000
1000
0000
0000
0001
0000
0000
0100
0000
0000
0010
0000
1000
0000
0001
0000
0010
0000
0100
0000
0010
0000
0001
0000
1000
0000
0010
0000
0100
0000
0001
0000
1000
0000
,
0001
0010
0001
0100
0001
1000
0010
0100
0001
1000
0010
1000
0001
0010
0100
1000
,
0001
0100
0001
0010
0001
1000
0100
0010
0001
1000
0100
1000
0001
0100
0010
1000
,
0001
0010
0100
1000
0010
1000
0001
0100
0010
1000
0001
0100
0001
1000
0100
0010
,
0001
1000
0010
0100
0001
1000
0010
1000
0001
0010
0001
1000
0100
0010
0001
1000
0100
1000
0010
1000
0001
0100
0010
0100
,
0001
1000
0100
1000
0010
1000
0001
0010
0100
1000
0010
0100
0001
1000
0100
1000
,
0010
1000
0001
0010
0100
1000
0010
0100
0001
1000
0001
0010
0100
0000
0000
0000
,
1000
0010
0100
0001
,
1000
0100
0010
0001
,
2000
0000
0010
3000
0010
0000
2000
0000
0001
3000
0001
0000
2000
0000
0100
3000
,
0100
0000
2000
0000
3001
0000
1000
0000
0010
0000
0100
0000
0001
0000
0100
0010
,
2000
0000
0100
3000
0100
0000
2000
0000
0001
3000
0001
0000
2000
0000
0010
3000
,
0010
0000
2000
0000
3010
0000
1000
0000
0001
0000
0010
0000
0001
0000
1000
0100
,
0020
0000
0001
0030
0001
0000
0020
0000
0100
0030
0100
0000
2000
0000
0010
3000
,
0010
0000
2000
0000
3001
0000
0010
0000
0100
0000
1000
0000
0001
0000
1000
0010
,
0200
0000
0001
0300
0001
0000
2000
0000
0100
3000
0100
0000
0020
0000
0001
0030
,
0001
0200
0310
0100
0010
0100
0010
0100
,
0001
1000
0100
0010
0001
0100
0010
1000
0001
1000
0100
1000
0010
0100
0001
1000
,
0001
0010
0100
1000
0010
0100
0001
1000
0001
0010
0001
0100
0010
1000
0001
1000
,
0100
0000
1000
0001
0000
1000
0100
0000
1000
0010
0000
0100
,
0001
0000
1000
0100
0000
0010
0001
0000
0010
0100
0000
1000
,
0010
0000
0100
0001
0000
0100
0010
0000
1000
0010
0000
0100
,
0001
0000
1000
0100
0000
0010
0100
0000
1000
0001
0000
0100
,
0010
0000
1000
0001
0000
1000
0100
0000
0010
0001
0000
0010
,
0100
0000
1000
0010
0000
0100
0001
0000
1000
0001
0000
0010
,
0100
0000
0010
0001
0000
1000
0010
0000
0100
0001
0000
0100
,
0010
1000
0001
1000
0100
0010
0100
1000
0010
0100
0001
1000
,
0001
0010
0100
1000
0000
0001
0100
0000
0001
1000
0000
0001
,
0010
0000
0100
1000
0000
0100
0010
0000
0001
1000
0000
0010
,
0100
0001
1000
0100
0000
0010
0001
0000
0010
0100
0000
1000
,
0010
0000
0100
0001
0000
1000
0100
0000
1000
0010
0000
0100
,
0001
1000
0100
0010
0000
0001
0010
0000
0100
1000
0000
0010
,
0100
0000
0001
0100
0000
0010
1000
0000
0001
1000
0000
0100
,
0010
0001
0010
0100
0000
1000
0001
0000
0100
0010
0000
0100
,
0001
1000
0100
0010
0100
1000
0010
0100
0001
1000
0100
0010
,
0001
0000
0000
0000
0000
0000
0000
0000
0000
1000
0000
0000
0000
0000
0000
0000
0000
0000
0010
0000
0000
0000
0000
0000
0000
0000
0100
0000
0000
0000
0000
0000
0000
0000
0000
0001
0000
0000
0000
0000
0000
0000
0000
1000
0000
0000
0000
0000
0000
0000
0000
0000
0100
0000
0000
0000
0000
0000
0000
0000
0000
0010
0000
0000
0000
0000
0000
0000
0000
0000
0001
0000
0000
0000
0000
0000
0000
0000
1000
0000
0000
0000
0000
0000
0000
0000
0000
0010
0000
0000
0000
0000
0000
0000
0000
0000
1000
0000
0000
0000
0000
0000
0000
0000
0000
0100
0000
0000
0000
0000
0000
0000
0000
0000
1000
0000
0000
0000
0000
0000
0000
0000
0001
0000
0000
0000
0000
0000
0000
0000
0000
0010
0000
0000
0000
0000
0000
0000
0000
0001
0000
0000
0000
0000
0000
0000
0000
0000
1000
0000
0000
0000
0000
0000
0000
0000
0000
0100
0000
0000
0000
0000
0000
0000
0000
0000
0010
0000
0000
0000
0000
0000
0000
0000
0001
0000
0000
0000
0000
0000
0000
0000
0000
0100
0000
0000
0000
0000
0000
0000
0000
0000
,
0001
0000
0000
0000
0000
0000
0000
0000
0000
1000
0000
0000
0000
0000
0000
0000
0000
0000
0010
0000
0000
0000
0000
0000
0000
0000
0100
0000
0000
0000
0000
0000
0000
0000
0000
0010
0000
0000
0000
0000
0000
0000
0000
1000
0000
0000
0000
0000
0000
0000
0000
0000
0001
0000
0000
0000
0000
0000
0000
0000
0000
0010
0000
0000
0000
0000
0000
0000
0000
0000
0001
0000
0000
0000
0000
0000
0000
0000
1000
0000
0000
0000
0000
0000
0000
0000
0000
0010
0000
0000
0000
0000
0000
0000
0000
0000
0100
0000
0000
0000
0000
0000
0000
0000
0000
0001
0000
0000
0000
0000
0000
0000
0000
0000
1000
0000
0000
0000
0000
0000
0000
0000
0001
0000
0000
0000
0000
0000
0000
0000
0000
0010
0000
0000
0000
0000
0000
0000
0000
0100
0000
0000
0000
0000
0000
0000
0000
0000
1000
0000
0000
0000
0000
0000
0000
0000
0000
0001
0000
0000
0000
0000
0000
0000
0000
0000
1000
0000
0000
0000
0000
0000
0000
0000
0010
0000
0000
0000
0000
0000
0000
0000
0000
0100
0000
0000
0000
0000
0000
0000
0000
0000
,
0001
0000
0000
0000
0000
0000
0000
0000
0000
1000
0000
0000
0000
0000
0000
0000
0000
0000
0100
0000
0000
0000
0000
0000
0000
0000
0010
0000
0000
0000
0000
0000
0000
0000
0000
0001
0000
0000
0000
0000
0000
0000
0000
1000
0000
0000
0000
0000
0000
0000
0000
0000
0010
0000
0000
0000
0000
0000
0000
0000
0000
0100
0000
0000
0000
0000
0000
0000
0000
0000
0001
0000
0000
0000
0000
0000
0000
0000
1000
0000
0000
0000
0000
0000
0000
0000
0000
0010
0000
0000
0000
0000
0000
0000
0000
0000
1000
0000
0000
0000
0000
0000
0000
0000
0000
0100
0000
0000
0000
0000
0000
0000
0000
0000
1000
0000
0000
0000
0000
0000
0000
0000
0001
0000
0000
0000
0000
0000
0000
0000
0000
0010
0000
0000
0000
0000
0000
0000
0000
0001
0000
0000
0000
0000
0000
0000
0000
0000
1000
0000
0000
0000
0000
0000
0000
0000
0000
0010
0000
0000
0000
0000
0000
0000
0000
0000
0100
0000
0000
0000
0000
0000
0000
0000
0001
0000
0000
0000
0000
0000
0000
0000
0000
1000
0000
0000
0000
0000
0000
0000
0000
0000
,
0001
0000
0000
0000
0000
0000
0000
0000
0000
0010
0000
0000
0000
0000
0000
0000
0000
0000
0100
0000
0000
0000
0000
0000
0000
0000
0010
0000
0000
0000
0000
0000
0000
0000
0000
0001
0000
0000
0000
0000
0000
0000
0000
1000
0000
0000
0000
0000
0000
0000
0000
0000
0001
0000
0000
0000
0000
0000
0000
0000
0000
0100
0000
0000
0000
0000
0000
0000
0000
0000
0001
0000
0000
0000
0000
0000
0000
0000
1000
0000
0000
0000
0000
0000
0000
0000
0000
0010
0000
0000
0000
0000
0000
0000
0000
0000
0100
0000
0000
0000
0000
0000
0000
0000
0000
0001
0000
0000
0000
0000
0000
0000
0000
0000
1000
0000
0000
0000
0000
0000
0000
0000
0001
0000
0000
0000
0000
0000
0000
0000
0000
0010
0000
0000
0000
0000
0000
0000
0000
0100
0000
0000
0000
0000
0000
0000
0000
0000
1000
0000
0000
0000
0000
0000
0000
0000
0000
0001
0000
0000
0000
0000
0000
0000
0000
0000
1000
0000
0000
0000
0000
0000
0000
0000
0010
0000
0000
0000
0000
0000
0000
0000
0000
0100
0000
0000
0000
0000
0000
0000
0000
0000
,
0001
0000
0000
0000
0000
0000
0000
0000
0000
1000
0000
0000
0000
0000
0000
0000
0000
0000
0100
0000
0000
0000
0000
0000
0000
0000
1000
0000
0000
0000
0000
0000
0000
0000
0000
0010
0000
0000
0000
0000
0000
0000
0000
0100
0000
0000
0000
0000
0000
0000
0000
0000
0001
0000
0000
0000
0000
0000
0000
0000
0000
1000
0000
0000
0000
0000
0000
0000
0000
0000
0001
0000
0000
0000
0000
0000
0000
0000
0010
0000
0000
0000
0000
0000
0000
0000
0000
0001
0000
0000
0000
0000
0000
0000
0000
0000
1000
0000
0000
0000
0000
0000
0000
0000
0000
0010
0000
0000
0000
0000
0000
0000
0000
0000
1000
0000
0000
0000
0000
0000
0000
0000
0001
0000
0000
0000
0000
0000
0000
0000
0000
0010
0000
0000
0000
0000
0000
0000
0000
0100
0000
0000
0000
0000
0000
0000
0000
0000
1000
0000
0000
0000
0000
0000
0000
0000
0000
0001
0000
0000
0000
0000
0000
0000
0000
0000
0010
0000
0000
0000
0000
0000
0000
0000
0001
0000
0000
0000
0000
0000
0000
0000
0000
0100
0000
0000
0000
0000
0000
0000
0000
0000
,
0001
0000
0000
0000
0000
0000
0000
0000
0000
1000
0000
0000
0000
0000
0000
0000
0000
0000
0010
0000
0000
0000
0000
0000
0000
0000
0100
0000
0000
0000
0000
0000
0000
0000
0000
0001
0000
0000
0000
0000
0000
0000
0000
1000
0000
0000
0000
0000
0000
0000
0000
0000
0001
0000
0000
0000
0000
0000
0000
0000
0000
0010
0000
0000
0000
0000
0000
0000
0000
0000
0100
0000
0000
0000
0000
0000
0000
0000
0010
0000
0000
0000
0000
0000
0000
0000
0000
0001
0000
0000
0000
0000
0000
0000
0000
0000
0100
0000
0000
0000
0000
0000
0000
0000
0000
0010
0000
0000
0000
0000
0000
0000
0000
0000
1000
0000
0000
0000
0000
0000
0000
0000
0001
0000
0000
0000
0000
0000
0000
0000
0000
1000
0000
0000
0000
0000
0000
0000
0000
0100
0000
0000
0000
0000
0000
0000
0000
0000
0010
0000
0000
0000
0000
0000
0000
0000
0000
0100
0000
0000
0000
0000
0000
0000
0000
0000
1000
0000
0000
0000
0000
0000
0000
0000
0010
0000
0000
0000
0000
0000
0000
0000
0000
0100
0000
0000
0000
0000
0000
0000
0000
0000
,
0001
0000
0000
0000
0000
0000
0000
0000
0000
1000
0000
0000
0000
0000
0000
0000
0000
0000
0010
0000
0000
0000
0000
0000
0000
0000
1000
0000
0000
0000
0000
0000
0000
0000
0000
0100
0000
0000
0000
0000
0000
0000
0000
1000
0000
0000
0000
0000
0000
0000
0000
0000
0001
0000
0000
0000
0000
0000
0000
0000
0000
0010
0000
0000
0000
0000
0000
0000
0000
0000
0001
0000
0000
0000
0000
0000
0000
0000
1000
0000
0000
0000
0000
0000
0000
0000
0000
0100
0000
0000
0000
0000
0000
0000
0000
0000
0010
0000
0000
0000
0000
0000
0000
0000
0000
0001
0000
0000
0000
0000
0000
0000
0000
0000
0100
0000
0000
0000
0000
0000
0000
0000
0001
0000
0000
0000
0000
0000
0000
0000
0000
1000
0000
0000
0000
0000
0000
0000
0000
0010
0000
0000
0000
0000
0000
0000
0000
0000
1000
0000
0000
0000
0000
0000
0000
0000
0000
0100
0000
0000
0000
0000
0000
0000
0000
0000
0010
0000
0000
0000
0000
0000
0000
0000
0001
0000
0000
0000
0000
0000
0000
0000
0000
1000
0000
0000
0000
0000
0000
0000
0000
0000
,
0010
0000
0000
0000
0000
0000
0000
0000
0000
0100
0000
0000
0000
0000
0000
0000
0000
0000
0001
0000
0000
0000
0000
0000
0000
0000
1000
0000
0000
0000
0000
0000
0000
0000
0000
0010
0000
0000
0000
0000
0000
0000
0000
1000
0000
0000
0000
0000
0000
0000
0000
0000
0100
0000
0000
0000
0000
0000
0000
0000
0000
1000
0000
0000
0000
0000
0000
0000
0000
0000
0001
0000
0000
0000
0000
0000
0000
0000
0010
0000
0000
0000
0000
0000
0000
0000
0000
0001
0000
0000
0000
0000
0000
0000
0000
0000
1000
0000
0000
0000
0000
0000
0000
0000
0000
0010
0000
0000
0000
0000
0000
0000
0000
0000
0100
0000
0000
0000
0000
0000
0000
0000
0010
0000
0000
0000
0000
0000
0000
0000
1000
0000
0000
0000
0000
0000
0000
0000
0000
0100
0000
0000
0000
0000
0000
0000
0000
0000
1000
0000
0000
0000
0000
0000
0000
0000
0000
0001
0000
0000
0000
0000
0000
0000
0000
0000
1000
0000
0000
0000
0000
0000
0000
0000
0010
0000
0000
0000
0000
0000
0000
0000
0000
0100
0000
0000
0000
0000
0000
0000
0000
0000
,
0001
1000
0010
0100
0001
1000
0100
1000
0001
0010
0100
0010
0001
0100
0010
1000
,
0001
0010
0001
1000
0100
1000
0010
0100
0001
1000
0001
0010
0100
1000
0010
1000
,
0001
0100
0010
1000
0001
1000
0100
1000
0001
0010
0100
0010
0001
0100
0010
1000
,
0001
0010
0001
1000
0100
1000
0010
0100
0001
1000
0001
0010
0100
1000
0010
1000
,
0001
0100
0010
1000
0001
1000
0100
1000
0001
0010
0100
0010
0001
1000
0001
0100
0010
1000
0001
1000
0100
1000
0001
0010
,
0100
1000
0001
1000
0010
1000
0001
0100
0010
1000
0001
1000
0100
1000
0001
0010
0001
1000
0010
0100
0001
1000
0100
1000
,
0001
0100
0010
1000
0001
1000
0100
1000
0001
0010
0100
0010
0001
0100
0010
1000
,
0001
0010
0001
1000
0100
1000
0010
0100
0001
1000
0001
0010
0100
1000
0010
1000
,
0001
0010
0100
1000
0001
1000
0010
1000
0001
0100
0010
0100
0001
0010
0100
1000
,
0001
0100
0001
1000
0010
1000
0100
0010
0001
1000
0001
0100
0010
1000
0100
1000
,
0001
0010
0100
1000
0001
1000
0010
1000
0001
0100
0010
0100
0001
0010
0100
1000
,
0001
0100
0001
1000
0010
1000
0100
0010
0001
1000
0001
0100
0010
1000
0100
1000
,
0001
0010
0100
1000
0001
1000
0010
1000
0001
0100
0010
0100
0001
1000
0001
0010
0100
1000
0001
1000
0010
1000
0001
0100
,
0010
1000
0001
1000
0100
1000
0001
0010
0100
1000
0001
1000
0010
1000
0001
0100
0001
1000
0100
0010
0001
1000
0010
1000
,
0001
0010
0100
1000
0001
1000
0010
1000
0001
0100
0010
0100
0001
0010
0100
1000
,
0001
0100
0001
1000
0010
1000
0100
0010
0001
1000
0001
0100
0010
1000
0100
1000
,
0001
0100
0001
0100
0001
0100
0010
0100
,
0001
1000
0100
1000
0100
1000
0100
1000
,
0001
0010
0001
0010
0001
0010
0001
0010
,
0001
0100
0010
0100
0010
0100
0010
0100
,
0001
1000
0001
1000
0001
1000
0001
1000
,
0010
0100
0001
0100
0010
0100
0001
0100
,
0010
1000
0001
1000
0100
1000
0001
0200
,
0000
0000
0000
0000
,
0000
0000
0000
0000
,
0000
0000
0000
0000
,
0000
0000
0000
0000
,
0000
0000
0000
0000
0000
0000
0000
0300
;

//---------------dance-single - Mad Matt----------------
#NOTES:
     dance-single:
     Mad Matt:
     Medium:
     19:
     1.000,1.000,0.006,0.278,1.000,1594.000,1.000,43.000,0.000,0.000:






0000
0000
0000
0000
,
0000
0000
0000
0000
,
1000
0000
0010
0100
0001
0000
1000
0000
0001
0100
0010
0000
1000
0000
0001
0000
,
1000
0000
0100
0010
0001
0000
1000
0000
0001
0010
0100
0000
1000
0000
0001
0000
,
0100
0000
0010
1000
0001
0000
0100
0000
0010
1000
0001
0000
0010
0000
0100
0000
,
1000
0000
0001
0100
0001
0000
0100
0000
0010
0100
0010
0000
0100
0000
0001
0000
,
1000
0100
1000
0010
1000
0001
0100
0010
1000
0001
0100
0001
0010
0001
1000
0010
,
0200
0000
0300
0010
0100
0001
0100
0010
,
1000
0010
0100
0001
1000
0001
0010
0001
1000
0100
1000
0001
0100
0000
0000
0000
,
0001
0010
0100
1000
0010
0100
0001
1000
0100
0010
0001
0100
0010
1000
0001
0010
,
0001
1000
0010
0100
0010
1000
0001
0010
0001
1000
0010
1000
0002
0000
0000
0003
0000
0000
0000
0000
0000
0000
0000
0000
,
1000
0100
0010
0001
1000
0000
0020
0000
2030
0000
3002
0000
2003
0000
3200
0000
,
0320
0000
0000
0230
0000
0000
0320
0000
0000
0032
0000
0000
0203
0000
0000
0302
0000
0000
1003
0100
0010
0001
0000
0000
,
1000
0010
0100
0001
1000
0001
0010
0001
1000
0100
0010
0100
1000
0010
0100
0001
,
1000
0100
1000
0001
0010
0001
0100
0010
1000
0001
1000
0100
0010
0001
0100
0001
,
1000
0010
0100
0001
1000
0001
0010
0001
1000
0100
0010
0100
1000
0010
0100
0001
,
1000
0100
1000
0001
0010
0001
0100
0010
1000
0001
1000
0100
0010
0001
0100
0001
,
1000
0010
0100
0001
1000
0001
0010
0001
1000
0100
0010
0100
1000
0001
1000
0010
0100
0001
1000
0001
0010
0001
1000
0100
,
0010
0001
1000
0001
0100
0001
1000
0010
0100
0001
1000
0001
0010
0001
1000
0100
1000
0001
0100
0010
1000
0001
0010
0001
,
1000
0010
0100
0001
1000
0001
0010
0001
1000
0100
0010
0100
1000
0010
0100
0001
,
1000
0100
1000
0001
0010
0001
0100
0010
1000
0001
1000
0100
0010
0001
0100
0001
,
2000
3010
0100
0001
1000
0100
0020
0031
,
2000
0000
3010
0000
0100
0000
0001
0000
0010
0000
0100
0000
1000
0000
0010
0100
,
0002
1003
0100
1000
0001
0010
0200
1300
,
0020
0130
0001
1000
0100
0010
0100
1000
,
0020
0130
0001
1000
0100
1000
0020
0130
,
0020
0000
0130
0000
0001
0000
1000
0000
0100
0000
0010
0100
1000
0010
1000
0001
,
0020
0130
1000
0001
0100
0001
0020
0130
,
2000
3001
0100
0010
1000
0001
0010
0100
,
2000
0000
0000
0000
,
0000
0000
0001
0000
0000
0001
0000
0000
0001
0000
0000
0001
0000
3000
0001
0000
,
1000
0010
0100
0001
1000
0001
0010
0100
1000
0001
1000
0010
0100
0001
1000
0001
,
0010
0100
1000
0001
1000
0010
0100
0001
1000
0001
0010
0100
0010
0001
0100
0001
,
1000
0010
0100
0001
1000
0001
0010
0001
1000
0100
0010
0100
1000
0010
0100
0001
,
1000
0100
1000
0001
0010
0001
0100
0010
1000
0001
1000
0100
0010
0001
0100
0001
,
1000
0010
0100
0001
1000
0001
0010
0001
1000
0100
0010
0100
1000
0010
0100
0001
,
1000
0100
1000
0001
0010
0001
0100
0010
1000
0001
1000
0100
0010
0001
0100
0001
,
1000
0010
0100
0001
1000
0001
0010
0001
1000
0100
0010
0100
1000
0001
1000
0010
0100
0001
1000
0001
0010
0001
1000
0100
,
0010
0001
1000
0001
0100
0001
1000
0010
0100
0001
1000
0001
0010
0001
1000
0100
1000
0001
0100
0010
1000
0001
0010
0001
,
1000
0010
0100
0001
1000
0001
0010
0001
1000
0100
0010
0100
1000
0010
0100
0001
,
1000
0100
1000
0001
0010
0001
0100
0010
1000
0001
1000
0100
0010
0001
0100
0001
,
1000
0100
0010
0001
1000
0001
0100
0001
1000
0010
0100
0010
1000
0100
0010
0001
,
1000
0010
1000
0001
0100
0001
0010
0100
1000
0001
1000
0010
0100
0001
0010
0001
,
1000
0100
0010
0001
1000
0001
0100
0001
1000
0010
0100
0010
1000
0100
0010
0001
,
1000
0010
1000
0001
0100
0001
0010
0100
1000
0001
1000
0010
0100
0001
0010
0001
,
1000
0100
0010
0001
1000
0001
0100
0001
1000
0010
0100
0010
1000
0001
1000
0100
0010
0001
1000
0001
0100
0001
1000
0010
,
0100
0001
1000
0001
0010
0001
1000
0100
0010
0001
1000
0001
0100
0001
1000
0010
1000
0001
0010
0100
1000
0001
0100
0001
,
1000
0100
0010
0001
1000
0001
0100
0001
1000
0010
0100
0010
1000
0100
0010
0001
,
1000
0010
1000
0001
0100
0001
0010
0100
1000
0001
1000
0010
0100
0001
0010
0001
,
1000
0100
1000
0001
0100
0010
1000
0001
1000
0100
1000
0001
0400
0000
0000
0000
0000
0000
0000
0000
0000
0000
0000
0000
,
0301
1000
0010
1000
0001
0010
0001
0100
0001
1000
0100
0010
0100
1000
0010
1000
,
0001
0010
0100
0010
0001
1000
0001
0100
0010
1000
0001
0010
0001
1000
0100
1000
,
0001
0000
0000
0010
0100
1000
0001
0000
0000
0100
0010
0100
0001
0000
0000
1000
0100
0010
0001
0000
0000
1000
0010
0100
,
0010
0000
0000
1000
0000
0000
0001
0000
0000
0010
0000
0000
0100
0000
0000
1000
0000
0000
0001
0000
0000
0100
0000
0000
0010
0000
1000
0000
0001
0000
0010
0000
0100
0000
0010
0000
0001
0000
1000
0000
0010
0000
0100
0000
0001
0000
1000
0000
,
0001
0010
0001
0100
0001
1000
0010
0100
0001
1000
0010
1000
0001
0010
0100
1000
,
0001
0100
0001
0010
0001
1000
0100
0010
0001
1000
0100
1000
0001
0100
0010
1000
,
0001
0010
0100
1000
0010
1000
0001
0100
0010
1000
0001
0100
0001
1000
0100
0010
,
0001
1000
0010
0100
0001
1000
0010
1000
0001
0010
0001
1000
0100
0010
0001
1000
0100
1000
0010
1000
0001
0100
0010
0100
,
0001
1000
0100
1000
0010
1000
0001
0010
0100
1000
0010
0100
0001
1000
0100
1000
,
0010
1000
0001
0010
0100
1000
0010
0100
0001
1000
0001
0010
0100
0000
0000
0000
,
1000
0010
0100
0001
,
1000
0100
0010
0001
,
2000
0000
0010
3000
0010
0000
2000
0000
0001
3000
0001
0000
2000
0000
0100
3000
,
0100
0000
2000
0000
3001
0000
1000
0000
0010
0000
0100
0000
0001
0000
0100
0010
,
2000
0000
0100
3000
0100
0000
2000
0000
0001
3000
0001
0000
2000
0000
0010
3000
,
0010
0000
2000
0000
3010
0000
1000
0000
0001
0000
0010
0000
0001
0000
1000
0100
,
0020
0000
0001
0030
0001
0000
0020
0000
0100
0030
0100
0000
2000
0000
0010
3000
,
0010
0000
2000
0000
3001
0000
0010
0000
0100
0000
1000
0000
0001
0000
1000
0010
,
0200
0000
0001
0300
0001
0000
2000
0000
0100
3000
0100
0000
0020
0000
0001
0030
,
0001
0200
0310
0100
0010
0100
0010
0100
,
0001
1000
0100
0010
0001
0100
0010
1000
0001
1000
0100
1000
0010
0100
0001
1000
,
0001
0010
0100
1000
0010
0100
0001
1000
0001
0010
0001
0100
0010
1000
0001
1000
,
0100
0000
1000
0001
0000
1000
0100
0000
1000
0010
0000
0100
,
0001
0000
1000
0100
0000
0010
0001
0000
0010
0100
0000
1000
,
0010
0000
0100
0001
0000
0100
0010
0000
1000
0010
0000
0100
,
0001
0000
1000
0100
0000
0010
0100
0000
1000
0001
0000
0100
,
0010
0000
1000
0001
0000
1000
0100
0000
0010
0001
0000
0010
,
0100
0000
1000
0010
0000
0100
0001
0000
1000
0001
0000
0010
,
0100
0000
0010
0001
0000
1000
0010
0000
0100
0001
0000
0100
,
0010
1000
0001
1000
0100
0010
0100
1000
0010
0100
0001
1000
,
0001
0010
0100
1000
0000
0001
0100
0000
0001
1000
0000
0001
,
0010
0000
0100
1000
0000
0100
0010
0000
0001
1000
0000
0010
,
0100
0001
1000
0100
0000
0010
0001
0000
0010
0100
0000
1000
,
0010
0000
0100
0001
0000
1000
0100
0000
1000
0010
0000
0100
,
0001
1000
0100
0010
0000
0001
0010
0000
0100
1000
0000
0010
,
0100
0000
0001
0100
0000
0010
1000
0000
0001
1000
0000
0100
,
0010
0001
0010
0100
0000
1000
0001
0000
0100
0010
0000
0100
,
0001
1000
0100
0010
0100
1000
0010
0100
0001
1000
0100
0010
,
0001
0000
0000
0000
0000
0000
0000
0000
0000
0000
1000
0000
0000
0000
0000
0000
0000
0000
0000
0010
0000
0000
0000
0000
0000
0000
0000
0000
0000
1000
0000
0000
0000
0000
0000
0000
0000
0000
0000
0100
0000
0000
0000
0000
0000
0000
0000
0000
1000
0000
0000
0000
0000
0000
0000
0000
0000
0000
0001
0000
0000
0000
0000
0000
0000
0000
0000
0100
0000
0000
0000
0000
0000
0000
0000
0000
0000
0010
0000
0000
0000
0000
0000
0000
0000
0000
0000
1000
0000
0000
0000
0000
0000
0000
0000
0000
0001
0000
0000
0000
0000
0000
0000
0000
0000
0000
1000
0000
0000
0000
0000
0000
0000
0000
0000
0100
0000
0000
0000
0000
0000
0000
0000
0000
0000
0010
0000
0000
0000
0000
0000
0000
0000
0000
0100
0000
0000
0000
0000
0000
0000
0000
0000
0000
1000
0000
0000
0000
0000
0000
0000
0000
0000
0000
0001
0000
0000
0000
0000
0000
0000
0000
0000
0100
0000
0000
0000
0000
0000
0000
0000
0000
0000
0010
0000
0000
0000
0000
0000
0000
0000
0000
1000
0000
0000
0000
0000
0000
0000
0000
0000
0000
,
0001
0000
0000
0000
0000
0000
0000
0000
0000
0000
0010
0000
0000
0000
0000
0000
0000
0000
0000
0001
0000
0000
0000
0000
0000
0000
0000
0000
0000
0100
0000
0000
0000
0000
0000
0000
0000
0000
0010
0000
0000
0000
0000
0000
0000
0000
0000
0000
0100
0000
0000
0000
0000
0000
0000
0000
0000
0001
0000
0000
0000
0000
0000
0000
0000
0000
0000
1000
0000
0000
0000
0000
0000
0000
0000
0000
0000
0100
0000
0000
0000
0000
0000
0000
0000
0000
0000
1000
0000
0000
0000
0000
0000
0000
0000
0000
0001
0000
0000
0000
0000
0000
0000
0000
0000
0000
0010
0000
0000
0000
0000
0000
0000
0000
0000
0001
0000
0000
0000
0000
0000
0000
0000
0000
0000
1000
0000
0000
0000
0000
0000
0000
0000
0000
0010
0000
0000
0000
0000
0000
0000
0000
0000
0000
1000
0000
0000
0000
0000
0000
0000
0000
0000
0001
0000
0000
0000
0000
0000
0000
0000
0000
0000
0010
0000
0000
0000
0000
0000
0000
0000
0000
0000
0100
0000
0000
0000
0000
0000
0000
0000
0000
1000
0000
0000
0000
0000
0000
0000
0000
0000
0000
,
0001
0000
0000
0000
0000
0000
0000
0000
0000
0010
0000
0000
0000
0000
0000
0000
0000
0000
0000
0001
0000
0000
0000
0000
0000
0000
0000
0000
0000
0100
0000
0000
0000
0000
0000
0000
0000
0000
0001
0000
0000
0000
0000
0000
0000
0000
0000
0000
1000
0000
0000
0000
0000
0000
0000
0000
0000
0100
0000
0000
0000
0000
0000
0000
0000
0000
0000
0010
0000
0000
0000
0000
0000
0000
0000
0000
0000
0001
0000
0000
0000
0000
0000
0000
0000
0000
1000
0000
0000
0000
0000
0000
0000
0000
0000
0000
0001
0000
0000
0000
0000
0000
0000
0000
0000
0100
0000
0000
0000
0000
0000
0000
0000
0000
0000
0010
0000
0000
0000
0000
0000
0000
0000
0000
0000
1000
0000
0000
0000
0000
0000
0000
0000
0000
0001
0000
0000
0000
0000
0000
0000
0000
0000
0000
1000
0000
0000
0000
0000
0000
0000
0000
0000
0100
0000
0000
0000
0000
0000
0000
0000
0000
0000
0010
0000
0000
0000
0000
0000
0000
0000
0000
0000
0001
0000
0000
0000
0000
0000
0000
0000
0000
1000
0000
0000
0000
0000
0000
0000
0000
0000
0000
,
0010
0000
0000
0000
0000
0000
0000
0000
0000
1000
0000
0000
0000
0000
0000
0000
0000
0000
0000
0100
0000
0000
0000
0000
0000
0000
0000
0000
0000
0010
0000
0000
0000
0000
0000
0000
0000
0000
0100
0000
0000
0000
0000
0000
0000
0000
0000
0000
1000
0000
0000
0000
0000
0000
0000
0000
0000
0001
0000
0000
0000
0000
0000
0000
0000
0000
0000
0100
0000
0000
0000
0000
0000
0000
0000
0000
0000
0001
0000
0000
0000
0000
0000
0000
0000
0000
1000
0000
0000
0000
0000
0000
0000
0000
0000
0000
0010
0000
0000
0000
0000
0000
0000
0000
0000
1000
0000
0000
0000
0000
0000
0000
0000
0000
0000
0001
0000
0000
0000
0000
0000
0000
0000
0000
0000
0010
0000
0000
0000
0000
0000
0000
0000
0000
0001
0000
0000
0000
0000
0000
0000
0000
0000
0000
1000
0000
0000
0000
0000
0000
0000
0000
0000
0010
0000
0000
0000
0000
0000
0000
0000
0000
0000
0100
0000
0000
0000
0000
0000
0000
0000
0000
0000
0010
0000
0000
0000
0000
0000
0000
0000
0000
1000
0000
0000
0000
0000
0000
0000
0000
0000
0000
,
0001
0000
0000
0000
0000
0000
0000
0000
0000
0100
0000
0000
0000
0000
0000
0000
0000
0000
0000
0001
0000
0000
0000
0000
0000
0000
0000
0000
0000
0010
0000
0000
0000
0000
0000
0000
0000
0000
0001
0000
0000
0000
0000
0000
0000
0000
0000
0000
1000
0000
0000
0000
0000
0000
0000
0000
0000
0010
0000
0000
0000
0000
0000
0000
0000
0000
0000
0100
0000
0000
0000
0000
0000
0000
0000
0000
0000
0001
0000
0000
0000
0000
0000
0000
0000
0000
1000
0000
0000
0000
0000
0000
0000
0000
0000
0000
0001
0000
0000
0000
0000
0000
0000
0000
0000
0010
0000
0000
0000
0000
0000
0000
0000
0000
0000
0100
0000
0000
0000
0000
0000
0000
0000
0000
0000
0010
0000
0000
0000
0000
0000
0000
0000
0000
0001
0000
0000
0000
0000
0000
0000
0000
0000
0000
1000
0000
0000
0000
0000
0000
0000
0000
0000
0010
0000
0000
0000
0000
0000
0000
0000
0000
0000
0100
0000
0000
0000
0000
0000
0000
0000
0000
0000
0001
0000
0000
0000
0000
0000
0000
0000
0000
1000
0000
0000
0000
0000
0000
0000
0000
0000
0000
,
0100
0000
0000
0000
0000
0000
0000
0000
0000
1000
0000
0000
0000
0000
0000
0000
0000
0000
0000
0010
0000
0000
0000
0000
0000
0000
0000
0000
0000
0100
0000
0000
0000
0000
0000
0000
0000
0000
0010
0000
0000
0000
0000
0000
0000
0000
0000
0000
1000
0000
0000
0000
0000
0000
0000
0000
0000
0001
0000
0000
0000
0000
0000
0000
0000
0000
0000
0010
0000
0000
0000
0000
0000
0000
0000
0000
0000
0001
0000
0000
0000
0000
0000
0000
0000
0000
1000
0000
0000
0000
0000
0000
0000
0000
0000
0000
0100
0000
0000
0000
0000
0000
0000
0000
0000
1000
0000
0000
0000
0000
0000
0000
0000
0000
0000
0001
0000
0000
0000
0000
0000
0000
0000
0000
0000
0100
0000
0000
0000
0000
0000
0000
0000
0000
0001
0000
0000
0000
0000
0000
0000
0000
0000
0000
1000
0000
0000
0000
0000
0000
0000
0000
0000
0100
0000
0000
0000
0000
0000
0000
0000
0000
0000
0010
0000
0000
0000
0000
0000
0000
0000
0000
0000
0001
0000
0000
0000
0000
0000
0000
0000
0000
1000
0000
0000
0000
0000
0000
0000
0000
0000
0000
,
0100
0000
0000
0000
0000
0000
0000
0000
0000
1000
0000
0000
0000
0000
0000
0000
0000
0000
0000
0010
0000
0000
0000
0000
0000
0000
0000
0000
0000
1000
0000
0000
0000
0000
0000
0000
0000
0000
0001
0000
0000
0000
0000
0000
0000
0000
0000
0000
0010
0000
0000
0000
0000
0000
0000
0000
0000
0100
0000
0000
0000
0000
0000
0000
0000
0000
0000
1000
0000
0000
0000
0000
0000
0000
0000
0000
0000
0001
0000
0000
0000
0000
0000
0000
0000
0000
1000
0000
0000
0000
0000
0000
0000
0000
0000
0000
0010
0000
0000
0000
0000
0000
0000
0000
0000
0100
0000
0000
0000
0000
0000
0000
0000
0000
0000
0001
0000
0000
0000
0000
0000
0000
0000
0000
0000
1000
0000
0000
0000
0000
0000
0000
0000
0000
0001
0000
0000
0000
0000
0000
0000
0000
0000
0000
0010
0000
0000
0000
0000
0000
0000
0000
0000
0100
0000
0000
0000
0000
0000
0000
0000
0000
0000
1000
0000
0000
0000
0000
0000
0000
0000
0000
0000
0001
0000
0000
0000
0000
0000
0000
0000
0000
0100
0000
0000
0000
0000
0000
0000
0000
0000
0000
,
0001
0000
0000
0000
0000
0000
0000
0000
0000
0010
0000
0000
0000
0000
0000
0000
0000
0000
0000
0100
0000
0000
0000
0000
0000
0000
0000
0000
0000
0010
0000
0000
0000
0000
0000
0000
0000
0001
0000
0000
0000
0000
0000
0000
0000
0000
0000
0000
1000
0000
0000
0000
0000
0000
0000
0000
0000
0010
0000
0000
0000
0000
0000
0000
0000
0000
0000
1000
0000
0000
0000
0000
0000
0000
0000
0000
0000
0001
0000
0000
0000
0000
0000
0000
0000
0000
0100
0000
0000
0000
0000
0000
0000
0000
0000
0000
0001
0000
0000
0000
0000
0000
0000
0000
0000
1000
0000
0000
0000
0000
0000
0000
0000
0000
0000
0100
0000
0000
0000
0000
0000
0000
0000
0000
0000
1000
0000
0000
0000
0000
0000
0000
0000
0001
0000
0000
0000
0000
0000
0000
0000
0000
0000
0000
0100
0000
0000
0000
0000
0000
0000
0000
0000
0010
0000
0000
0000
0000
0000
0000
0000
0000
0000
1000
0000
0000
0000
0000
0000
0000
0000
0000
0000
0001
0000
0000
0000
0000
0000
0000
0000
0000
0100
0000
0000
0000
0000
0000
0000
0000
0000
0000
,
0001
1000
0010
0100
0001
1000
0100
1000
0001
0010
0100
0010
0001
0100
0010
1000
,
0001
0010
0001
1000
0100
1000
0010
0100
0001
1000
0001
0010
0100
1000
0010
1000
,
0001
0100
0010
1000
0001
1000
0100
1000
0001
0010
0100
0010
0001
0100
0010
1000
,
0001
0010
0001
1000
0100
1000
0010
0100
0001
1000
0001
0010
0100
1000
0010
1000
,
0001
0100
0010
1000
0001
1000
0100
1000
0001
0010
0100
0010
0001
1000
0001
0100
0010
1000
0001
1000
0100
1000
0001
0010
,
0100
1000
0001
1000
0010
1000
0001
0100
0010
1000
0001
1000
0100
1000
0001
0010
0001
1000
0010
0100
0001
1000
0100
1000
,
0001
0100
0010
1000
0001
1000
0100
1000
0001
0010
0100
0010
0001
0100
0010
1000
,
0001
0010
0001
1000
0100
1000
0010
0100
0001
1000
0001
0010
0100
1000
0010
1000
,
0001
0010
0100
1000
0001
1000
0010
1000
0001
0100
0010
0100
0001
0010
0100
1000
,
0001
0100
0001
1000
0010
1000
0100
0010
0001
1000
0001
0100
0010
1000
0100
1000
,
0001
0010
0100
1000
0001
1000
0010
1000
0001
0100
0010
0100
0001
0010
0100
1000
,
0001
0100
0001
1000
0010
1000
0100
0010
0001
1000
0001
0100
0010
1000
0100
1000
,
0001
0010
0100
1000
0001
1000
0010
1000
0001
0100
0010
0100
0001
1000
0001
0010
0100
1000
0001
1000
0010
1000
0001
0100
,
0010
1000
0001
1000
0100
1000
0001
0010
0100
1000
0001
1000
0010
1000
0001
0100
0001
1000
0100
0010
0001
1000
0010
1000
,
0001
0010
0100
1000
0001
1000
0010
1000
0001
0100
0010
0100
0001
0010
0100
1000
,
0001
0100
0001
1000
0010
1000
0100
0010
0001
1000
0001
0100
0010
1000
0100
1000
,
0001
0100
0001
0100
0001
0100
0010
0100
,
0001
1000
0100
1000
0100
1000
0100
1000
,
0001
0010
0001
0010
0001
0010
0001
0010
,
0001
0100
0010
0100
0010
0100
0010
0100
,
0001
1000
0001
1000
0001
1000
0001
1000
,
0010
0100
0001
0100
0010
0100
0001
0100
,
0010
1000
0001
1000
0100
1000
0001
0200
,
0000
0000
0000
0000
,
0000
0000
0000
0000
,
0000
0000
0000
0000
,
0000
0000
0000
0000
,
0000
0000
0000
0000
0000
0000
0000
0300
;

//---------------dance-single - Mad Matt----------------
#NOTES:
     dance-single:
     Mad Matt:
     Easy:
     17:
     1.000,1.000,0.006,0.278,1.000,1544.000,1.000,43.000,0.000,0.000:





0000
0000
0000
0000
,
0000
0000
0000
0000
,
1000
0000
0010
0100
0001
0000
1000
0000
0001
0100
0010
0000
1000
0000
0001
0000
,
1000
0000
0100
0010
0001
0000
1000
0000
0001
0010
0100
0000
1000
0000
0001
0000
,
0100
0000
0010
1000
0001
0000
0100
0000
0010
1000
0001
0000
0010
0000
0100
0000
,
1000
0000
0001
0100
0001
0000
0100
0000
0010
0100
0010
0000
0100
0000
0001
0000
,
1000
0100
1000
0010
1000
0001
0100
0010
1000
0001
0100
0001
0010
0001
1000
0010
,
0200
0000
0300
0010
0100
0001
0100
0010
,
1000
0010
0100
0001
1000
0001
0010
0001
1000
0100
1000
0001
0100
0000
0000
0000
,
0001
0010
0100
1000
0010
0100
0001
1000
0100
0010
0001
0100
0010
1000
0001
0010
,
0001
0000
0000
0000
0000
0000
0000
0000
0000
1000
0000
0000
0000
0000
0000
0000
0000
0000
0000
0010
0000
0000
0000
0000
0000
0000
0000
0000
0000
0100
0000
0000
0000
0000
0000
0000
0000
0000
0001
0000
0000
0000
0000
0000
0000
0000
0000
0000
1000
0000
0000
0000
0000
0000
0000
0000
0000
0100
0000
0000
0000
0000
0000
0000
0000
0000
0000
1000
0000
0000
0000
0000
0000
0000
0000
0000
0000
0001
0000
0000
0000
0000
0000
0000
0000
0000
0100
0000
0000
0000
0000
0000
0000
0000
0000
0000
0020
0000
0000
0000
0000
0000
0000
0000
0000
0000
0000
0000
0000
0000
0000
0000
0000
0000
0000
0000
0000
0000
0000
0000
0030
0000
0000
0000
0000
0000
0000
0000
0000
0000
0000
0000
0000
0000
0000
0000
0000
0000
0000
0000
0000
0000
0000
0000
0000
0000
0000
0000
0000
0000
0000
0000
0000
0000
0000
0000
0000
0000
0000
0000
0000
0000
0000
0000
0000
0000
0000
0000
0000
0000
0000
0000
0000
0000
0000
0000
0000
0000
0000
0000
0000
0000
0000
0000
0000
0000
0000
0000
0000
0000
0000
0000
,
1000
0100
0010
0001
1000
0000
0020
0000
2030
0000
3002
0000
2003
0000
3200
0000
,
0320
0000
0000
0230
0000
0000
0320
0000
0000
0032
0000
0000
0203
0000
0000
0302
0000
0000
1003
0100
0010
0001
0000
0000
,
1000
0010
0100
0001
1000
0001
0010
0001
1000
0100
0010
0100
1000
0010
0100
0001
,
1000
0100
1000
0001
0010
0001
0100
0010
1000
0001
1000
0100
0010
0001
0100
0001
,
1000
0010
0100
0001
1000
0001
0010
0001
1000
0100
0010
0100
1000
0010
0100
0001
,
1000
0100
1000
0001
0010
0001
0100
0010
1000
0001
1000
0100
0010
0001
0100
0001
,
1000
0000
0000
0000
0000
0000
0000
0000
0000
0100
0000
0000
0000
0000
0000
0000
0000
0000
0000
0010
0000
0000
0000
0000
0000
0000
0000
0000
0000
0001
0000
0000
0000
0000
0000
0000
0000
0000
1000
0000
0000
0000
0000
0000
0000
0000
0000
0000
0010
0000
0000
0000
0000
0000
0000
0000
0000
0100
0000
0000
0000
0000
0000
0000
0000
0000
0000
0010
0000
0000
0000
0000
0000
0000
0000
0000
0000
1000
0000
0000
0000
0000
0000
0000
0000
0000
0001
0000
0000
0000
0000
0000
0000
0000
0000
0000
1000
0000
0000
0000
0000
0000
0000
0000
0000
0100
0000
0000
0000
0000
0000
0000
0000
0000
0000
0010
0000
0000
0000
0000
0000
0000
0000
0000
0000
0001
0000
0000
0000
0000
0000
0000
0000
0000
0100
0000
0000
0000
0000
0000
0000
0000
0000
0000
0001
0000
0000
0000
0000
0000
0000
0000
0000
1000
0000
0000
0000
0000
0000
0000
0000
0000
0000
0010
0000
0000
0000
0000
0000
0000
0000
0000
0000
1000
0000
0000
0000
0000
0000
0000
0000
0000
0001
0000
0000
0000
0000
0000
0000
0000
0000
0000
,
0010
0000
0000
0000
0000
0000
0000
0000
0000
0100
0000
0000
0000
0000
0000
0000
0000
0000
0000
1000
0000
0000
0000
0000
0000
0000
0000
0000
0000
0001
0000
0000
0000
0000
0000
0000
0000
0000
0100
0000
0000
0000
0000
0000
0000
0000
0000
0000
0010
0000
0000
0000
0000
0000
0000
0000
0000
0100
0000
0000
0000
0000
0000
0000
0000
0000
0000
0001
0000
0000
0000
0000
0000
0000
0000
0000
0000
1000
0000
0000
0000
0000
0000
0000
0000
0000
0010
0000
0000
0000
0000
0000
0000
0000
0000
0000
1000
0000
0000
0000
0000
0000
0000
0000
0000
0001
0000
0000
0000
0000
0000
0000
0000
0000
0000
0010
0000
0000
0000
0000
0000
0000
0000
0000
0000
0100
0000
0000
0000
0000
0000
0000
0000
0000
1000
0000
0000
0000
0000
0000
0000
0000
0000
0000
0001
0000
0000
0000
0000
0000
0000
0000
0000
0100
0000
0000
0000
0000
0000
0000
0000
0000
0000
0001
0000
0000
0000
0000
0000
0000
0000
0000
0000
1000
0000
0000
0000
0000
0000
0000
0000
0000
0100
0000
0000
0000
0000
0000
0000
0000
0000
0000
,
1000
0010
0100
0001
1000
0001
0010
0001
1000
0100
0010
0100
1000
0010
0100
0001
,
1000
0100
1000
0001
0010
0001
0100
0010
1000
0001
1000
0100
0010
0001
0100
0001
,
2000
3010
0100
0001
1000
0100
0020
0031
,
2000
0000
3010
0000
0100
0000
0001
0000
0010
0000
0100
0000
1000
0000
0010
0100
,
0002
1003
0100
1000
0001
0010
0200
1300
,
0020
0130
0001
1000
0100
0010
0100
1000
,
0020
0130
0001
1000
0100
1000
0020
0130
,
0020
0000
0130
0000
0001
0000
1000
0000
0100
0000
0010
0100
1000
0010
1000
0001
,
0020
0130
1000
0001
0100
0001
0020
0130
,
2000
3001
0100
0010
1000
0001
0010
0100
,
2000
0000
0000
0000
,
0000
0000
0001
0000
0000
0001
0000
0000
0001
0000
0000
0001
0000
3000
0001
0000
,
1000
0010
0100
0001
1000
0001
0010
0100
1000
0001
1000
0010
0100
0001
1000
0001
,
0010
0100
1000
0001
1000
0010
0100
0001
1000
0001
0010
0100
0010
0001
0100
0001
,
1000
0010
0100
0001
1000
0001
0010
0001
1000
0100
0010
0100
1000
0010
0100
0001
,
1000
0100
1000
0001
0010
0001
0100
0010
1000
0001
1000
0100
0010
0001
0100
0001
,
1000
0010
0100
0001
1000
0001
0010
0001
1000
0100
0010
0100
1000
0010
0100
0001
,
1000
0100
1000
0001
0010
0001
0100
0010
1000
0001
1000
0100
0010
0001
0100
0001
,
1000
0000
0000
0000
0000
0000
0000
0000
0000
0100
0000
0000
0000
0000
0000
0000
0000
0000
0000
0010
0000
0000
0000
0000
0000
0000
0000
0000
0000
0001
0000
0000
0000
0000
0000
0000
0000
0000
1000
0000
0000
0000
0000
0000
0000
0000
0000
0000
0010
0000
0000
0000
0000
0000
0000
0000
0000
0100
0000
0000
0000
0000
0000
0000
0000
0000
0000
0010
0000
0000
0000
0000
0000
0000
0000
0000
0000
1000
0000
0000
0000
0000
0000
0000
0000
0000
0001
0000
0000
0000
0000
0000
0000
0000
0000
0000
1000
0000
0000
0000
0000
0000
0000
0000
0000
0100
0000
0000
0000
0000
0000
0000
0000
0000
0000
0010
0000
0000
0000
0000
0000
0000
0000
0000
0000
0001
0000
0000
0000
0000
0000
0000
0000
0000
0100
0000
0000
0000
0000
0000
0000
0000
0000
0000
0001
0000
0000
0000
0000
0000
0000
0000
0000
1000
0000
0000
0000
0000
0000
0000
0000
0000
0000
0010
0000
0000
0000
0000
0000
0000
0000
0000
0000
1000
0000
0000
0000
0000
0000
0000
0000
0000
0001
0000
0000
0000
0000
0000
0000
0000
0000
0000
,
0010
0000
0000
0000
0000
0000
0000
0000
0000
0100
0000
0000
0000
0000
0000
0000
0000
0000
0000
1000
0000
0000
0000
0000
0000
0000
0000
0000
0000
0001
0000
0000
0000
0000
0000
0000
0000
0000
0100
0000
0000
0000
0000
0000
0000
0000
0000
0000
0010
0000
0000
0000
0000
0000
0000
0000
0000
0100
0000
0000
0000
0000
0000
0000
0000
0000
0000
0001
0000
0000
0000
0000
0000
0000
0000
0000
0000
1000
0000
0000
0000
0000
0000
0000
0000
0000
0010
0000
0000
0000
0000
0000
0000
0000
0000
0000
1000
0000
0000
0000
0000
0000
0000
0000
0000
0001
0000
0000
0000
0000
0000
0000
0000
0000
0000
0010
0000
0000
0000
0000
0000
0000
0000
0000
0000
0100
0000
0000
0000
0000
0000
0000
0000
0000
1000
0000
0000
0000
0000
0000
0000
0000
0000
0000
0001
0000
0000
0000
0000
0000
0000
0000
0000
0100
0000
0000
0000
0000
0000
0000
0000
0000
0000
0001
0000
0000
0000
0000
0000
0000
0000
0000
0000
1000
0000
0000
0000
0000
0000
0000
0000
0000
0100
0000
0000
0000
0000
0000
0000
0000
0000
0000
,
1000
0010
0100
0001
1000
0001
0010
0001
1000
0100
0010
0100
1000
0010
0100
0001
,
1000
0100
1000
0001
0010
0001
0100
0010
1000
0001
1000
0100
0010
0001
0100
0001
,
1000
0100
0010
0001
1000
0001
0100
0001
1000
0010
0100
0010
1000
0100
0010
0001
,
1000
0010
1000
0001
0100
0001
0010
0100
1000
0001
1000
0010
0100
0001
0010
0001
,
1000
0100
0010
0001
1000
0001
0100
0001
1000
0010
0100
0010
1000
0100
0010
0001
,
1000
0010
1000
0001
0100
0001
0010
0100
1000
0001
1000
0010
0100
0001
0010
0001
,
1000
0000
0000
0000
0000
0000
0000
0000
0000
0010
0000
0000
0000
0000
0000
0000
0000
0000
0000
0100
0000
0000
0000
0000
0000
0000
0000
0000
0000
0001
0000
0000
0000
0000
0000
0000
0000
0000
1000
0000
0000
0000
0000
0000
0000
0000
0000
0000
0100
0000
0000
0000
0000
0000
0000
0000
0000
0010
0000
0000
0000
0000
0000
0000
0000
0000
0000
0100
0000
0000
0000
0000
0000
0000
0000
0000
0000
1000
0000
0000
0000
0000
0000
0000
0000
0000
0001
0000
0000
0000
0000
0000
0000
0000
0000
0000
1000
0000
0000
0000
0000
0000
0000
0000
0000
0010
0000
0000
0000
0000
0000
0000
0000
0000
0000
0100
0000
0000
0000
0000
0000
0000
0000
0000
0000
0001
0000
0000
0000
0000
0000
0000
0000
0000
0010
0000
0000
0000
0000
0000
0000
0000
0000
0000
0001
0000
0000
0000
0000
0000
0000
0000
0000
1000
0000
0000
0000
0000
0000
0000
0000
0000
0000
0100
0000
0000
0000
0000
0000
0000
0000
0000
0000
1000
0000
0000
0000
0000
0000
0000
0000
0000
0001
0000
0000
0000
0000
0000
0000
0000
0000
0000
,
0100
0000
0000
0000
0000
0000
0000
0000
0000
0010
0000
0000
0000
0000
0000
0000
0000
0000
0000
1000
0000
0000
0000
0000
0000
0000
0000
0000
0000
0001
0000
0000
0000
0000
0000
0000
0000
0000
0010
0000
0000
0000
0000
0000
0000
0000
0000
0000
0100
0000
0000
0000
0000
0000
0000
0000
0000
0010
0000
0000
0000
0000
0000
0000
0000
0000
0000
0001
0000
0000
0000
0000
0000
0000
0000
0000
0000
1000
0000
0000
0000
0000
0000
0000
0000
0000
0100
0000
0000
0000
0000
0000
0000
0000
0000
0000
1000
0000
0000
0000
0000
0000
0000
0000
0000
0001
0000
0000
0000
0000
0000
0000
0000
0000
0000
0100
0000
0000
0000
0000
0000
0000
0000
0000
0000
0010
0000
0000
0000
0000
0000
0000
0000
0000
1000
0000
0000
0000
0000
0000
0000
0000
0000
0000
0001
0000
0000
0000
0000
0000
0000
0000
0000
0010
0000
0000
0000
0000
0000
0000
0000
0000
0000
0001
0000
0000
0000
0000
0000
0000
0000
0000
0000
1000
0000
0000
0000
0000
0000
0000
0000
0000
0010
0000
0000
0000
0000
0000
0000
0000
0000
0000
,
1000
0100
0010
0001
1000
0001
0100
0001
1000
0010
0100
0010
1000
0100
0010
0001
,
1000
0010
1000
0001
0100
0001
0010
0100
1000
0001
1000
0010
0100
0001
0010
0001
,
1000
0000
0000
0000
0000
0000
0000
0000
0000
0000
0010
0000
0000
0000
0000
0000
0000
0000
0000
0100
0000
0000
0000
0000
0000
0000
0000
0000
0000
0001
0000
0000
0000
0000
0000
0000
0000
0000
1000
0000
0000
0000
0000
0000
0000
0000
0000
0000
0100
0000
0000
0000
0000
0000
0000
0000
0000
0010
0000
0000
0000
0000
0000
0000
0000
0000
0000
0100
0000
0000
0000
0000
0000
0000
0000
0000
0000
1000
0000
0000
0000
0000
0000
0000
0000
0000
0001
0000
0000
0000
0000
0000
0000
0000
0000
0000
0400
0000
0000
0000
0000
0000
0000
0000
0000
0000
0000
0000
0000
0000
0000
0000
0000
0000
0000
0000
0000
0000
0000
0000
0000
0000
0000
0000
0000
0000
0000
0000
0000
0000
0000
0000
0000
0000
0000
0000
0000
0000
0000
0000
0000
0000
0000
0000
0000
0000
0000
0000
0000
0000
0000
0000
0000
0000
0000
0000
0000
0000
0000
0000
0000
0000
0000
0000
0000
0000
0000
0000
0000
0000
0000
0000
0000
0000
0000
0000
0000
0000
0000
0000
0000
0000
0000
0000
0000
0000
0000
0000
0000
0000
0000
0000
,
0301
1000
0010
1000
0001
0010
0001
0100
0001
1000
0100
0010
0100
1000
0010
1000
,
0001
0010
0100
0010
0001
1000
0001
0100
0010
1000
0001
0010
0001
1000
0100
1000
,
0001
0000
0000
0010
0100
1000
0001
0000
0000
0100
0010
0100
0001
0000
0000
1000
0100
0010
0001
0000
0000
1000
0010
0100
,
0010
0000
0000
0000
0000
0000
0000
0000
0000
0000
0000
0000
1000
0000
0000
0000
0000
0000
0000
0000
0000
0000
0000
0000
0001
0000
0000
0000
0000
0000
0000
0000
0000
0000
0000
0000
0010
0000
0000
0000
0000
0000
0000
0000
0000
0000
0000
0000
0100
0000
0000
0000
0000
0000
0000
0000
0000
0000
0000
0000
1000
0000
0000
0000
0000
0000
0000
0000
0000
0000
0000
0000
0001
0000
0000
0000
0000
0000
0000
0000
0000
0000
0000
0000
0100
0000
0000
0000
0000
0000
0000
0000
0000
0000
0000
0000
0010
0000
0000
0000
0000
0000
0000
0000
0000
1000
0000
0000
0000
0000
0000
0000
0000
0000
0000
0001
0000
0000
0000
0000
0000
0000
0000
0000
0000
1000
0000
0000
0000
0000
0000
0000
0000
0000
0100
0000
0000
0000
0000
0000
0000
0000
0000
0000
0010
0000
0000
0000
0000
0000
0000
0000
0000
0001
0000
0000
0000
0000
0000
0000
0000
0000
0000
1000
0000
0000
0000
0000
0000
0000
0000
0000
0000
0010
0000
0000
0000
0000
0000
0000
0000
0000
0000
0100
0000
0000
0000
0000
0000
0000
0000
0000
,
0001
0010
0001
0100
0001
1000
0010
0100
0001
1000
0010
1000
0001
0010
0100
1000
,
0001
0100
0001
0010
0001
1000
0100
0010
0001
1000
0100
1000
0001
0100
0010
1000
,
0001
0010
0100
1000
0010
1000
0001
0100
0010
1000
0001
0100
0001
1000
0100
0010
,
0001
0000
0000
0000
0000
0000
0000
0000
0000
0000
1000
0000
0000
0000
0000
0000
0000
0000
0000
0010
0000
0000
0000
0000
0000
0000
0000
0000
0000
0100
0000
0000
0000
0000
0000
0000
0000
0000
0000
0010
0000
0000
0000
0000
0000
0000
0000
0000
1000
0000
0000
0000
0000
0000
0000
0000
0000
0001
0000
0000
0000
0000
0000
0000
0000
0000
0000
0010
0000
0000
0000
0000
0000
0000
0000
0000
0000
0001
0000
0000
0000
0000
0000
0000
0000
0000
0100
0000
0000
0000
0000
0000
0000
0000
0000
0000
0010
0000
0000
0000
0000
0000
0000
0000
0000
0000
0100
0000
0000
0000
0000
0000
0000
0000
0000
0001
0000
0000
0000
0000
0000
0000
0000
0000
0000
1000
0000
0000
0000
0000
0000
0000
0000
0000
0001
0000
0000
0000
0000
0000
0000
0000
0000
0000
0010
0000
0000
0000
0000
0000
0000
0000
0000
0001
0000
0000
0000
0000
0000
0000
0000
0000
0000
1000
0000
0000
0000
0000
0000
0000
0000
0000
0000
0010
0000
0000
0000
0000
0000
0000
0000
0000
0100
0000
0000
0000
0000
0000
0000
0000
0000
0000
,
0001
1000
0100
1000
0010
1000
0001
0010
0100
1000
0010
0100
0001
1000
0100
1000
,
0010
1000
0001
0010
0100
1000
0010
0100
0001
1000
0001
0010
0100
0000
0000
0000
,
1000
0010
0100
0001
,
1000
0100
0010
0001
,
2000
0000
0010
3000
0010
0000
2000
0000
0001
3000
0001
0000
2000
0000
0100
3000
,
0100
0000
2000
0000
3001
0000
1000
0000
0010
0000
0100
0000
0001
0000
0100
0010
,
2000
0000
0100
3000
0100
0000
2000
0000
0001
3000
0001
0000
2000
0000
0010
3000
,
0010
0000
2000
0000
3010
0000
1000
0000
0001
0000
0010
0000
0001
0000
1000
0100
,
0020
0000
0001
0030
0001
0000
0020
0000
0100
0030
0100
0000
2000
0000
0010
3000
,
0010
0000
2000
0000
3001
0000
0010
0000
0100
0000
1000
0000
0001
0000
1000
0010
,
0200
0000
0001
0300
0001
0000
2000
0000
0100
3000
0100
0000
0020
0000
0001
0030
,
0001
0200
0310
0100
0010
0100
0010
0100
,
0001
1000
0100
0010
0001
0100
0010
1000
0001
1000
0100
1000
0010
0100
0001
1000
,
0001
0010
0100
1000
0010
0100
0001
1000
0001
0010
0001
0100
0010
1000
0001
1000
,
0100
0000
1000
0001
0000
1000
0100
0000
1000
0010
0000
0100
,
0001
0000
1000
0100
0000
0010
0001
0000
0010
0100
0000
1000
,
0010
0000
0100
0001
0000
0100
0010
0000
1000
0010
0000
0100
,
0001
0000
1000
0100
0000
0010
0100
0000
1000
0001
0000
0100
,
0010
0000
1000
0001
0000
1000
0100
0000
0010
0001
0000
0010
,
0100
0000
1000
0010
0000
0100
0001
0000
1000
0001
0000
0010
,
0100
0000
0010
0001
0000
1000
0010
0000
0100
0001
0000
0100
,
0010
1000
0001
1000
0100
0010
0100
1000
0010
0100
0001
1000
,
0001
0010
0100
1000
0000
0001
0100
0000
0001
1000
0000
0001
,
0010
0000
0100
1000
0000
0100
0010
0000
0001
1000
0000
0010
,
0100
0001
1000
0100
0000
0010
0001
0000
0010
0100
0000
1000
,
0010
0000
0100
0001
0000
1000
0100
0000
1000
0010
0000
0100
,
0001
1000
0100
0010
0000
0001
0010
0000
0100
1000
0000
0010
,
0100
0000
0001
0100
0000
0010
1000
0000
0001
1000
0000
0100
,
0010
0001
0010
0100
0000
1000
0001
0000
0100
0010
0000
0100
,
0001
1000
0100
0010
0100
1000
0010
0100
0001
1000
0100
0010
,
0001
0000
0000
0000
0000
0000
0000
0000
0000
0000
1000
0000
0000
0000
0000
0000
0000
0000
0000
0010
0000
0000
0000
0000
0000
0000
0000
0000
0000
1000
0000
0000
0000
0000
0000
0000
0000
0000
0000
0100
0000
0000
0000
0000
0000
0000
0000
0000
1000
0000
0000
0000
0000
0000
0000
0000
0000
0000
0001
0000
0000
0000
0000
0000
0000
0000
0000
0100
0000
0000
0000
0000
0000
0000
0000
0000
0000
0010
0000
0000
0000
0000
0000
0000
0000
0000
0000
1000
0000
0000
0000
0000
0000
0000
0000
0000
0001
0000
0000
0000
0000
0000
0000
0000
0000
0000
1000
0000
0000
0000
0000
0000
0000
0000
0000
0100
0000
0000
0000
0000
0000
0000
0000
0000
0000
0010
0000
0000
0000
0000
0000
0000
0000
0000
0100
0000
0000
0000
0000
0000
0000
0000
0000
0000
1000
0000
0000
0000
0000
0000
0000
0000
0000
0000
0001
0000
0000
0000
0000
0000
0000
0000
0000
0100
0000
0000
0000
0000
0000
0000
0000
0000
0000
0010
0000
0000
0000
0000
0000
0000
0000
0000
1000
0000
0000
0000
0000
0000
0000
0000
0000
0000
,
0001
0000
0000
0000
0000
0000
0000
0000
0000
0000
0010
0000
0000
0000
0000
0000
0000
0000
0000
0001
0000
0000
0000
0000
0000
0000
0000
0000
0000
0100
0000
0000
0000
0000
0000
0000
0000
0000
0010
0000
0000
0000
0000
0000
0000
0000
0000
0000
0100
0000
0000
0000
0000
0000
0000
0000
0000
0001
0000
0000
0000
0000
0000
0000
0000
0000
0000
1000
0000
0000
0000
0000
0000
0000
0000
0000
0000
0100
0000
0000
0000
0000
0000
0000
0000
0000
0000
1000
0000
0000
0000
0000
0000
0000
0000
0000
0001
0000
0000
0000
0000
0000
0000
0000
0000
0000
0010
0000
0000
0000
0000
0000
0000
0000
0000
0001
0000
0000
0000
0000
0000
0000
0000
0000
0000
1000
0000
0000
0000
0000
0000
0000
0000
0000
0010
0000
0000
0000
0000
0000
0000
0000
0000
0000
1000
0000
0000
0000
0000
0000
0000
0000
0000
0001
0000
0000
0000
0000
0000
0000
0000
0000
0000
0010
0000
0000
0000
0000
0000
0000
0000
0000
0000
0100
0000
0000
0000
0000
0000
0000
0000
0000
1000
0000
0000
0000
0000
0000
0000
0000
0000
0000
,
0001
0000
0000
0000
0000
0000
0000
0000
0000
0010
0000
0000
0000
0000
0000
0000
0000
0000
0000
0001
0000
0000
0000
0000
0000
0000
0000
0000
0000
0100
0000
0000
0000
0000
0000
0000
0000
0000
0001
0000
0000
0000
0000
0000
0000
0000
0000
0000
1000
0000
0000
0000
0000
0000
0000
0000
0000
0100
0000
0000
0000
0000
0000
0000
0000
0000
0000
0010
0000
0000
0000
0000
0000
0000
0000
0000
0000
0001
0000
0000
0000
0000
0000
0000
0000
0000
1000
0000
0000
0000
0000
0000
0000
0000
0000
0000
0001
0000
0000
0000
0000
0000
0000
0000
0000
0100
0000
0000
0000
0000
0000
0000
0000
0000
0000
0010
0000
0000
0000
0000
0000
0000
0000
0000
0000
1000
0000
0000
0000
0000
0000
0000
0000
0000
0001
0000
0000
0000
0000
0000
0000
0000
0000
0000
1000
0000
0000
0000
0000
0000
0000
0000
0000
0100
0000
0000
0000
0000
0000
0000
0000
0000
0000
0010
0000
0000
0000
0000
0000
0000
0000
0000
0000
0001
0000
0000
0000
0000
0000
0000
0000
0000
1000
0000
0000
0000
0000
0000
0000
0000
0000
0000
,
0010
0000
0000
0000
0000
0000
0000
0000
0000
1000
0000
0000
0000
0000
0000
0000
0000
0000
0000
0100
0000
0000
0000
0000
0000
0000
0000
0000
0000
0010
0000
0000
0000
0000
0000
0000
0000
0000
0100
0000
0000
0000
0000
0000
0000
0000
0000
0000
1000
0000
0000
0000
0000
0000
0000
0000
0000
0001
0000
0000
0000
0000
0000
0000
0000
0000
0000
0100
0000
0000
0000
0000
0000
0000
0000
0000
0000
0001
0000
0000
0000
0000
0000
0000
0000
0000
1000
0000
0000
0000
0000
0000
0000
0000
0000
0000
0010
0000
0000
0000
0000
0000
0000
0000
0000
1000
0000
0000
0000
0000
0000
0000
0000
0000
0000
0001
0000
0000
0000
0000
0000
0000
0000
0000
0000
0010
0000
0000
0000
0000
0000
0000
0000
0000
0001
0000
0000
0000
0000
0000
0000
0000
0000
0000
1000
0000
0000
0000
0000
0000
0000
0000
0000
0010
0000
0000
0000
0000
0000
0000
0000
0000
0000
0100
0000
0000
0000
0000
0000
0000
0000
0000
0000
0010
0000
0000
0000
0000
0000
0000
0000
0000
1000
0000
0000
0000
0000
0000
0000
0000
0000
0000
,
0001
0000
0000
0000
0000
0000
0000
0000
0000
0100
0000
0000
0000
0000
0000
0000
0000
0000
0000
0001
0000
0000
0000
0000
0000
0000
0000
0000
0000
0010
0000
0000
0000
0000
0000
0000
0000
0000
0001
0000
0000
0000
0000
0000
0000
0000
0000
0000
1000
0000
0000
0000
0000
0000
0000
0000
0000
0010
0000
0000
0000
0000
0000
0000
0000
0000
0000
0100
0000
0000
0000
0000
0000
0000
0000
0000
0000
0001
0000
0000
0000
0000
0000
0000
0000
0000
1000
0000
0000
0000
0000
0000
0000
0000
0000
0000
0001
0000
0000
0000
0000
0000
0000
0000
0000
0010
0000
0000
0000
0000
0000
0000
0000
0000
0000
0100
0000
0000
0000
0000
0000
0000
0000
0000
0000
0010
0000
0000
0000
0000
0000
0000
0000
0000
0001
0000
0000
0000
0000
0000
0000
0000
0000
0000
1000
0000
0000
0000
0000
0000
0000
0000
0000
0010
0000
0000
0000
0000
0000
0000
0000
0000
0000
0100
0000
0000
0000
0000
0000
0000
0000
0000
0000
0001
0000
0000
0000
0000
0000
0000
0000
0000
1000
0000
0000
0000
0000
0000
0000
0000
0000
0000
,
0100
0000
0000
0000
0000
0000
0000
0000
0000
1000
0000
0000
0000
0000
0000
0000
0000
0000
0000
0010
0000
0000
0000
0000
0000
0000
0000
0000
0000
0100
0000
0000
0000
0000
0000
0000
0000
0000
0010
0000
0000
0000
0000
0000
0000
0000
0000
0000
1000
0000
0000
0000
0000
0000
0000
0000
0000
0001
0000
0000
0000
0000
0000
0000
0000
0000
0000
0010
0000
0000
0000
0000
0000
0000
0000
0000
0000
0001
0000
0000
0000
0000
0000
0000
0000
0000
1000
0000
0000
0000
0000
0000
0000
0000
0000
0000
0100
0000
0000
0000
0000
0000
0000
0000
0000
1000
0000
0000
0000
0000
0000
0000
0000
0000
0000
0001
0000
0000
0000
0000
0000
0000
0000
0000
0000
0100
0000
0000
0000
0000
0000
0000
0000
0000
0001
0000
0000
0000
0000
0000
0000
0000
0000
0000
1000
0000
0000
0000
0000
0000
0000
0000
0000
0100
0000
0000
0000
0000
0000
0000
0000
0000
0000
0010
0000
0000
0000
0000
0000
0000
0000
0000
0000
0001
0000
0000
0000
0000
0000
0000
0000
0000
1000
0000
0000
0000
0000
0000
0000
0000
0000
0000
,
0100
0000
0000
0000
0000
0000
0000
0000
0000
1000
0000
0000
0000
0000
0000
0000
0000
0000
0000
0010
0000
0000
0000
0000
0000
0000
0000
0000
0000
1000
0000
0000
0000
0000
0000
0000
0000
0000
0001
0000
0000
0000
0000
0000
0000
0000
0000
0000
0010
0000
0000
0000
0000
0000
0000
0000
0000
0100
0000
0000
0000
0000
0000
0000
0000
0000
0000
1000
0000
0000
0000
0000
0000
0000
0000
0000
0000
0001
0000
0000
0000
0000
0000
0000
0000
0000
1000
0000
0000
0000
0000
0000
0000
0000
0000
0000
0010
0000
0000
0000
0000
0000
0000
0000
0000
0100
0000
0000
0000
0000
0000
0000
0000
0000
0000
0001
0000
0000
0000
0000
0000
0000
0000
0000
0000
1000
0000
0000
0000
0000
0000
0000
0000
0000
0001
0000
0000
0000
0000
0000
0000
0000
0000
0000
0010
0000
0000
0000
0000
0000
0000
0000
0000
0100
0000
0000
0000
0000
0000
0000
0000
0000
0000
1000
0000
0000
0000
0000
0000
0000
0000
0000
0000
0001
0000
0000
0000
0000
0000
0000
0000
0000
0100
0000
0000
0000
0000
0000
0000
0000
0000
0000
,
0001
0000
0000
0000
0000
0000
0000
0000
0000
0010
0000
0000
0000
0000
0000
0000
0000
0000
0000
0100
0000
0000
0000
0000
0000
0000
0000
0000
0000
0010
0000
0000
0000
0000
0000
0000
0000
0001
0000
0000
0000
0000
0000
0000
0000
0000
0000
0000
1000
0000
0000
0000
0000
0000
0000
0000
0000
0010
0000
0000
0000
0000
0000
0000
0000
0000
0000
1000
0000
0000
0000
0000
0000
0000
0000
0000
0000
0001
0000
0000
0000
0000
0000
0000
0000
0000
0100
0000
0000
0000
0000
0000
0000
0000
0000
0000
0001
0000
0000
0000
0000
0000
0000
0000
0000
1000
0000
0000
0000
0000
0000
0000
0000
0000
0000
0100
0000
0000
0000
0000
0000
0000
0000
0000
0000
1000
0000
0000
0000
0000
0000
0000
0000
0001
0000
0000
0000
0000
0000
0000
0000
0000
0000
0000
0100
0000
0000
0000
0000
0000
0000
0000
0000
0010
0000
0000
0000
0000
0000
0000
0000
0000
0000
1000
0000
0000
0000
0000
0000
0000
0000
0000
0000
0001
0000
0000
0000
0000
0000
0000
0000
0000
0100
0000
0000
0000
0000
0000
0000
0000
0000
0000
,
0001
1000
0010
0100
0001
1000
0100
1000
0001
0010
0100
0010
0001
0100
0010
1000
,
0001
0010
0001
1000
0100
1000
0010
0100
0001
1000
0001
0010
0100
1000
0010
1000
,
0001
0100
0010
1000
0001
1000
0100
1000
0001
0010
0100
0010
0001
0100
0010
1000
,
0001
0010
0001
1000
0100
1000
0010
0100
0001
1000
0001
0010
0100
1000
0010
1000
,
0001
0000
0000
0000
0000
0000
0000
0000
0000
0010
0000
0000
0000
0000
0000
0000
0000
0000
0000
0100
0000
0000
0000
0000
0000
0000
0000
0000
0000
1000
0000
0000
0000
0000
0000
0000
0000
0000
0001
0000
0000
0000
0000
0000
0000
0000
0000
0000
0100
0000
0000
0000
0000
0000
0000
0000
0000
0010
0000
0000
0000
0000
0000
0000
0000
0000
0000
0100
0000
0000
0000
0000
0000
0000
0000
0000
0000
0001
0000
0000
0000
0000
0000
0000
0000
0000
1000
0000
0000
0000
0000
0000
0000
0000
0000
0000
0001
0000
0000
0000
0000
0000
0000
0000
0000
0010
0000
0000
0000
0000
0000
0000
0000
0000
0000
0100
0000
0000
0000
0000
0000
0000
0000
0000
0000
1000
0000
0000
0000
0000
0000
0000
0000
0000
0010
0000
0000
0000
0000
0000
0000
0000
0000
0000
1000
0000
0000
0000
0000
0000
0000
0000
0000
0001
0000
0000
0000
0000
0000
0000
0000
0000
0000
0100
0000
0000
0000
0000
0000
0000
0000
0000
0000
0001
0000
0000
0000
0000
0000
0000
0000
0000
1000
0000
0000
0000
0000
0000
0000
0000
0000
0000
,
0100
0000
0000
0000
0000
0000
0000
0000
0000
0010
0000
0000
0000
0000
0000
0000
0000
0000
0000
0001
0000
0000
0000
0000
0000
0000
0000
0000
0000
1000
0000
0000
0000
0000
0000
0000
0000
0000
0010
0000
0000
0000
0000
0000
0000
0000
0000
0000
0100
0000
0000
0000
0000
0000
0000
0000
0000
0010
0000
0000
0000
0000
0000
0000
0000
0000
0000
1000
0000
0000
0000
0000
0000
0000
0000
0000
0000
0001
0000
0000
0000
0000
0000
0000
0000
0000
0100
0000
0000
0000
0000
0000
0000
0000
0000
0000
0001
0000
0000
0000
0000
0000
0000
0000
0000
1000
0000
0000
0000
0000
0000
0000
0000
0000
0000
0100
0000
0000
0000
0000
0000
0000
0000
0000
0000
0010
0000
0000
0000
0000
0000
0000
0000
0000
0001
0000
0000
0000
0000
0000
0000
0000
0000
0000
1000
0000
0000
0000
0000
0000
0000
0000
0000
0010
0000
0000
0000
0000
0000
0000
0000
0000
0000
1000
0000
0000
0000
0000
0000
0000
0000
0000
0000
0001
0000
0000
0000
0000
0000
0000
0000
0000
0010
0000
0000
0000
0000
0000
0000
0000
0000
0000
,
0001
0100
0010
1000
0001
1000
0100
1000
0001
0010
0100
0010
0001
0100
0010
1000
,
0001
0010
0001
1000
0100
1000
0010
0100
0001
1000
0001
0010
0100
1000
0010
1000
,
0001
0010
0100
1000
0001
1000
0010
1000
0001
0100
0010
0100
0001
0010
0100
1000
,
0001
0100
0001
1000
0010
1000
0100
0010
0001
1000
0001
0100
0010
1000
0100
1000
,
0001
0010
0100
1000
0001
1000
0010
1000
0001
0100
0010
0100
0001
0010
0100
1000
,
0001
0100
0001
1000
0010
1000
0100
0010
0001
1000
0001
0100
0010
1000
0100
1000
,
0001
0000
0000
0000
0000
0000
0000
0000
0000
0100
0000
0000
0000
0000
0000
0000
0000
0000
0000
0010
0000
0000
0000
0000
0000
0000
0000
0000
0000
1000
0000
0000
0000
0000
0000
0000
0000
0000
0001
0000
0000
0000
0000
0000
0000
0000
0000
0000
0010
0000
0000
0000
0000
0000
0000
0000
0000
0100
0000
0000
0000
0000
0000
0000
0000
0000
0000
0010
0000
0000
0000
0000
0000
0000
0000
0000
0000
0001
0000
0000
0000
0000
0000
0000
0000
0000
1000
0000
0000
0000
0000
0000
0000
0000
0000
0000
0001
0000
0000
0000
0000
0000
0000
0000
0000
0100
0000
0000
0000
0000
0000
0000
0000
0000
0000
0010
0000
0000
0000
0000
0000
0000
0000
0000
0000
1000
0000
0000
0000
0000
0000
0000
0000
0000
0100
0000
0000
0000
0000
0000
0000
0000
0000
0000
1000
0000
0000
0000
0000
0000
0000
0000
0000
0001
0000
0000
0000
0000
0000
0000
0000
0000
0000
0010
0000
0000
0000
0000
0000
0000
0000
0000
0000
0001
0000
0000
0000
0000
0000
0000
0000
0000
1000
0000
0000
0000
0000
0000
0000
0000
0000
0000
,
0010
0000
0000
0000
0000
0000
0000
0000
0000
0100
0000
0000
0000
0000
0000
0000
0000
0000
0000
0001
0000
0000
0000
0000
0000
0000
0000
0000
0000
1000
0000
0000
0000
0000
0000
0000
0000
0000
0100
0000
0000
0000
0000
0000
0000
0000
0000
0000
0010
0000
0000
0000
0000
0000
0000
0000
0000
0100
0000
0000
0000
0000
0000
0000
0000
0000
0000
1000
0000
0000
0000
0000
0000
0000
0000
0000
0000
0001
0000
0000
0000
0000
0000
0000
0000
0000
0010
0000
0000
0000
0000
0000
0000
0000
0000
0000
0001
0000
0000
0000
0000
0000
0000
0000
0000
1000
0000
0000
0000
0000
0000
0000
0000
0000
0000
0010
0000
0000
0000
0000
0000
0000
0000
0000
0000
0100
0000
0000
0000
0000
0000
0000
0000
0000
0001
0000
0000
0000
0000
0000
0000
0000
0000
0000
1000
0000
0000
0000
0000
0000
0000
0000
0000
0100
0000
0000
0000
0000
0000
0000
0000
0000
0000
1000
0000
0000
0000
0000
0000
0000
0000
0000
0000
0001
0000
0000
0000
0000
0000
0000
0000
0000
0100
0000
0000
0000
0000
0000
0000
0000
0000
0000
,
0001
0010
0100
1000
0001
1000
0010
1000
0001
0100
0010
0100
0001
0010
0100
1000
,
0001
0100
0001
1000
0010
1000
0100
0010
0001
1000
0001
0100
0010
1000
0100
1000
,
0001
0100
0001
0100
0001
0100
0010
0100
,
0001
1000
0100
1000
0100
1000
0100
1000
,
0001
0010
0001
0010
0001
0010
0001
0010
,
0001
0100
0010
0100
0010
0100
0010
0100
,
0001
1000
0001
1000
0001
1000
0001
1000
,
0010
0100
0001
0100
0010
0100
0001
0100
,
0010
1000
0001
1000
0100
1000
0001
0200
,
0000
0000
0000
0000
,
0000
0000
0000
0000
,
0000
0000
0000
0000
,
0000
0000
0000
0000
,
0000
0000
0000
0000
0000
0000
0000
0300
;

//---------------dance-single - Arvin----------------
#NOTES:
     dance-single:
     Arvin:
     Beginner:
     16:
     1.000,1.000,0.181,0.227,1.000,1392.000,28.000,35.000,0.000,0.000:



0000
0000
0000
0000
,
0000
0000
0000
0000
,
0001
0000
0100
0010
0100
0000
0001
0000
1000
0100
1000
0000
0001
0000
0100
0000
,
0001
0000
0010
0100
0010
0000
0001
0000
1000
0010
1000
0000
0001
0000
0010
0000
,
0100
0000
1000
0001
1000
0000
0010
0000
1000
0100
1000
0000
0001
0000
0010
0000
,
0001
0000
0100
0010
1000
0000
0001
0000
0010
0100
1000
0000
0010
0000
0100
0000
,
0001
0010
0001
0010
0100
0010
0100
1000
0100
1000
0001
1000
0001
0100
0001
0100
,
0020
0000
0030
1000
0001
1000
0010
0100
,
0001
1000
0001
0100
0001
1000
0001
0100
0001
1000
0001
0100
0001
0000
0000
0000
,
1000
0100
1000
0001
0100
0010
1000
0001
0010
0001
1000
0100
0010
0001
1000
0010
,
1000
0000
0000
0000
0000
0000
0000
0000
0000
0000
0100
0000
0000
0000
0000
0000
0000
0000
0000
0010
0000
0000
0000
0000
0000
0000
0000
0000
0000
0100
0000
0000
0000
0000
0000
0000
0000
0000
1000
0000
0000
0000
0000
0000
0000
0000
0000
0000
0001
0000
0000
0000
0000
0000
0000
0000
0000
0000
0100
0000
0000
0000
0000
0000
0000
0000
0000
0010
0000
0000
0000
0000
0000
0000
0000
0000
0000
0100
0000
0000
0000
0000
0000
0000
0000
0000
0001
0000
0000
0000
0000
0000
0000
0000
0000
0000
2000
0000
0000
0000
0000
0000
0000
0000
0000
0000
0000
0000
0000
0000
0000
0000
0000
0000
0000
0000
0000
0000
0000
0000
0000
0000
0000
0000
0000
0000
0000
0000
0000
0000
0000
0000
0000
0000
0000
0000
0000
0000
0000
0000
0000
0000
0000
0000
3000
0000
0000
0000
0000
0000
0000
0000
0000
0000
0000
0000
0000
0000
0000
0000
0000
0000
0000
0000
0000
0000
0000
0000
0000
0000
0000
0000
0000
0000
0000
0000
0000
0000
0000
0000
0000
0000
0000
0000
0000
0000
0000
0000
0000
0000
0000
0000
,
0001
0010
0100
1000
0001
0000
0200
0300
0020
0030
0200
0300
0002
0003
2000
3000
,
0200
0000
0000
0300
0000
0000
0020
0000
0000
0030
0000
0000
0200
0000
0000
0300
0000
0000
2000
0000
0000
3000
0000
0000
0020
0000
0000
0030
0000
0000
0200
0000
0000
0300
0000
0000
0001
0000
1000
0000
0010
0000
0100
0000
0000
0000
0000
0000
,
0001
0010
0001
0100
0010
1000
0001
0010
0100
1000
0100
0010
0001
1000
0010
0100
,
0001
1000
0100
0010
0100
1000
0010
0100
0010
0100
0001
0010
0100
1000
0100
0010
,
0001
0100
0001
0010
0100
1000
0001
0100
0010
1000
0010
0100
0001
1000
0100
0010
,
0001
1000
0010
0100
0010
1000
0100
0010
0100
0010
0001
0100
0010
1000
0010
0100
,
0001
1000
0010
0100
0001
0010
0100
1000
0001
0100
0010
0100
0001
1000
0100
0010
,
0001
0010
0100
1000
0010
0100
0001
0100
0010
1000
0100
0010
0100
1000
0001
0100
,
0001
1000
0010
0100
0001
0010
0100
1000
0100
0010
0001
1000
0010
0100
0001
0010
,
0001
0100
0010
1000
0010
0100
0001
1000
0100
1000
0001
0010
0100
1000
0100
0010
,
0001
0100
0010
0100
0001
0010
0011
0001
,
1001
1000
0010
0100
0010
1000
0100
0010
,
0011
0001
1000
0010
0100
0001
0101
0100
,
0110
0010
1000
0100
1000
0010
0100
0001
,
0101
0100
0010
1000
0100
0010
0110
0100
,
1100
0000
1000
0000
0001
0000
0100
0000
0010
0000
0100
0001
0010
0100
1000
0001
,
1000
0100
0010
0100
1000
0010
0110
0100
,
0101
0001
0010
0100
1000
0001
0100
0010
,
0200
0000
0000
0000
0000
0000
0000
0300
,
0000
0000
0000
0000
0000
0000
0000
0000
0200
0000
0000
0000
0000
0300
0000
0000
0000
0000
0000
0000
0200
0000
0000
0000
0300
0000
0000
0000
0000
0000
0000
0000
0200
0000
0000
0300
0000
0000
0000
0000
0000
0000
0000
0000
0200
0000
0300
0000
0000
0000
0000
0000
0000
0000
0000
0000
0200
0300
0000
0000
0000
0000
0000
0000
,
0001
1000
0010
0100
0001
1000
0100
0010
0100
1000
0001
0100
0010
0100
0001
1000
,
0010
0100
0001
1000
0001
0010
0100
1000
0001
1000
0010
0100
0001
1000
0010
0100
,
0001
0010
0001
0100
0010
1000
0001
0010
0100
1000
0100
0010
0001
1000
0010
0100
,
0001
1000
0100
0010
0100
1000
0010
0100
0010
0100
0001
0010
0100
1000
0100
0010
,
0001
0100
0001
0010
0100
1000
0001
0100
0010
1000
0010
0100
0001
1000
0100
0010
,
0001
1000
0010
0100
0010
1000
0100
0010
0100
0010
0001
0100
0010
1000
0010
0100
,
0001
1000
0010
0100
0001
0010
0100
1000
0001
0100
0010
0100
0001
1000
0100
0010
,
0001
0010
0100
1000
0010
0100
0001
0100
0010
1000
0100
0010
0100
1000
0001
0100
,
0001
1000
0010
0100
0001
0010
0100
1000
0100
0010
0001
1000
0010
0100
0001
0010
,
0001
0100
0010
1000
0010
0100
0001
1000
0100
1000
0001
0010
0100
1000
0100
0010
,
0001
1000
0001
0100
0001
0010
0100
0010
0001
1000
0001
0010
0001
0100
0010
0100
,
0001
1000
0010
1000
0001
1000
0100
0010
0100
1000
0001
1000
0100
1000
0010
0100
,
0010
1000
0001
0010
0100
0010
0001
1000
0001
0100
0010
0100
0001
1000
0100
1000
,
0001
0100
0010
0100
0001
1000
0100
1000
0010
0100
0010
1000
0100
0010
0100
1000
,
0001
0000
0000
0000
0000
0000
0000
0000
0000
0100
0000
0000
0000
0000
0000
0000
0000
0000
0000
0010
0000
0000
0000
0000
0000
0000
0000
0000
0000
1000
0000
0000
0000
0000
0000
0000
0000
0000
0001
0000
0000
0000
0000
0000
0000
0000
0000
0000
0010
0000
0000
0000
0000
0000
0000
0000
0000
0100
0000
0000
0000
0000
0000
0000
0000
0000
0000
1000
0000
0000
0000
0000
0000
0000
0000
0000
0000
0010
0000
0000
0000
0000
0000
0000
0000
0000
0100
0000
0000
0000
0000
0000
0000
0000
0000
0000
0001
0000
0000
0000
0000
0000
0000
0000
0000
1000
0000
0000
0000
0000
0000
0000
0000
0000
0000
0100
0000
0000
0000
0000
0000
0000
0000
0000
0000
0010
0000
0000
0000
0000
0000
0000
0000
0000
0001
0000
0000
0000
0000
0000
0000
0000
0000
0000
1000
0000
0000
0000
0000
0000
0000
0000
0000
0010
0000
0000
0000
0000
0000
0000
0000
0000
0000
0100
0000
0000
0000
0000
0000
0000
0000
0000
0000
0010
0000
0000
0000
0000
0000
0000
0000
0000
1000
0000
0000
0000
0000
0000
0000
0000
0000
0000
,
0001
0000
0000
0000
0000
0000
0000
0000
0000
0100
0000
0000
0000
0000
0000
0000
0000
0000
0000
0010
0000
0000
0000
0000
0000
0000
0000
0000
0000
1000
0000
0000
0000
0000
0000
0000
0000
0000
0001
0000
0000
0000
0000
0000
0000
0000
0000
0000
0010
0000
0000
0000
0000
0000
0000
0000
0000
0100
0000
0000
0000
0000
0000
0000
0000
0000
0000
1000
0000
0000
0000
0000
0000
0000
0000
0000
0000
0010
0000
0000
0000
0000
0000
0000
0000
0000
0100
0000
0000
0000
0000
0000
0000
0000
0000
0000
0001
0000
0000
0000
0000
0000
0000
0000
0000
1000
0000
0000
0000
0000
0000
0000
0000
0000
0000
0100
0000
0000
0000
0000
0000
0000
0000
0000
0000
0010
0000
0000
0000
0000
0000
0000
0000
0000
0001
0000
0000
0000
0000
0000
0000
0000
0000
0000
1000
0000
0000
0000
0000
0000
0000
0000
0000
0010
0000
0000
0000
0000
0000
0000
0000
0000
0000
0100
0000
0000
0000
0000
0000
0000
0000
0000
0000
0010
0000
0000
0000
0000
0000
0000
0000
0000
1000
0000
0000
0000
0000
0000
0000
0000
0000
0000
,
0001
0010
0100
0010
0001
1000
0010
0100
0010
1000
0001
0010
0100
0010
0001
1000
,
0001
0100
0010
0100
0001
1000
0100
0010
0100
1000
0001
0100
0010
0100
0001
1000
,
0004
0000
0000
0003
,
1000
0100
1000
0010
1000
0001
0010
0100
0010
0001
1000
0010
0100
0010
0100
0001
,
1000
0100
0010
0001
1000
0010
0100
0001
1000
0010
0100
0010
1000
0001
0010
0100
,
1000
0000
0000
0001
0100
0001
0100
0000
0000
0001
1000
0001
1000
0000
0000
0001
0010
0001
0010
0000
0000
0100
1000
0001
,
1000
0000
0000
0000
0000
0000
0000
0000
0000
0000
0000
0000
0010
0000
0000
0000
0000
0000
0000
0000
0000
0000
0000
0000
0100
0000
0000
0000
0000
0000
0000
0000
0000
0000
0000
0000
0010
0000
0000
0000
0000
0000
0000
0000
0000
0000
0000
0000
1000
0000
0000
0000
0000
0000
0000
0000
0000
0000
0000
0000
0001
0000
0000
0000
0000
0000
0000
0000
0000
0000
0000
0000
0010
0000
0000
0000
0000
0000
0000
0000
0000
0000
0000
0000
0001
0000
0000
0000
0000
0000
0000
0000
0000
0000
0000
0000
1000
0000
0000
0000
0000
0000
0000
0000
0000
0010
0000
0000
0000
0000
0000
0000
0000
0000
0000
0100
0000
0000
0000
0000
0000
0000
0000
0000
0000
0001
0000
0000
0000
0000
0000
0000
0000
0000
1000
0000
0000
0000
0000
0000
0000
0000
0000
0000
0001
0000
0000
0000
0000
0000
0000
0000
0000
0010
0000
0000
0000
0000
0000
0000
0000
0000
0000
0100
0000
0000
0000
0000
0000
0000
0000
0000
0000
1000
0000
0000
0000
0000
0000
0000
0000
0000
0001
0000
0000
0000
0000
0000
0000
0000
0000
0000
,
1000
0100
0010
0001
1000
0100
0010
0001
1000
0100
0010
0001
1000
0010
0100
0001
,
1000
0100
1000
0001
0100
0010
0100
0001
1000
0100
1000
0001
0100
0010
0100
0001
,
1000
0010
0100
0001
1000
0010
0100
0001
1000
0010
0100
0001
1000
0100
0010
0001
,
1000
0000
0000
0000
0000
0000
0000
0000
0000
0000
0000
0010
0000
0000
0000
0000
0000
0000
0000
0000
0000
0100
0000
0000
0000
0000
0000
0000
0000
0000
0000
0010
0000
0000
0000
0000
0000
0000
0000
0000
0000
1000
0000
0000
0000
0000
0000
0000
0001
0000
0000
0000
0000
0000
0000
0000
0000
0010
0000
0000
0000
0000
0000
0000
0000
0000
0000
0100
0000
0000
0000
0000
0000
0000
0000
0000
0000
0010
0000
0000
0000
0000
0000
0000
0000
0000
0001
0000
0000
0000
0000
0000
0000
0000
0000
0000
1000
0000
0000
0000
0000
0000
0000
0000
0000
0100
0000
0000
0000
0000
0000
0000
0000
0000
0000
0010
0000
0000
0000
0000
0000
0000
0000
0000
0000
0100
0000
0000
0000
0000
0000
0000
0000
0000
1000
0000
0000
0000
0000
0000
0000
0000
0000
0000
0001
0000
0000
0000
0000
0000
0000
0000
0000
0100
0000
0000
0000
0000
0000
0000
0000
0000
0000
0010
0000
0000
0000
0000
0000
0000
0000
0000
0000
0100
0000
0000
0000
0000
0000
0000
0000
0000
0001
0000
0000
0000
0000
0000
0000
0000
0000
0000
,
1000
0100
1000
0001
0100
0010
1000
0001
0010
0100
1000
0001
1000
0100
0010
0001
,
1000
0010
0100
0001
1000
0100
0010
0001
1000
0010
0100
0010
1000
0001
0010
0100
,
1000
0001
0100
0010
,
0100
0001
1001
1010
,
2000
3100
0100
2000
3010
0010
2000
3001
,
0001
0000
0200
0000
0010
0000
0310
0000
0100
0000
0001
0000
0100
0000
0001
1000
,
0002
0013
0010
0002
0103
0100
0002
1003
,
1000
0000
0020
0000
0100
0000
0130
0000
0010
0000
1000
0000
0010
0000
1000
0001
,
2000
3010
0010
2000
3100
0100
2000
3001
,
0001
0000
0020
0000
0100
0000
0130
0000
0010
0000
0001
0000
0010
0000
0001
1000
,
0002
0103
0100
0002
0013
0010
0002
1003
,
1000
0200
0010
0310
0100
1000
0100
1000
,
0001
0010
0001
0100
0010
1000
0001
0010
0100
0010
0001
1000
0010
0100
0001
1000
,
0001
0010
0100
1000
0001
1000
0010
0100
0010
1000
0100
0010
0001
1000
0100
0010
,
0001
0000
1000
0001
0000
0100
0001
0000
0010
0001
0000
0100
,
0010
0000
1000
0010
0000
1000
0100
0000
0010
0100
0000
1000
,
0001
0000
0100
0010
0000
0100
0001
0000
1000
0001
0000
0010
,
0001
0000
0010
0100
0000
1000
0001
0000
0100
0010
0000
1000
,
0010
0000
0100
0010
0000
1000
0100
0000
0010
0100
0000
1000
,
0001
0000
0100
0010
0000
0100
0001
0000
1000
0001
0000
0010
,
0001
0000
0100
0001
0000
1000
0001
0000
0100
0001
0000
0100
,
0010
0000
0100
0001
0000
1000
0100
0000
0010
0100
0000
0010
,
0001
0000
1000
0001
0000
0100
0001
0000
0010
0001
0000
0100
,
0010
0000
1000
0010
0000
1000
0100
0000
0010
0100
0000
1000
,
0100
0010
0001
1000
0000
0010
1000
0000
0001
1000
0000
0100
,
1000
0000
0100
0010
0000
0001
1000
0000
0010
0100
0000
0001
,
0100
0010
1000
0001
0000
1000
0100
0000
0010
0100
0000
1000
,
0001
0000
0100
0010
0000
0100
0001
0000
1000
0001
0000
0010
,
0001
0100
0010
0100
0000
0001
1000
0000
0010
1000
0000
0010
,
0100
0000
0010
1000
0000
0001
0010
0000
0100
0010
0000
0001
,
1001
1010
1100
1001
,
1000
0010
1000
0010
1000
0010
1000
0010
,
1010
1001
1100
0110
,
0010
0001
0010
0001
0010
0001
0010
0001
,
0011
1001
0101
0110
,
0010
1000
0010
1000
0010
1000
0010
1000
,
1010
1001
0101
1010
,
1000
0001
1000
0001
1000
0001
1000
0001
,
1000
0100
1000
0010
0100
0001
1000
0100
0010
0001
0010
0100
1000
0001
0100
0010
,
1000
0001
0010
0100
0010
0001
0100
0010
0100
0010
1000
0100
0010
0001
0010
0100
,
1000
0010
1000
0100
0010
0001
1000
0010
0100
0001
0100
0010
1000
0001
0010
0100
,
1000
0001
0100
0010
0100
0001
0010
0100
0010
0100
1000
0010
0100
0001
0100
0010
,
1000
0001
0100
0010
1000
0100
0010
0001
1000
0010
0100
0010
1000
0001
0010
0100
,
1000
0100
0010
0001
0100
0010
1000
0010
0100
0001
0010
0100
0010
0001
1000
0010
,
1000
0001
0100
0010
1000
0100
0010
0001
0010
0100
1000
0001
0100
0010
1000
0100
,
1000
0010
0100
0001
0100
0010
1000
0001
0010
0001
1000
0100
0010
0001
0010
0100
,
1000
0001
1000
0010
1000
0100
0010
0100
1000
0001
1000
0100
1000
0010
0100
0010
,
1000
0001
0100
0001
1000
0001
0010
0100
0010
0001
1000
0001
0010
0001
0100
0010
,
0100
0001
1000
0100
0010
0100
1000
0001
1000
0010
0100
0010
1000
0001
0010
0001
,
1000
0010
0100
0010
1000
0001
0010
0001
0100
0010
0100
0001
0010
0100
0010
0001
,
1000
0000
0000
0000
0000
0000
0000
0000
0000
0010
0000
0000
0000
0000
0000
0000
0000
0000
0000
0100
0000
0000
0000
0000
0000
0000
0000
0000
0000
0001
0000
0000
0000
0000
0000
0000
0000
0000
1000
0000
0000
0000
0000
0000
0000
0000
0000
0000
0100
0000
0000
0000
0000
0000
0000
0000
0000
0010
0000
0000
0000
0000
0000
0000
0000
0000
0000
0001
0000
0000
0000
0000
0000
0000
0000
0000
0000
0100
0000
0000
0000
0000
0000
0000
0000
0000
0010
0000
0000
0000
0000
0000
0000
0000
0000
0000
1000
0000
0000
0000
0000
0000
0000
0000
0000
0001
0000
0000
0000
0000
0000
0000
0000
0000
0000
0010
0000
0000
0000
0000
0000
0000
0000
0000
0000
0100
0000
0000
0000
0000
0000
0000
0000
0000
1000
0000
0000
0000
0000
0000
0000
0000
0000
0000
0001
0000
0000
0000
0000
0000
0000
0000
0000
0100
0000
0000
0000
0000
0000
0000
0000
0000
0000
0010
0000
0000
0000
0000
0000
0000
0000
0000
0000
0100
0000
0000
0000
0000
0000
0000
0000
0000
0001
0000
0000
0000
0000
0000
0000
0000
0000
0000
,
1000
0000
0000
0000
0000
0000
0000
0000
0000
0010
0000
0000
0000
0000
0000
0000
0000
0000
0000
0100
0000
0000
0000
0000
0000
0000
0000
0000
0000
0001
0000
0000
0000
0000
0000
0000
0000
0000
1000
0000
0000
0000
0000
0000
0000
0000
0000
0000
0100
0000
0000
0000
0000
0000
0000
0000
0000
0010
0000
0000
0000
0000
0000
0000
0000
0000
0000
0001
0000
0000
0000
0000
0000
0000
0000
0000
0000
0100
0000
0000
0000
0000
0000
0000
0000
0000
0010
0000
0000
0000
0000
0000
0000
0000
0000
0000
1000
0000
0000
0000
0000
0000
0000
0000
0000
0001
0000
0000
0000
0000
0000
0000
0000
0000
0000
0010
0000
0000
0000
0000
0000
0000
0000
0000
0000
0100
0000
0000
0000
0000
0000
0000
0000
0000
1000
0000
0000
0000
0000
0000
0000
0000
0000
0000
0001
0000
0000
0000
0000
0000
0000
0000
0000
0100
0000
0000
0000
0000
0000
0000
0000
0000
0000
0010
0000
0000
0000
0000
0000
0000
0000
0000
0000
0100
0000
0000
0000
0000
0000
0000
0000
0000
0001
0000
0000
0000
0000
0000
0000
0000
0000
0000
,
1000
0100
0010
0100
1000
0001
0100
0010
0100
0001
1000
0100
0010
0100
1000
0001
,
1000
0010
0100
0010
1000
0001
0010
0100
0010
0001
1000
0010
0100
0010
1000
0001
,
1000
0100
0010
0100
1000
0010
1000
0010
,
0100
0001
0100
0010
0100
0001
1000
0010
,
1000
0100
0010
0100
1000
0001
0100
0010
,
1000
0001
1000
0001
0010
0100
1000
0001
,
1000
0010
0100
0010
1000
0001
0010
0100
,
1000
0010
1000
0010
0100
0001
0100
0010
,
0100
0001
1000
0001
1000
0100
0010
0001
,
1000
0000
0000
0000
;
