#TITLE:Mr. Beauregard's Bounce;
#SUBTITLE:;
#ARTIST:DJ Abusive Domestic Relations;
#TITLETRANSLIT:;
#SUBTITLETRANSLIT:;
#ARTISTTRANSLIT:;
#CREDIT:;
#BANNER:Mr. Beauregard's Bounce.png;
#BACKGROUND:Mr. Beauregard's Bounce- bg.png;
#LYRICSPATH:;
#CDTITLE:HS2logo.png;
#MUSIC:Mr. Beauregard's Bounce.ogg;
#OFFSET:-1.115;
#SAMPLESTART:40.920;
#SAMPLELENGTH:13.500;
#SELECTABLE:YES;
#BPMS:0.000=86.000,36.000=76.000,44.000=66.000,46.500=120.000,176.000=86.000,180.000=80.000,184.000=75.000,188.000=70.000;
#STOPS:46.500=1.240
;
#BGCHANGES:;
// cache tags:
#FIRSTBEAT:7.000;
#LASTBEAT:192.750;
#SONGFILENAME:Songs/stepmix .10/Mr. Beauregard's Bounce/Mr. Beauregard's Bounce.sm;
#HASMUSIC:1;
#HASBANNER:1;
#MUSICLENGTH:117.000;
// end cache tags

//---------------dance-single - ----------------
#NOTES:
     dance-single:
     :
     Hard:
     9:
     0.513,0.535,0.470,0.060,0.316,358.000,55.000,7.000,0.000,0.000:
0000
0000
0000
0000
,
0000
0000
0000
0000
0000
0000
0000
0000
0000
0000
0000
0000
1000
0010
0000
0000
,
0100
0001
0000
0000
1000
0010
1000
0001
0100
0010
0000
0000
1000
0001
0000
0000
,
0010
0100
0000
0000
0001
0010
0001
1000
0100
1000
0000
0000
0001
0101
0000
0000
,
1000
1100
0000
0000
0001
1000
0001
1000
0010
0010
0000
0000
1000
1010
0000
0000
,
0001
0011
0000
0000
1000
0100
1000
0001
0100
0100
0010
0000
0010
0000
0010
0000
,
1000
1000
0100
0010
0001
1000
0010
0000
1000
0000
0100
0000
0100
0000
0100
0000
,
0001
0001
0010
0100
1000
0001
0010
0000
0100
0000
1001
0000
0001
1000
0000
0000
,
1000
0001
0000
0000
0001
1000
0010
0000
0010
0000
0000
0000
1000
0100
0000
0000
,
0100
0010
0000
0000
0010
0001
0100
0000
0100
0000
0001
0000
2000
0000
0000
0000
,
3200
0000
0320
0001
0031
0000
1001
0000
,
0000
1100
0000
0000
0000
0000
0000
0000
0000
0110
0000
0000
0010
0000
0000
0000
0010
0000
0000
0000
0220
0000
0330
0000
0000
0000
0000
0000
0000
0000
0000
0000
,
1001
1100
0011
1001
,
0110
0000
1001
0000
1100
0000
0011
0001
,
1001
1010
0101
1010
,
1001
0000
0011
0000
1100
0000
0101
0101
,
0001
1000
0010
0100
1000
0010
0100
0100
,
0001
0010
1000
0010
0100
0001
1000
0010
,
1010
1000
1001
0001
0101
0100
0110
0110
,
1010
0010
0110
0100
0101
0001
1001
1001
,
0000
1100
0000
0011
0000
0110
0100
1001
,
0000
1100
0000
0101
0000
0011
0100
1010
,
0010
0100
0001
1000
0100
1000
0001
0101
,
1000
0010
0100
0010
0001
1000
0100
1100
,
1001
0000
0000
0001
0100
0000
0000
0100
1000
0000
0000
1000
0100
0000
0100
0000
,
0010
0000
0000
0010
0001
0000
0000
0001
0010
0000
0000
0010
1000
0000
0010
0000
,
0001
0000
0000
0001
0100
0000
0000
0100
0010
0000
0000
0010
0001
0000
0010
0000
,
1000
0000
0000
1000
0010
0000
0000
0010
0100
0000
0000
0100
0001
0000
0001
0000
,
1000
0100
1000
0010
0100
0010
0001
1000
,
0001
0100
0010
0100
0001
1000
0001
0001
,
1000
0100
1000
0001
0010
0001
0100
0010
,
0100
1000
0001
1000
0020
0000
0130
0000
,
0000
0100
0001
0100
0010
1000
0010
1000
0000
0001
0100
0010
0100
0000
0001
0000
,
0000
1000
0100
1000
0100
1000
0010
0100
0000
0010
0100
0001
1000
0000
0100
0000
,
0000
0001
0010
0001
1000
0001
1000
0001
0000
1000
0100
1000
0001
0000
0001
0000
,
0000
1000
0100
1000
0010
1000
0001
0100
0000
0010
1000
0010
0100
0000
0100
0000
,
0001
0010
0001
1000
0001
0100
0001
0001
,
1000
0010
1000
0001
1000
0100
1000
1000
,
0010
0100
0010
1000
0010
0001
0010
0010
,
0100
0001
0100
0010
0100
1000
0100
0100
,
0001
0101
0000
1001
0000
1100
0100
1010
,
0000
0101
0000
0011
0000
1001
0100
0110
,
0010
1000
0010
0001
0010
0100
0010
0100
,
0001
0010
0001
1000
0001
0100
0010
0100
,
0001
1000
0010
0100
,
0001
1000
0001
0010
,
0001
0100
1000
0010
,
0001
0000
0000
0000
1000
0000
0000
0000
0001
0010
0001
1000
0010
0100
0001
0200
,
0000
0000
0000
0300
0000
0000
0000
0000
0000
0000
0000
0000
0000
0000
0000
0000
;

//---------------dance-single - ----------------
#NOTES:
     dance-single:
     :
     Easy:
     5:
     0.249,0.367,0.256,0.009,0.017,173.000,30.000,1.000,0.000,0.000:
0000
0000
0000
0000
,
0000
0000
0000
1000
,
0100
1000
0100
1000
,
0010
0001
0100
0001
,
1000
0001
0010
1000
,
0001
1000
0100
0010
,
1000
0001
1000
0100
,
0001
1000
0100
0001
,
1000
0001
0010
1000
,
0100
0010
0100
1001
,
1001
0000
0000
0000
0000
0000
0000
0000
0101
0000
0000
0000
0000
0000
0000
0000
0101
0000
0000
0000
0000
0000
0000
0000
0000
1100
0000
0000
0000
0000
0000
0000
,
0000
1100
0000
0000
0000
0000
0000
0000
0000
0110
0000
0000
0000
0000
0000
0000
0000
0110
0000
0000
0000
0000
0000
0000
0000
0000
0000
0000
0000
0000
0000
0000
,
1001
1001
1001
1001
,
0100
0010
1000
0001
,
1001
1001
1001
1001
,
1000
0000
0010
0000
0100
0000
0001
1000
,
0010
0010
1000
0100
,
0001
1000
0100
1000
,
0110
0110
0110
0110
,
1001
1001
1001
1001
,
0110
0110
1001
1001
,
0110
0000
0110
0000
1000
0010
0100
0000
,
0001
0001
0100
1000
,
0010
0010
0100
0001
,
1000
0100
1000
0100
,
0010
0001
0010
1000
,
0001
0100
0010
0001
,
1000
0010
0100
0001
,
1000
1000
0100
0001
,
0001
0010
0001
0001
,
1000
1000
0010
0100
,
0100
0001
0020
0130
,
0000
0010
0000
0100
,
0000
0100
0000
1000
,
0000
1000
0000
0001
,
0000
0010
0000
0100
,
0001
0001
0001
0001
,
1000
1000
1000
1000
,
0010
0010
0010
0010
,
0100
0100
0100
0100
,
0001
0000
0000
0100
,
0000
0000
0000
0100
,
0010
0010
0010
0010
,
0001
0001
0001
0010
,
0001
1000
0010
0100
,
0001
1000
0001
0010
,
0001
0100
1000
0010
,
0001
1000
0001
0010
;

//---------------dance-single - ----------------
#NOTES:
     dance-single:
     :
     Medium:
     6:
     0.355,0.367,0.872,0.034,0.000,185.000,102.000,4.000,0.000,0.000:
0000
0000
0000
0000
,
0000
0000
0000
1000
,
0110
1000
1100
1000
,
0011
0001
0101
0001
,
1100
0001
0011
1000
,
0101
1000
0110
0010
,
1010
0001
1100
0100
,
0011
1000
1100
0001
,
1100
0001
0011
1000
,
1100
0010
0110
2000
,
3200
0320
0031
1001
,
1010
1000
0110
0010
,
1001
1100
0011
1001
,
0110
1001
1100
0011
,
1001
1010
0101
1010
,
1001
0011
1100
0101
,
0011
0010
1100
0100
,
0011
1000
1100
1000
,
1010
1001
0101
0110
,
1010
0110
0101
1001
,
1100
1000
1100
0100
,
0101
0100
1100
0100
,
0011
0001
1100
0001
,
1100
0100
0011
0100
,
1001
0100
1100
0100
,
1010
0001
0011
1000
,
0011
0100
0110
0001
,
1100
0010
1100
0001
,
1100
1000
0101
0001
,
0011
0010
0011
0001
,
1100
1000
0011
0100
,
0101
0001
0020
0130
,
0110
0010
1010
0100
,
0110
0100
0101
1000
,
1100
1000
1100
0001
,
0101
0010
0011
0100
,
0011
0001
0011
0001
,
1100
1000
1100
1000
,
0011
0010
0011
0010
,
1100
0100
0110
0100
,
0101
0001
0011
0100
,
0101
0100
1100
0100
,
0011
0010
1010
0010
,
0011
0001
0011
0010
,
0011
1000
0011
0100
,
0101
1000
0011
0010
,
0011
0100
1100
0010
,
0011
1000
0101
0010
;

//---------------dance-single - ----------------
#NOTES:
     dance-single:
     :
     Beginner:
     1:
     0.128,0.163,0.017,0.000,0.000,103.000,2.000,0.000,0.000,0.000:
0000
0000
0000
0000
,
0000
0000
0000
1000
,
0000
0001
0000
1000
,
0000
0001
0000
0010
,
0000
0010
0000
0100
,
0000
0100
0000
0000
,
0000
0001
0001
0000
,
0000
1000
1000
0010
,
0000
0010
0000
0010
,
0000
0010
0000
0100
,
0000
0100
0000
0100
,
0000
0100
0000
0000
,
0001
0000
1000
0000
,
0001
0000
1000
0000
,
0010
0000
0100
0000
,
0010
0000
0100
0000
,
0001
0000
0100
0000
,
0010
0000
1000
0000
,
0100
0000
0010
0000
,
0001
0000
1000
0000
,
0010
0000
0100
0000
,
0001
0000
1000
1000
,
0010
0000
0100
0000
,
0001
0000
1000
0000
,
0010
0000
0100
0000
,
0010
0000
0100
0000
,
0001
0000
1000
0000
,
0010
0000
0100
0000
,
0001
0001
0001
0001
,
0001
0001
0000
0000
,
1000
1000
1000
1000
,
1000
1000
1000
0000
,
0010
0010
0010
0010
,
0010
0010
0010
0000
,
0100
0100
0100
0100
,
0100
0100
0100
0000
,
0001
0000
1000
0000
,
0001
0000
1000
0000
,
0010
0000
0100
0000
,
0001
0000
1000
0000
,
0001
0000
0100
0000
,
0010
0000
1000
0000
,
0100
0000
0000
0000
,
0100
0000
0000
0000
,
1001
0000
0010
0000
,
1001
0000
0100
0000
,
0010
0000
0001
0000
,
1000
0000
0010
0010
;
