#TITLE:Banned Forever;
#SUBTITLE:;
#ARTIST:Renard;
#TITLETRANSLIT:;
#SUBTITLETRANSLIT:;
#ARTISTTRANSLIT:;
#CREDIT:Owem;
#BANNER:../banner.png;
#BACKGROUND:../bg.png;
#LYRICSPATH:;
#CDTITLE:../cdtitleowem.png;
#MUSIC:Renard - Banned Forever.ogg;
#OFFSET:-0.114;
#SAMPLESTART:52.472;
#SAMPLELENGTH:29.999;
#SELECTABLE:YES;
#DISPLAYBPM:220.000;
#BPMS:0.000=220.000,115.000=110.000,143.000=220.000,271.000=54.950,276.500=110.000,277.000=220.000,438.000=110.000,502.000=220.000,630.000=440.000,632.000=220.000;
#STOPS:64.000=0.273
,64.500=0.273
,66.000=0.273
,66.500=0.273
,68.000=0.273
,68.500=0.273
,71.500=0.273
,73.000=0.273
,73.500=0.273
,75.000=0.273
,75.500=0.273
,77.000=0.273
,77.500=0.273
,115.000=0.136
,115.250=0.136
,115.750=0.136
,116.000=0.136
,116.500=0.136
,117.750=0.136
,118.000=0.136
,119.000=0.136
,121.000=0.136
,121.250=0.136
,121.750=0.136
,122.000=0.136
,122.500=0.136
,123.750=0.136
,124.000=0.136
,125.000=0.136
,271.000=0.136
,271.125=0.136
,271.375=0.136
,271.500=0.136
,271.750=0.136
,272.375=0.136
,272.500=0.136
,273.000=0.136
,274.000=0.136
,274.125=0.136
,274.375=0.136
,274.500=0.136
,274.750=0.136
,275.375=0.136
,275.500=0.136
,276.000=0.136
,630.000=0.136
;
#BGCHANGES:;
// cache tags:
#FIRSTBEAT:0.000;
#LASTBEAT:632.000;
#SONGFILENAME:Songs/Owem's Simfiles 08 - 1.2/Banned Forever - [Owem] v1.0.0/Banned Forever.sm;
#HASMUSIC:1;
#HASBANNER:1;
#MUSICLENGTH:218.122;
// end cache tags

//---------------dance-single - 18- (Owem)----------------
#NOTES:
     dance-single:
     18- (Owem):
     Challenge:
     18:
     1.000,1.000,0.179,0.793,1.000,2088.000,39.000,173.000,18.000,0.000:
1000
0000
0100
0000
0010
0000
0001
1000
0001
0000
0100
0010
0100
0001
1000
0000
,
0100
0010
0001
0000
1000
0000
0010
0000
0100
0001
1000
0000
0001
0000
1000
0000
,
0100
0000
0010
0001
1000
0001
0100
0010
0100
0000
0001
1000
0100
0000
0010
0000
,
0001
0000
1000
0000
0001
0000
0100
0000
0010
0000
1000
0001
1000
0000
0100
0000
,
0010
0000
0001
0000
1000
0000
0010
0100
0001
0000
1000
0001
1000
0100
0010
0000
,
0001
1000
0001
0000
0100
0000
0010
0000
0100
0001
1000
0000
0100
0000
0010
0000
,
0001
0000
1000
0010
0100
0001
1000
0100
0010
0000
0001
0100
0010
0000
1000
0000
,
0001
0000
1000
0000
0100
0000
0010
0000
0001
0010
0100
1000
0001
1000
0010
0100
,
0001
0000
1000
0000
0100
0010
0001
1000
0001
0000
0100
0010
1000
0001
1000
0000
,
0100
0010
0001
0000
1000
0000
0010
0000
0100
0001
1000
0000
0100
0000
1000
0000
,
0010
0000
0100
0001
0100
0010
1000
0001
1000
0000
0100
0010
0001
0000
1000
0000
,
0010
0000
0100
0000
0001
0000
1000
0100
1000
0000
0010
0100
0001
0000
1000
0000
,
0001
0000
0010
0000
0100
0000
1000
0010
1000
0000
0001
0100
0010
1000
0001
0000
,
1000
0100
0010
0000
0001
0000
0100
0000
0010
1000
0001
0000
1000
0000
0100
0000
,
0010
0000
0001
0100
0001
1000
0010
0100
0001
0000
1000
0100
0010
0000
0001
0000
,
1000
0000
0010
0000
0100
0000
0001
1000
0001
0000
0100
0000
0010
0100
0001
1000
,
0100
0000
0110
0000
0002
0000
0000
0003
0101
0000
0110
0000
2000
0000
0000
3000
,
1010
0000
0110
0000
0002
0000
0000
0003
1001
0000
0000
0000
1000
0000
1010
0000
,
0020
0000
0000
0030
0110
0000
0101
0000
0002
0000
0000
0003
1001
0000
1010
0000
,
0020
0000
0000
0030
0110
0000
0101
0000
0002
0000
0000
0003
1001
0000
0000
0000
,
1000
0000
1100
0000
0000
0000
0100
0000
0100
0000
0100
0000
0010
0001
0010
0000
,
0100
0000
1000
0001
1000
0000
0010
0000
0100
0001
1000
0000
0100
0010
0001
0000
,
1000
0000
0010
0100
0001
0000
1000
0000
0100
1000
0010
0000
0100
0001
0100
0000
,
0010
0000
1000
0001
1000
0000
0100
0000
0010
0001
1000
0000
0001
0100
0010
0000
,
1000
0000
0001
0010
0100
0000
1000
0010
1000
0000
0001
0000
0100
0010
1000
0000
,
0001
0000
1000
0100
0010
0000
0001
0000
0100
0010
1000
0000
0001
0100
0001
0000
,
1000
0000
0100
0010
0001
0000
1000
0000
0010
0100
0001
0000
1000
0100
1000
0000
,
0010
0000
0100
0001
1000
0000
0001
0000
0010
0100
1000
0000
0001
0100
0010
0000
,
1000
0000
0001
0010
0100
1000
0001
1000
0020
0000
0000
0030
1000
0001
0100
0010
,
1000
0001
0010
0100
1000
0001
1000
0010
0100
0001
1000
0100
1000
0010
0100
0001
,
1000
0001
10M0
0100
M010
0001
1000
0010
0100
0001
1000
0100
0010
0001
1000
0001
,
0010
0000
0100
0000
1000
0000
0001
0000
0100
0000
0010
0000
1000
0000
0001
0000
0100
0000
0001
0000
2000
0000
0000
3000
2200
0000
0000
0000
3300
0000
2020
0000
,
0000
3030
0440
0330
0202
0000
0303
2002
0000
3003
4040
3030
0220
0000
0330
0202
,
0000
0000
0303
0000
4040
0000
3030
0000
2200
0000
0000
0300
3100
0000
0220
0000
0000
0000
0330
0000
M022
0000
0033
0000
2M02
0000
0000
0000
3003
0000
0202
0000
,
0000
0303
0440
0330
2020
0000
3030
2002
0000
3003
4400
3300
0220
0000
0330
0022
,
0000
0000
0033
0000
0404
0000
0303
0000
0220
0000
0000
0030
0310
0000
1010
0000
1000
0000
0100
0000
0010
0000
0001
0000
1000
0000
0010
0000
0100
0000
0001
0000
,
1000
0100
1000
0001
0010
0001
0100
0010
1000
0001
0100
0010
1000
0001
0100
0001
,
1000
0100
0010
0100
1000
0001
0010
0001
0100
0010
1000
0001
0100
0001
1000
0100
,
0010
0001
1000
0001
0100
0010
1000
0001
0010
0001
1000
0100
0010
0100
1000
0001
,
1000
0010
0100
0001
0100
0010
1000
0001
0010
0001
1000
0100
0010
0001
0010
0100
,
1000
0001
0100
0001
0100
0010
1000
0001
1000
0100
0010
0001
1000
0100
1000
0001
,
0100
0001
0010
0100
1000
0001
0010
0001
0100
0010
1000
0001
0100
0010
0100
0001
,
1000
0100
1000
0010
0100
0001
1000
0100
0010
0001
1000
0010
1000
0001
1000
0010
,
0100
0001
0100
0010
1000
0001
0100
0001
1000
0001
0010
0100
0010
0001
1000
0100
,
1000
0010
1000
0001
0100
0010
0100
0001
1000
0100
0010
0001
1000
0100
1000
0001
,
0010
0001
0100
0010
1000
0001
1000
0100
0010
0100
1000
0001
1000
0010
0100
0001
,
0100
0010
1000
0001
1000
0100
0010
0100
1000
0001
0100
0001
1000
0100
1000
0010
,
0100
0001
1000
0100
1000
0001
0100
0010
0100
0001
1000
0100
1000
0001
0010
0100
,
1000
0100
0010
0001
1000
0010
1000
0001
0100
0001
1000
0100
0010
0100
1000
0001
,
0010
0001
1000
0001
0100
0010
0100
0001
0100
0010
1000
0001
0010
0001
1000
0100
,
0010
0001
1000
0100
1000
0001
1000
0010
0100
0001
1000
0010
0100
0010
1000
0001
,
0100
0001
0010
0100
1000
0001
1000
0001
1000
0001
1000
0001
0100
0010
1000
0001
,
0100
0001
1000
0100
0010
0001
1000
0100
1000
0001
0010
0001
0100
0010
1000
0001
,
0100
0010
1000
0001
0100
0001
1000
0100
0010
0001
1000
0100
1000
0001
0010
0001
,
1000
0100
0010
0001
1000
0100
1000
0001
0010
0001
0100
0010
1000
0001
0100
0001
,
1000
0010
0100
0001
0100
0010
1000
0001
0010
0001
1000
0100
0010
0001
1000
0100
,
1000
0001
0010
0001
0100
0010
1000
0001
0100
0001
1000
0010
0100
0001
0100
0010
,
1000
0001
0100
0001
1000
0100
0010
0001
1000
0100
1000
0001
0010
0001
0100
0010
,
1000
0001
0100
0010
0100
0001
1000
0100
1000
0010
1000
0001
0100
0001
0010
0100
,
1000
0001
0010
0001
1000
0100
0010
0100
1000
0001
0010
0001
1000
0100
1000
0001
,
1000
0010
0100
0001
0100
0010
1000
0100
1000
0001
0100
0001
1000
0100
0010
0001
,
1000
0100
1000
0001
0010
0001
0100
0010
1000
0001
0100
0010
0100
0001
1000
0100
,
1000
0001
0010
0001
0100
0010
0100
0001
1000
0100
0010
0100
1000
0001
0010
0001
,
1000
0001
0100
0010
0100
0001
0100
0010
1000
0100
1000
0001
1000
0100
0010
0001
,
1000
0001
0100
0010
1000
0001
1000
0100
0010
0001
1000
0001
0010
0100
1000
0001
,
0100
0001
1000
0010
1000
0001
0010
0001
0100
0010
1000
0001
0100
0001
1000
0100
,
1000
0001
0100
0001
1000
0100
0010
0001
1000
0000
0020
0000
0000
0000
0230
0000
,
0000
0000
0300
0000
0000
0000
0000
0000
0001
0000
1000
0000
0001
0000
1000
0000
0010
0000
0100
0000
0001
0000
1000
0000
0100
0010
0001
0100
0010
1000
0001
1000
,
0100
0010
0001
1000
0010
0100
0001
0100
0010
1000
0001
0100
0001
0100
0010
1000
0001
0100
0010
1000
0001
1000
0100
0010
0001
1000
0001
0010
0100
1000
0001
1000
,
0100
0000
0000
0000
0000
0000
0010
0000
0000
0000
0000
0000
0001
0000
0000
0000
0000
0000
1000
0000
0000
0000
0000
0000
0010
0000
0000
0000
0000
0000
1000
0000
0000
0000
0000
0000
0001
0000
0000
0000
0000
0000
1000
0000
0000
0000
0000
0000
0100
0000
0000
0000
0000
0000
0000
0000
0000
0000
0010
0000
0000
0000
0000
0000
0000
0000
0000
0001
0000
0000
0000
0000
0000
0000
0000
0000
0000
1000
0000
0000
0000
0000
0000
0000
0000
0000
0001
0000
0000
0000
0000
0000
0000
0000
0000
0000
0200
0000
0000
0000
0000
0000
0000
0000
0000
0000
0000
0000
0000
0000
0000
0000
0000
0000
0000
0000
0000
0000
0000
0000
0310
0000
0000
0000
0000
0000
0000
0000
0000
0000
0000
0000
0000
0000
0000
0000
0000
0000
0000
0000
0000
0000
0000
0000
2000
0000
0000
0000
0000
0000
0000
0000
0000
0000
0000
0000
0000
0000
0000
0000
0000
0000
0000
0000
0000
0000
0000
0000
3001
0000
0000
0000
0000
0000
0000
0000
0000
0000
0000
0000
0000
0000
0000
0000
0000
0000
0000
0000
0000
0000
0000
0000
,
0200
0302
1003
0200
0310
0002
2003
3100
,
2000
3020
0230
0302
2003
3001
0020
0130
,
2000
3002
0023
0032
0103
0020
0230
0302
,
2003
3200
0320
0230
2300
3001
0020
0031
,
2000
3002
1003
0200
0310
0002
2003
3001
,
0200
0320
2030
3002
0203
0301
2000
3010
,
0200
0302
2003
3200
0310
0002
2003
3020
,
1030
0001
1000
0010
0200
0000
0000
0000
0301
1000
0010
1000
0001
0100
0010
1000
,
0100
1000
0001
0010
0001
1000
0100
0010
0001
1000
0100
1000
0010
0100
0001
1000
,
0100
1000
0001
0100
0001
0010
0100
1000
0001
1000
0010
0100
0001
1000
0010
1000
,
0001
0100
0010
0100
0001
1000
0100
1000
0010
0100
0010
1000
0001
0100
0001
0010
,
0100
1000
0001
0010
0001
0100
0001
1000
0100
0010
0100
1000
0001
1000
0010
0100
,
0001
0100
0010
1000
0100
1000
0001
0100
0010
1000
0001
0100
0001
0010
0100
1000
,
0001
0010
0001
1000
0100
0010
0100
1000
0001
1000
0010
0100
0001
0100
0010
1000
,
0100
1000
0001
1000
0010
0100
0001
0100
0001
0010
0100
1000
0001
0010
0001
0100
,
0010
1000
0001
0100
0010
0100
0001
1000
0100
0010
0001
1000
0100
1000
0001
0010
,
0001
0100
0010
1000
0001
0100
0010
0100
0001
1000
0100
1000
0001
0010
0001
1000
,
0010
1000
0001
0100
0010
1000
0001
0100
0001
0010
0100
1000
0100
0010
0001
1000
,
0001
0100
0010
0100
0001
1000
0001
0010
0100
1000
0100
0010
0001
1000
0100
1000
,
0010
0100
0001
0100
0010
1000
0001
0010
0001
1000
0100
0010
0001
1000
0100
1000
,
0010
0100
0001
1000
0010
0100
0010
1000
0001
0100
0001
1000
0010
0100
0001
1000
,
0100
0010
0100
1000
0001
0100
0010
0100
0001
1000
0010
1000
0100
1000
0001
0010
,
0001
0100
0010
1000
0001
0100
0010
1000
0001
0100
0010
1000
0001
0100
0010
0100
,
0001
1000
0001
1000
0001
1000
0001
1000
0010
0100
0001
0010
0001
1000
0100
1000
,
0001
0010
0001
0100
0010
1000
0001
0100
0010
1000
0001
0100
0001
1000
0100
0010
,
0001
1000
0100
1000
0001
0010
0001
1000
0100
0010
0001
1000
0100
1000
0001
0010
,
0001
0100
0010
1000
0001
0100
0001
1000
0010
0100
0001
0100
0010
1000
0001
0010
,
0001
1000
0100
0010
0001
1000
0100
1000
0001
0010
0001
0100
0010
1000
0001
0100
,
0001
1000
0010
0100
0001
0100
0010
1000
0001
0100
0001
1000
0100
0010
0001
1000
,
0100
1000
0001
0010
0001
0100
0010
1000
0001
0100
0010
0100
0001
1000
0100
1000
,
0010
1000
0001
0100
0001
0010
0100
1000
0001
0010
0001
1000
0100
0010
0100
1000
,
0001
0010
0001
1000
0100
1000
0001
1000
0010
0100
0001
0100
0010
1000
0100
1000
,
0001
0100
0001
1000
0100
0010
0001
1000
0100
1000
0001
0010
0001
0100
0010
1000
,
0001
0100
0010
0100
0001
1000
0100
1000
0001
0010
0001
0100
0010
1000
0001
1000
,
0100
0010
0100
1000
0001
0010
0001
0100
0010
1000
0001
0100
0010
0100
0001
1000
,
0100
1000
0010
1000
0001
0100
0001
0010
0100
1000
0001
0010
0001
1000
0100
0010
,
0100
1000
0001
0010
0001
0100
0010
1000
0001
1000
0010
0100
0001
1000
0100
1000
,
0010
1000
0001
0100
0001
1000
0100
0010
0001
1000
0001
0100
0010
1000
0001
0010
,
0200
0000
2300
0000
3002
0000
0203
0000
0310
1000
0001
1000
0100
0010
0001
1000
,
0010
0000
0000
0000
0000
0000
0000
0000
0000
0000
0000
0000
0100
0000
0000
0000
0000
0000
0000
0000
0000
0000
0000
0000
0002
0000
0000
0000
0000
0000
0000
0000
0000
0000
0000
0000
0000
0000
0000
0000
0000
0000
0000
0003
0000
0000
0000
0000
2001
0000
0000
0000
0000
0000
0000
0000
0000
0000
0000
0000
3000
0000
0000
0000
0000
0000
0020
0000
0000
0000
0000
0000
0000
0000
0000
0000
0000
0000
0000
0000
0000
0000
0000
0000
0230
0000
0000
0000
0000
0000
0000
0000
0000
0000
0000
0000
,
0302
0000
0000
0000
0000
0000
0000
0000
2003
0000
0000
0000
0000
3200
0000
0000
0320
0000
0000
0000
0000
0000
0000
0032
0000
0000
2003
0000
0000
0000
3000
0000
,
0020
0000
0000
0000
0230
0000
0000
0300
0000
0000
0000
0000
0002
0000
0000
0003
0200
0000
0000
0000
0000
0000
0000
0300
0200
0000
0000
0000
0000
0300
0200
0000
,
0000
0000
0000
0000
0000
0300
00M0
0000
0000
0000
0002
0000
2003
0000
3020
0000
0000
0000
0000
0000
0230
0000
0000
0000
0000
0000
0302
0000
0000
0000
2003
0000
,
0000
0000
0000
0000
3200
0000
0000
0300
0000
0000
0000
0000
0000
0000
0000
0000
0020
0000
0000
0000
0030
0000
0002
0000
0000
0000
0000
0000
2003
0000
0000
0000
,
3020
0000
0230
0000
0000
0000
0000
0000
0000
0302
0000
0000
0000
0000
2003
0000
0000
3020
0000
0000
0000
0000
0000
0230
0000
0000
0302
0000
0000
0000
0003
0000
,
2000
0000
0000
0000
3020
0000
0000
0030
0000
0000
0000
0000
2000
0000
0000
3000
0200
0000
0000
0000
0000
0000
0300
0000
0200
0000
0000
0000
0000
0300
0200
0000
,
0000
0000
0000
0000
0000
0000
03M0
0000
0000
0000
0020
0000
0032
0000
2003
0000
0000
0000
0000
0000
3020
0000
0000
0000
0000
0230
0000
0000
0000
0000
0302
0000
,
0000
0000
0000
2000
0003
0000
0000
0000
3000
0000
0000
0000
0M20
0000
0000
0000
203M
0000
0000
0000
3002
0000
0000
0000
0203
0000
0000
0000
0300
0000
0000
0000
,
0000
0000
0000
0000
0020
2030
3002
2003
,
3000
0000
0200
0000
0310
0001
2M00
0000
302M
0000
0230
0000
0302
0000
0003
0000
,
0000
0000
0000
0000
2000
3200
0320
0032
,
0003
0000
2000
0000
3010
0100
001M
1000
0M02
0000
0023
0000
0230
0000
0300
0000
,
0000
0000
0000
0000
2000
3020
0230
0302
,
0003
0000
2000
0000
3010
0100
00M2
0000
20M3
0000
3200
0000
0320
0000
0030
0000
,
0000
0000
0000
0000
0000
0001
0010
0200
0000
0000
0000
0000
0000
2300
0000
3020
,
0000
0000
0230
0000
0300
0000
00M0
0000
1000
0100
0010
0001
1000
0010
0100
0001
,
1000
0001
0010
0100
1000
0001
0100
0001
1000
0010
0100
0001
1000
0100
0010
0001
,
1000
0100
0010
0001
0100
0010
1000
0001
0100
0001
1000
0100
0010
0001
1000
0001
,
0100
0010
1000
0001
0010
0001
1000
0100
0010
0100
1000
0001
1000
0010
0100
0001
,
0100
0010
1000
0001
0010
0001
1000
0100
0010
0001
0010
0100
1000
0001
0100
0001
,
0100
0010
1000
0001
1000
0100
0010
0001
1000
0100
1000
0001
0100
0001
0010
0100
,
1000
0001
0010
0001
0100
0010
1000
0001
0100
0010
0100
0001
1000
0100
1000
0010
,
0100
0001
1000
0100
0010
0001
1000
0010
1000
0001
1000
0010
0100
0001
0100
0010
,
1000
0001
0100
0001
1000
0001
0010
0100
0010
0001
1000
0100
1000
0010
0100
0001
,
1000
0010
0100
0001
1000
0100
0010
0001
1000
0100
1000
0001
0010
0001
0100
0010
,
1000
0001
1000
0100
0010
0100
1000
0001
1000
0010
0100
0001
0100
0010
1000
0001
,
1000
0100
0010
0100
1000
0001
0100
0001
1000
0100
1000
0010
0100
0001
1000
0100
,
1000
0001
0100
0010
0100
0001
1000
0100
1000
0001
0010
0100
1000
0100
0010
0001
,
1000
0010
1000
0001
0100
0001
1000
0100
0010
0100
1000
0001
0010
0001
1000
0001
,
0100
0010
0100
0001
0100
0010
1000
0001
0010
0001
1000
0100
0010
0001
1000
0100
,
1000
0001
1000
0010
0100
0001
1000
0010
0100
0010
1000
0001
0100
0001
1000
0100
,
0010
0001
0010
0001
0010
0001
0010
0001
1000
0010
1000
0001
0100
0001
1000
0100
,
0010
0001
1000
0100
1000
0001
0010
0001
0100
0010
1000
0001
0100
0010
1000
0001
,
0100
0001
1000
0100
0010
0001
1000
0100
1000
0001
0010
0001
1000
0100
0010
0001
,
1000
0100
1000
0001
0010
0001
0100
0010
1000
0001
0100
0001
1000
0010
0100
0001
,
0100
0010
1000
0001
0010
0001
1000
0100
0010
0001
1000
0100
1000
0001
0010
0001
,
0100
0010
1000
0001
0100
0001
1000
0010
0100
0001
0100
0010
1000
0001
0100
0001
,
1000
0100
0010
0001
1000
0100
1000
0001
0010
0001
0100
0010
1000
0001
0100
0010
,
0100
0001
1000
0100
1000
0010
1000
0001
0100
0001
0010
0100
1000
0001
0010
0001
,
1000
0100
0010
0100
1000
0001
0010
0001
1000
0100
1000
0001
1000
0010
0100
0001
,
0100
0010
1000
0100
1000
0001
0100
0001
1000
0100
0010
0001
1000
0100
1000
0001
,
0010
0001
0100
0010
1000
0001
0100
0010
0100
0001
1000
0100
1000
0001
0010
0001
,
0100
0010
0100
0001
1000
0100
0010
0100
1000
0001
0010
0001
1000
0001
0100
0010
,
0100
0001
0100
0010
1000
0100
1000
0001
1000
0100
0010
0001
1000
0001
0100
0010
,
1000
0001
1000
0100
0010
0001
1000
0001
0010
0100
1000
0001
0100
0001
1000
0010
,
1000
0001
0010
0001
0100
0010
1000
0001
0100
0001
1000
0100
1000
0001
0100
0001
,
1000
0100
0010
0001
1000
0010
1000
0001
0100
0010
1000
0001
0100
0001
1000
0100
,
0010
0000
0000
0000
0000
0000
0000
0000
0000
0000
0000
0000
0001
0000
0000
0000
0000
0000
0000
0000
0000
0000
0000
0000
1000
0000
0000
0000
0000
0000
0000
0000
0000
0000
0000
0000
0010
0000
0000
0000
0000
0000
0000
0000
0000
0000
0000
0000
0100
0000
0000
0000
0000
0000
0000
0000
0000
0000
0001
0000
0000
0000
0000
0000
0000
0000
0000
1000
0000
0000
0000
0000
0000
0000
0000
0000
0000
0001
0000
0000
0000
0000
0000
0000
0000
0000
0010
0000
0000
0000
0000
0000
0000
0000
0000
0000
0200
0000
0000
0000
0000
0000
0000
0000
0000
0000
0000
0000
0000
0000
0000
0000
0000
0000
0000
0000
0000
0000
0000
0000
0000
0000
0000
0000
0000
0000
0000
0000
0000
0000
0000
0000
0000
0000
0000
0000
0000
0000
0000
0000
0000
0000
0000
0000
0300
0000
0000
0000
0000
0000
0000
0000
0000
0000
0000
0000
0000
0000
0000
0000
0000
0000
0000
0000
0000
0000
0000
0000
0M00
0000
0000
0000
0000
0000
0000
0000
0000
0000
0000
0000
0M00
0000
0000
0000
0000
0000
0000
0000
0000
0000
0000
0000
,
0M00
0000
0000
0000
;
