#TITLE:Alive in the Darkness;
#SUBTITLE:;
#ARTIST:Lv.4;
#TITLETRANSLIT:;
#SUBTITLETRANSLIT:;
#ARTISTTRANSLIT:;
#CREDIT:;
#BANNER:../banner.png;
#BACKGROUND:../bg.png;
#LYRICSPATH:;
#CDTITLE:;
#MUSIC:Alive in the darkness.ogg;
#OFFSET:0.000;
#SAMPLESTART:153.360;
#SAMPLELENGTH:21.540;
#SELECTABLE:YES;
#BPMS:0.000=180.000,1000.000=179.999;
#STOPS:;
#BGCHANGES:;
// cache tags:
#FIRSTBEAT:4.000;
#LASTBEAT:1232.000;
#SONGFILENAME:Songs/Cirque du Lykan/Alive in the darkness - [Zaia]/Alive in the darkness.sm;
#HASMUSIC:1;
#HASBANNER:1;
#MUSICLENGTH:418.035;
// end cache tags

//---------------dance-single - Zaia - 17(low-mid)----------------
#NOTES:
     dance-single:
     Zaia - 17(low-mid):
     Challenge:
     17:
     1.000,1.000,0.041,0.060,1.000,4512.000,17.000,25.000,0.000,1.000:
0000
0000
0000
0000
,
1000
0010
1000
0001
0100
0001
1000
0100
0010
0001
1000
0010
0100
0001
0010
0100
,
0010
0001
1000
0100
1000
0001
0010
0001
1000
0001
0100
0010
1000
0100
0010
0001
,
1000
0001
0100
0010
0100
0001
1000
0001
0010
0001
1000
0100
1000
0010
0100
0010
,
1000
0001
0010
0100
1000
0001
1000
0010
0100
0010
1000
0001
0010
0001
0100
0010
,
1000
0001
1000
0100
1000
0001
0100
0010
1000
0001
0010
0100
1000
0010
0100
0010
,
1000
0001
0010
0001
1000
0010
1000
0001
1000
0100
0010
0001
0100
0010
1000
0001
,
1000
0100
0010
0100
1000
0001
1000
0010
1000
0001
0100
0001
0010
0100
0010
0001
,
1000
0010
0100
0001
1000
0001
0010
0100
0010
0001
0100
0010
0100
0001
1000
0001
,
1000
0100
1000
0001
0010
0001
1000
0010
0100
0001
1000
0100
0010
0001
0100
0010
,
0100
0001
1000
0100
1000
0001
0100
0001
1000
0001
0010
0100
1000
0010
0100
0001
,
1000
0001
0010
0100
0010
0001
1000
0001
0100
0001
1000
0010
1000
0100
0010
0100
,
1000
0001
0100
0010
1000
0001
1000
0100
0010
0100
1000
0001
0100
0001
0010
0100
,
1000
0001
1000
0010
1000
0001
0010
0100
1000
0001
0100
0010
1000
0100
0010
0100
,
1000
0001
0010
0001
1000
0100
1000
0001
1000
0010
0100
0001
0010
0100
1000
0001
,
1000
0010
1000
0001
1000
0010
1000
0001
0100
0010
0100
0001
1000
0001
0010
0100
,
1000
0001
0100
0001
0010
0001
1000
0100
1000
0001
0100
0010
1000
0001
1000
0001
,
0100
0010
1000
0001
1000
0100
0010
0100
1000
0001
1000
0010
0100
0001
1000
0100
,
1000
0001
0100
0010
1000
0001
0010
0100
1000
0010
0100
0001
1000
0001
0010
0001
,
1000
0010
0100
0010
1000
0001
1000
0100
1000
0001
0010
0100
1000
0001
0100
0010
,
1000
0001
1000
0100
0010
0100
1000
0010
1000
0001
0010
0001
1000
0010
1000
0001
,
0010
0100
1000
0001
1000
0010
0100
0010
1000
0001
1000
0100
0010
0001
1000
0010
,
1000
0001
0010
0100
1000
0001
0100
0010
1000
0100
0010
0001
1000
0001
0100
0001
,
1000
0100
0010
0100
1000
0001
1000
0010
1000
0001
0100
0010
1000
0001
0010
0100
,
1000
0001
1000
0010
0100
0010
1000
0100
1000
0001
0100
0001
1000
0100
1000
0001
,
1000
0010
0100
0001
0010
0001
1000
0010
1000
0010
0100
0001
0010
0001
1000
0100
,
1000
0100
0010
0001
0100
0001
0100
0010
1000
0100
0010
0001
0100
0010
1000
0010
,
0100
0001
0100
0010
1000
0100
1000
0001
0100
0001
0100
0010
1000
0100
1000
0001
,
0010
0001
0010
0100
1000
0010
1000
0010
0100
0001
0010
0100
1000
0010
0100
0001
,
1000
0010
1000
0001
1000
0001
0010
0100
1000
0100
1000
0001
0100
0010
0100
0001
,
1000
0001
0010
0001
0010
0100
1000
0001
1000
0010
0100
0001
0100
0001
1000
0010
,
1000
0001
0010
0100
1000
0001
1000
0010
0100
0010
1000
0001
0010
0001
1000
0100
,
0010
0001
1000
0001
0100
0010
0100
0001
1000
0100
1000
0001
1000
0010
0100
0001
,
2000
0001
0001
0001
,
3002
0000
0000
0000
0100
0000
0000
0000
0100
0000
0000
0000
0103
0000
0010
1000
,
0002
0010
0010
0010
,
0010
0000
0000
0000
0010
0000
0000
0000
0010
0000
0000
0000
0013
0000
0100
1000
,
0020
1000
1000
1000
,
2030
0000
0000
0000
0001
0000
0000
0000
0001
0000
0000
0000
3001
0000
1000
0010
,
0200
0010
0010
0010
,
0010
0010
0010
0310
,
1002
1000
1000
1000
,
0023
0100
0100
0130
,
1001
0101
1001
1100
,
0110
0011
0101
1010
,
0000
0000
0001
0100
0000
0000
0001
1000
0000
0000
0001
0010
0000
0000
0100
1000
,
0000
0000
0001
1000
0000
0000
0010
0100
0000
0000
0001
0100
0000
0000
0010
1000
,
0000
0000
0000
0001
0100
0001
1000
0000
0000
0010
0100
0001
1000
0000
0000
0001
0010
0001
1000
0000
0000
0100
0010
0001
,
1000
0000
0001
0000
1000
0100
1000
0001
1000
0000
0000
0000
0001
0100
0010
1000
,
0001
1000
0100
1000
0001
0010
0001
0100
0001
1000
0010
0100
0001
1000
0100
0010
,
0100
1000
0010
1000
0001
0010
0001
1000
0010
0100
0001
1000
0001
0010
0100
1000
,
0010
0100
0001
1000
0100
1000
0010
1000
0001
0010
0100
0010
0001
1000
0100
1000
,
0001
0100
0010
0100
0001
0010
0001
1000
0100
1000
0010
1000
0001
0100
0010
0100
,
0001
1000
0100
0010
0001
1000
0100
1000
0010
1000
0001
0100
0010
1000
0001
0010
,
0100
0010
0001
0100
0001
1000
0100
1000
0001
0100
0010
1000
0001
1000
0100
0010
,
0001
0100
0010
1000
0001
0010
0001
0100
0001
1000
0100
0010
0100
1000
0001
0010
,
0001
1000
0010
0100
0010
1000
0100
1000
0001
0010
0001
0100
0001
1000
0100
0010
,
0001
1000
0010
1000
0001
0100
0001
0010
0001
1000
0100
0010
0001
1000
0010
0100
,
0010
1000
0100
1000
0001
0100
0001
1000
0100
0010
0001
1000
0001
0100
0010
1000
,
0100
0010
0001
1000
0010
1000
0100
1000
0001
0100
0010
0100
0001
1000
0010
1000
,
0001
0010
0100
0010
0001
0100
0001
1000
0010
1000
0100
1000
0001
0010
0100
0010
,
0001
1000
0010
0100
0001
1000
0010
1000
0100
1000
0001
0010
0100
1000
0001
0100
,
0010
0100
0001
0010
0001
1000
0010
1000
0001
0010
0100
1000
0001
1000
0010
0100
,
0001
0010
0100
1000
0001
0100
0001
0010
0001
1000
0010
0100
0010
1000
0001
0100
,
0001
1000
0100
0010
0100
1000
0010
1000
0001
0100
0001
0010
0001
1000
0010
0100
,
0001
1000
0100
1000
0001
0010
0001
0100
0001
1000
0010
0100
0001
1000
0100
0010
,
0100
1000
0010
1000
0001
0010
0001
1000
0010
0100
0001
1000
0001
0010
0100
1000
,
0010
0100
0001
1000
0100
1000
0010
1000
0001
0010
0100
0010
0001
1000
0100
1000
,
0001
0100
0010
0100
0001
0010
0001
1000
0100
1000
0010
1000
0001
0100
0010
0100
,
0001
1000
0100
0010
0001
1000
0100
1000
0010
1000
0001
0100
0010
1000
0001
0010
,
0100
0010
0001
0100
0001
1000
0100
1000
0001
0100
0010
1000
0001
1000
0100
0010
,
0001
0100
0010
1000
0001
0010
0001
0100
0001
1000
0100
0010
0100
1000
0001
0010
,
0001
1000
0010
0100
0010
1000
0100
1000
0001
0010
0001
0100
0001
1000
0100
0010
,
0001
1000
0010
1000
0001
0100
0001
0010
0001
1000
0100
0010
0001
1000
0010
0100
,
0010
1000
0100
1000
0001
0100
0001
1000
0100
0010
0001
1000
0001
0100
0010
1000
,
0100
0010
0001
1000
0010
1000
0100
1000
0001
0100
0010
0100
0001
1000
0010
1000
,
0001
0010
0100
0010
0001
0100
0001
1000
0010
1000
0100
1000
0001
0010
0100
0010
,
0001
1000
0010
0100
0001
1000
0010
1000
0100
1000
0001
0010
0100
1000
0001
0100
,
0010
0100
0001
0010
0001
1000
0010
1000
0001
0010
0100
1000
0001
1000
0010
0100
,
0001
0010
0100
1000
0001
0100
0001
0010
0001
1000
0010
0100
0010
1000
0001
0100
,
0001
1000
0100
0010
0100
1000
0010
1000
0001
0100
0001
0010
0001
1000
0010
0100
,
0002
0000
1000
0000
,
0203
0000
0320
0000
,
2030
0000
0000
0000
3002
0000
0103
0020
,
0000
0000
0000
0000
0000
0000
0000
0000
0000
0000
0000
0000
1030
0001
0010
0100
,
2000
0000
0001
0000
,
3200
0000
0320
0032
,
2003
0000
3002
0000
,
0203
0000
0000
0000
0000
0000
0000
0000
0302
0000
0000
0000
1003
0100
0010
0001
,
1000
0000
0000
0000
1010
0000
0000
0010
,
0100
0001
1001
0000
,
1000
0000
0000
0000
1100
0000
0000
0100
,
0010
0001
0011
0000
,
0001
0000
0000
0000
1001
0000
0000
1000
,
0010
0100
0101
0000
,
0001
0000
0000
0000
1010
0000
0000
1000
,
0001
0000
0000
0000
0100
0010
1000
0001
0100
0001
0100
0010
1000
0001
0010
0100
,
1000
0010
1000
0001
0100
0001
1000
0100
0010
0001
1000
0010
0100
0001
0010
0100
,
0010
0001
1000
0100
1000
0001
0010
0001
1000
0001
0100
0010
1000
0100
0010
0001
,
1000
0001
0100
0010
0100
0001
1000
0001
0010
0001
1000
0100
1000
0010
0100
0010
,
1000
0001
0010
0100
1000
0001
1000
0010
0100
0010
1000
0001
0010
0001
0100
0010
,
1000
0001
1000
0100
1000
0001
0100
0010
1000
0001
0010
0100
1000
0010
0100
0010
,
1000
0001
0010
0001
1000
0010
1000
0001
1000
0100
0010
0001
0100
0010
1000
0001
,
1000
0100
0010
0100
1000
0001
1000
0010
1000
0001
0100
0001
0010
0100
0010
0001
,
1000
0010
0100
0001
1000
0001
0010
0100
0010
0001
0100
0010
0100
0001
1000
0001
,
0100
0010
1000
0001
1000
0100
0010
0100
1000
0001
1000
0010
0100
0001
1000
0100
,
1000
0001
0100
0010
1000
0001
0010
0100
1000
0010
0100
0001
1000
0001
0010
0001
,
1000
0010
0100
0010
1000
0001
1000
0100
1000
0001
0010
0100
1000
0001
0100
0010
,
1000
0001
1000
0100
0010
0100
1000
0010
1000
0001
0010
0001
1000
0010
1000
0001
,
0010
0100
1000
0001
1000
0010
0100
0010
1000
0001
1000
0100
0010
0001
1000
0010
,
1000
0001
0010
0100
1000
0001
0100
0010
1000
0100
0010
0001
1000
0001
0100
0001
,
1000
0100
0010
0100
1000
0001
1000
0010
1000
0001
0100
0010
1000
0001
0010
0100
,
1000
0001
1000
0010
0100
0010
1000
0100
1000
0001
0100
0001
1000
0100
1000
0001
,
1000
0000
0000
0000
,
0000
0002
2003
3110
,
1000
0001
0100
0010
1000
0001
0010
0001
1000
0100
1000
0010
0100
0001
0100
0010
,
1000
0001
0010
0001
1000
0010
1000
0001
0100
0001
0010
0001
1000
0100
1000
0010
,
0100
0001
1000
0100
0010
0100
1000
0001
0100
0010
1000
0001
0010
0001
1000
0001
,
0100
0010
0100
0001
0010
0100
1000
0001
1000
0010
0100
0010
1000
0100
1000
0001
,
0010
0100
0010
0001
1000
0010
0100
0010
1000
0001
1000
0100
1000
0001
0100
0010
,
1000
0001
0010
0100
1000
0010
0100
0001
1000
0010
1000
0001
0010
0001
0100
0001
,
1000
0100
0010
0100
1000
0001
1000
0010
0100
0001
1000
0100
1000
0001
1000
0010
,
0100
0001
0010
0001
1000
0100
1000
0001
0010
0001
0100
0001
1000
0010
1000
0001
,
0100
0001
0010
0100
1000
0001
0100
0001
1000
0010
1000
0100
0010
0001
0010
0100
,
1000
0001
0100
0001
1000
0100
1000
0001
0010
0001
0100
0001
1000
0010
1000
0100
,
0010
0001
1000
0010
0100
0010
1000
0001
0010
0100
1000
0001
0100
0001
1000
0001
,
0010
0100
0010
0001
0100
0010
1000
0001
1000
0100
0010
0100
1000
0010
1000
0001
,
0100
0010
0100
0001
1000
0100
0010
0100
1000
0001
1000
0010
1000
0001
0010
0100
,
1000
0001
0100
0010
1000
0100
0010
0001
1000
0100
1000
0001
0100
0001
0010
0001
,
1000
0010
0100
0010
1000
0001
1000
0100
0010
0001
1000
0010
1000
0001
1000
0100
,
0010
0001
0100
0001
1000
0010
1000
0001
0100
0001
0010
0001
1000
0100
1000
0001
,
0010
0001
1000
0010
0100
0001
1000
0100
1000
0001
0010
0001
0100
0010
1000
0010
,
0100
0001
1000
0100
1000
0001
0100
0001
1000
0010
1000
0100
1000
0001
0010
0001
,
0100
0010
1000
0001
0010
0100
0010
0001
1000
0010
0100
0001
1000
0100
1000
0001
,
1000
0010
0100
0010
1000
0100
0010
0001
1000
0001
0100
0010
0100
0001
0010
0001
,
1000
0100
0010
0100
1000
0001
0100
0010
0100
0001
1000
0001
0010
0001
1000
0010
,
0100
0001
1000
0100
0010
0001
0100
0010
1000
0001
0100
0001
1000
0100
1000
0010
,
1000
0001
0010
0100
0010
0001
1000
0001
0100
0010
1000
0001
0010
0001
1000
0001
,
0100
0010
1000
0100
1000
0001
0010
0001
1000
0100
1000
0010
1000
0001
0100
0001
,
1000
0010
1000
0100
0010
0001
1000
0010
1000
0001
0100
0001
0010
0100
1000
0100
,
0010
0001
1000
0010
1000
0001
0010
0001
1000
0100
1000
0010
1000
0001
0100
0001
,
0010
0100
1000
0001
0100
0010
0100
0001
1000
0100
0010
0001
1000
0010
1000
0001
,
1000
0100
0010
0100
1000
0010
0100
0001
1000
0001
0010
0100
0010
0001
0100
0001
,
1000
0010
0100
0010
1000
0001
0010
0100
0010
0001
1000
0001
0100
0001
1000
0100
,
0010
0001
1000
0010
0100
0001
0010
0100
1000
0001
0010
0001
1000
0010
1000
0100
,
1000
0001
0100
0010
0100
0001
1000
0001
0010
0100
1000
0001
0100
0001
1000
0001
,
0010
0100
1000
0010
1000
0001
0100
0001
1000
0010
1000
0100
1000
0001
0010
0001
,
1000
0010
0100
0001
1000
0100
0010
0100
1000
0001
1000
0010
0100
0001
1000
0100
,
1000
0001
0100
0010
1000
0001
0010
0100
1000
0010
0100
0001
1000
0001
0010
0001
,
1000
0010
0100
0010
1000
0001
1000
0100
1000
0001
0010
0100
1000
0001
0100
0010
,
1000
0001
1000
0100
0010
0100
1000
0010
1000
0001
0010
0001
1000
0010
1000
0001
,
0010
0100
1000
0001
1000
0010
0100
0010
1000
0001
1000
0100
0010
0001
1000
0010
,
1000
0001
0010
0100
1000
0001
0100
0010
1000
0100
0010
0001
1000
0001
0100
0001
,
1000
0100
0010
0100
1000
0001
1000
0010
1000
0001
0100
0010
1000
0001
0010
0100
,
1000
0001
1000
0010
0100
0010
1000
0100
1000
0001
0100
0001
1000
0100
1000
0001
,
1000
0010
0100
0001
0010
0001
1000
0010
1000
0010
0100
0001
0010
0001
1000
0100
,
1000
0100
0010
0001
0100
0001
0100
0010
1000
0100
0010
0001
0100
0010
1000
0010
,
0100
0001
0100
0010
1000
0100
1000
0001
0100
0001
0100
0010
1000
0100
1000
0001
,
0010
0001
0010
0100
1000
0010
1000
0010
0100
0001
0010
0100
1000
0010
0100
0001
,
1000
0010
1000
0001
1000
0001
0010
0100
1000
0100
1000
0001
0100
0010
0100
0001
,
1000
0001
0010
0001
0010
0100
1000
0001
1000
0010
0100
0001
0100
0001
1000
0010
,
1000
0001
0010
0100
1000
0001
1000
0010
0100
0010
1000
0001
0010
0001
1000
0100
,
0010
0001
1000
0001
0100
0010
0100
0001
1000
0001
1000
0010
0100
0001
0100
0001
,
1000
0100
1000
0001
1000
0010
0100
0010
1000
0001
1000
0100
0010
0001
1000
0010
,
1000
0001
0010
0100
1000
0001
0100
0010
1000
0100
0010
0001
1000
0001
0100
0001
,
1000
0100
0010
0100
1000
0001
1000
0010
1000
0001
0100
0010
1000
0001
0010
0100
,
1000
0001
1000
0010
0100
0010
1000
0100
1000
0001
0100
0001
1000
0100
1000
0001
,
0100
0010
1000
0001
1000
0100
0010
0100
1000
0001
1000
0010
0100
0001
1000
0100
,
1000
0001
0100
0010
1000
0001
0010
0100
1000
0010
0100
0001
1000
0001
0010
0001
,
1000
0010
0100
0010
1000
0001
1000
0100
1000
0001
0010
0100
1000
0001
0100
0010
,
1000
0001
1000
0100
0010
0100
1000
0010
1000
0001
0010
0001
1000
0010
1000
0001
,
1000
0100
0010
0001
0100
0001
1000
0100
1000
0100
0010
0001
0100
0001
1000
0010
,
1000
0010
0100
0001
0010
0001
0010
0001
1000
0010
0100
0001
0010
0100
1000
0100
,
0010
0001
0010
0100
1000
0010
1000
0001
0010
0001
0010
0100
1000
0010
1000
0001
,
0100
0001
0100
0010
1000
0100
1000
0100
1000
0001
0100
0010
1000
0100
0010
0001
,
1000
0100
1000
0001
1000
0001
0100
0010
1000
0010
1000
0001
0010
0100
0010
0001
,
1000
0001
0100
0001
0100
0010
1000
0001
1000
0100
0010
0001
0010
0001
1000
0100
,
1000
0001
0100
0010
1000
0001
1000
0100
0010
0100
1000
0001
0100
0001
1000
0010
,
0100
0001
1000
0001
0010
0100
0010
0001
1000
0010
1000
0001
1000
0100
0010
0001
,
1000
0010
0100
0001
1000
0100
1000
0010
1000
0001
0100
0010
1000
0001
0010
0100
,
0010
0001
0100
0001
1000
0100
1000
0001
0100
0010
1000
0001
1000
0100
0010
0001
,
0100
0010
1000
0001
0010
0001
0100
0001
1000
0100
0010
0100
1000
0001
0010
0001
,
1000
0010
0100
0010
1000
0100
1000
0001
0010
0001
0100
0001
1000
0010
0100
0010
,
1000
0001
0010
0100
1000
0001
0010
0001
0100
0001
1000
0010
0100
0001
1000
0100
,
0010
0100
1000
0010
1000
0001
0010
0001
1000
0010
0100
0001
1000
0001
0010
0100
,
1000
0010
0100
0001
1000
0100
1000
0010
1000
0001
0010
0100
0010
0001
1000
0100
,
1000
0001
0100
0010
0100
0001
0010
0001
1000
0100
1000
0010
1000
0001
0010
0100
,
1000
0001
0100
0001
1000
0100
1000
0001
0100
0001
1000
0010
0100
0001
1000
0001
,
0010
0100
1000
0001
0010
0001
1000
0010
1000
0001
0100
0010
1000
0001
1000
0100
,
0010
0100
1000
0001
0010
0001
1000
0010
1000
0001
0010
0100
0010
0001
1000
0001
,
0100
0010
1000
0001
0100
0001
1000
0010
1000
0001
0010
0100
0010
0001
1000
0010
,
0100
0010
1000
0001
1000
0010
1000
0001
0010
0100
1000
0001
0010
0001
1000
0010
,
0100
0010
1000
0001
0100
0001
1000
0100
1000
0001
0010
0100
1000
0001
1000
0010
,
1000
0001
0010
0100
1000
0001
1000
0100
1000
0001
0100
0010
0100
0001
1000
0001
,
0010
0100
1000
0001
0010
0001
1000
0010
1000
0001
0100
0001
1000
0100
1000
0001
,
1000
0001
0010
0001
1000
0010
1000
0001
0010
0001
1000
0100
0010
0001
1000
0001
,
0100
0010
1000
0001
0100
0001
1000
0100
1000
0001
0010
0100
1000
0001
1000
0010
,
0100
0010
1000
0001
0100
0001
1000
0100
1000
0001
0100
0010
0100
0001
1000
0001
,
0010
0100
1000
0001
0010
0001
1000
0100
1000
0001
0100
0010
0100
0001
1000
0100
,
0010
0100
1000
0001
1000
0100
1000
0001
0100
0010
1000
0001
0100
0001
1000
0100
,
0010
0100
1000
0001
0010
0001
1000
0010
1000
0001
0100
0010
1000
0001
1000
0100
,
1000
0001
0100
0010
1000
0001
1000
0010
1000
0001
0010
0100
0010
0001
1000
0001
,
0100
0010
1000
0001
0100
0001
1000
0100
1000
0001
0010
0100
0010
0001
1000
0001
,
1000
0100
1000
0001
0100
0001
1000
0100
1000
0001
0010
0100
1000
0001
1000
0010
,
0100
0001
1000
0010
1000
0001
0010
0001
1000
0100
0010
0001
1000
0001
0100
0010
,
0100
0001
1000
0010
1000
0001
0010
0001
1000
0010
0100
0010
1000
0001
1000
0100
,
0010
0001
1000
0100
1000
0001
0010
0001
1000
0010
0100
0010
1000
0001
0010
0100
,
0010
0001
1000
0001
0010
0001
1000
0010
0100
0001
1000
0010
1000
0001
0010
0100
,
0010
0001
1000
0100
1000
0001
0100
0001
1000
0010
0100
0001
1000
0001
0010
0001
,
1000
0010
0100
0001
1000
0001
0100
0001
1000
0100
0010
0100
1000
0001
1000
0010
,
0100
0001
1000
0010
1000
0001
0010
0001
1000
0100
0010
0100
1000
0001
0100
0001
,
1000
0001
0010
0100
1000
0001
0100
0001
1000
0010
1000
0100
0010
0001
0010
0100
,
1000
0001
0100
0001
1000
0100
1000
0001
0010
0001
0100
0001
1000
0010
1000
0100
,
0010
0001
1000
0010
0100
0010
1000
0001
0010
0100
1000
0001
0100
0001
1000
0001
,
0010
0100
0010
0001
0100
0010
1000
0001
1000
0100
0010
0100
1000
0010
1000
0001
,
0100
0010
0100
0001
1000
0100
0010
0100
1000
0001
1000
0010
1000
0001
0010
0100
,
1000
0001
0100
0010
1000
0100
0010
0001
1000
0100
1000
0001
0100
0001
0010
0001
,
1000
0010
0100
0010
1000
0001
1000
0100
0010
0001
1000
0010
1000
0001
1000
0100
,
0010
0001
0100
0001
1000
0010
1000
0001
0100
0001
0010
0001
1000
0100
1000
0001
,
0010
0001
0100
0010
1000
0001
0010
0001
1000
0100
1000
0010
0100
0001
0100
0010
,
1000
0001
0010
0001
1000
0010
1000
0001
0100
0001
0010
0001
1000
0100
1000
0010
,
0100
0001
1000
0100
0010
0100
1000
0001
0100
0010
1000
0001
0010
0001
1000
0001
,
0100
0010
0100
0001
0010
0100
1000
0001
1000
0010
0100
0010
1000
0100
1000
0001
,
0010
0100
0010
0001
1000
0010
0100
0010
1000
0001
1000
0100
1000
0001
0100
0010
,
1000
0001
0010
0100
1000
0010
0100
0001
1000
0010
1000
0001
0010
0001
0100
0001
,
1000
0100
0010
0100
1000
0001
1000
0010
0100
0001
1000
0100
1000
0001
1000
0010
,
0100
0001
0010
0001
1000
0100
1000
0001
0010
0001
0100
0001
1000
0010
1000
0001
,
0100
0001
1000
0100
0010
0001
1000
0010
1000
0001
0100
0001
0010
0100
1000
0100
,
0010
0001
1000
0010
1000
0001
0010
0001
1000
0100
1000
0010
1000
0001
0100
0001
,
0010
0100
1000
0001
0100
0010
0100
0001
1000
0100
0010
0001
1000
0010
1000
0001
,
1000
0100
0010
0100
1000
0010
0100
0001
1000
0001
0010
0100
0010
0001
0100
0001
,
1000
0010
0100
0010
1000
0001
0010
0100
0010
0001
1000
0001
0100
0001
1000
0100
,
0010
0001
1000
0010
0100
0001
0010
0100
1000
0001
0010
0001
1000
0010
1000
0100
,
1000
0001
0100
0010
0100
0001
1000
0001
0010
0100
1000
0001
0100
0001
1000
0001
,
0010
0100
1000
0010
1000
0001
0100
0001
1000
0010
1000
0100
1000
0001
0010
0001
,
1000
0100
1000
0010
0100
0001
1000
0100
1000
0001
0010
0001
0100
0010
1000
0010
,
0100
0001
1000
0100
1000
0001
0100
0001
1000
0010
1000
0100
1000
0001
0010
0001
,
0100
0010
1000
0001
0010
0100
0010
0001
1000
0010
0100
0001
1000
0100
1000
0001
,
1000
0010
0100
0010
1000
0100
0010
0001
1000
0001
0100
0010
0100
0001
0010
0001
,
1000
0100
0010
0100
1000
0001
0100
0010
0100
0001
1000
0001
0010
0001
1000
0010
,
0100
0001
1000
0100
0010
0001
0100
0010
1000
0001
0100
0001
1000
0100
1000
0010
,
1000
0001
0010
0100
0010
0001
1000
0001
0100
0010
1000
0001
0010
0001
1000
0001
,
0100
0010
1000
0100
1000
0001
0010
0001
1000
0100
1000
0010
1000
0001
0010
0001
,
1000
0001
0100
0010
1000
0001
0010
0001
1000
0100
1000
0010
0100
0001
0100
0010
,
1000
0001
0010
0001
1000
0010
1000
0001
0100
0001
0010
0001
1000
0100
1000
0010
,
0100
0001
1000
0100
0010
0100
1000
0001
0100
0010
1000
0001
0010
0001
1000
0001
,
0100
0010
0100
0001
0010
0100
1000
0001
1000
0010
0100
0010
1000
0100
1000
0001
,
0010
0100
0010
0001
1000
0010
0100
0010
1000
0001
1000
0100
1000
0001
0100
0010
,
1000
0001
0010
0100
1000
0010
0100
0001
1000
0010
1000
0001
0010
0001
0100
0001
,
1000
0100
0010
0100
1000
0001
1000
0010
0100
0001
1000
0100
1000
0001
1000
0010
,
0100
0001
0010
0001
1000
0100
1000
0001
0010
0001
0100
0001
1000
0010
1000
0001
,
0100
0001
0010
0100
1000
0001
0100
0001
1000
0010
1000
0100
0010
0001
0010
0100
,
1000
0001
0100
0001
1000
0100
1000
0001
0010
0001
0100
0001
1000
0010
1000
0100
,
0010
0001
1000
0010
0100
0010
1000
0001
0010
0100
1000
0001
0100
0001
1000
0001
,
0010
0100
0010
0001
0100
0010
1000
0001
1000
0100
0010
0100
1000
0010
1000
0001
,
0100
0010
0100
0001
1000
0100
0010
0100
1000
0001
1000
0010
1000
0001
0010
0100
,
1000
0001
0100
0010
1000
0100
0010
0001
1000
0100
1000
0001
0100
0001
0010
0001
,
1000
0010
0100
0010
1000
0001
1000
0100
0010
0001
1000
0010
1000
0001
1000
0100
,
0010
0001
0100
0001
1000
0010
1000
0001
0100
0001
0010
0001
1000
0100
1000
0001
,
0100
0010
1000
0001
1000
0100
0010
0100
1000
0001
1000
0010
0100
0001
1000
0100
,
1000
0001
0100
0010
1000
0001
0010
0100
1000
0010
0100
0001
1000
0001
0010
0001
,
1000
0010
0100
0010
1000
0001
1000
0100
1000
0001
0010
0100
1000
0001
0100
0010
,
1000
0001
1000
0010
0100
0010
1000
0100
1000
0001
0100
0001
1000
0100
1000
0001
,
0100
0010
1000
0001
1000
0100
0010
0100
1000
0001
1000
0010
0100
0001
1000
0100
,
1000
0001
0100
0010
1000
0001
0010
0100
1000
0010
0100
0001
1000
0001
0010
0001
,
1000
0010
0100
0010
1000
0001
1000
0100
1000
0001
0010
0100
1000
0001
0100
0010
,
1000
0001
1000
0100
0010
0100
1000
0010
1000
0001
0010
0001
1000
0010
1000
0001
,
1000
0100
0010
0001
0100
0001
1000
0100
1000
0100
0010
0001
0100
0001
1000
0010
,
1000
0010
0100
0001
0010
0001
0010
0100
1000
0010
0100
0001
0010
0100
1000
0100
,
0010
0001
0010
0100
1000
0010
1000
0001
0010
0001
0010
0100
1000
0010
1000
0001
,
0100
0001
0100
0010
1000
0100
1000
0100
0010
0001
0100
0010
1000
0100
0010
0001
,
1000
0100
1000
0001
1000
0001
0100
0010
1000
0010
1000
0001
0010
0100
0010
0001
,
1000
0001
0100
0001
0100
0010
1000
0001
1000
0100
0010
0001
0010
0001
1000
0100
,
1000
0001
0100
0010
1000
0001
1000
0100
0010
0100
1000
0001
0100
0001
1000
0010
,
0100
0001
1000
0001
0010
0100
0010
0001
1000
0010
1000
0001
1000
0100
0010
0001
,
1000
0010
0100
0001
1000
0100
1000
0010
1000
0001
0100
0010
1000
0001
0010
0100
,
0010
0001
0100
0001
1000
0100
1000
0001
0100
0010
1000
0001
1000
0100
0010
0001
,
0100
0010
1000
0001
0010
0001
0100
0001
1000
0100
0010
0100
1000
0001
0010
0001
,
1000
0010
0100
0010
1000
0100
1000
0001
0010
0001
0100
0001
1000
0010
0100
0010
,
1000
0001
0010
0100
1000
0001
0010
0001
0100
0001
1000
0010
0100
0001
1000
0100
,
0010
0100
1000
0010
1000
0001
0010
0001
1000
0010
0100
0001
1000
0001
0010
0100
,
1000
0010
0100
0001
1000
0100
1000
0010
1000
0001
0010
0100
0010
0001
1000
0100
,
1000
0001
0100
0010
0100
0001
0010
0001
1000
0100
1000
0010
1000
0001
0010
0100
,
1000
0001
0100
0001
1000
0100
1000
0001
0100
0001
1000
0010
0100
0001
1000
0001
,
0010
0100
1000
0001
0010
0001
1000
0010
1000
0001
0100
0010
1000
0001
1000
0100
,
0010
0100
1000
0001
0010
0001
1000
0010
1000
0001
0010
0100
0010
0001
1000
0001
,
0100
0010
1000
0001
0100
0001
1000
0010
1000
0001
0010
0100
0010
0001
1000
0010
,
0100
0010
1000
0001
1000
0010
1000
0001
0010
0100
1000
0001
0010
0001
1000
0010
,
0100
0010
1000
0001
0100
0001
1000
0100
1000
0001
0010
0100
1000
0001
1000
0010
,
1000
0001
0010
0100
1000
0001
1000
0100
1000
0001
0100
0010
0100
0001
1000
0001
,
0010
0100
1000
0001
0010
0001
1000
0010
1000
0001
0100
0001
1000
0100
1000
0001
,
1000
0001
0010
0001
1000
0010
1000
0001
0010
0001
1000
0100
0010
0001
1000
0001
,
0100
0010
1000
0001
0100
0001
1000
0100
1000
0001
0010
0100
1000
0001
1000
0010
,
0100
0010
1000
0001
0100
0001
1000
0100
1000
0001
0100
0010
0100
0001
1000
0001
,
0010
0100
1000
0001
0010
0001
1000
0100
1000
0001
0100
0010
0100
0001
1000
0100
,
0010
0100
1000
0001
1000
0100
1000
0001
0100
0010
1000
0001
0100
0001
1000
0100
,
0010
0100
1000
0001
0010
0001
1000
0010
1000
0001
0100
0010
1000
0001
1000
0100
,
1000
0001
0100
0010
1000
0001
1000
0010
1000
0001
0010
0100
0010
0001
1000
0001
,
0100
0010
1000
0001
0100
0001
1000
0100
1000
0001
0010
0100
0010
0001
1000
0001
,
1000
0100
1000
0001
0100
0001
1000
0100
1000
0001
0010
0100
1000
0001
1000
0010
,
0100
0001
1000
0010
1000
0001
0010
0001
1000
0100
0010
0001
1000
0001
0100
0010
,
0100
0001
1000
0010
1000
0001
0010
0001
1000
0010
0100
0010
1000
0001
1000
0100
,
0010
0001
1000
0100
1000
0001
0010
0001
1000
0010
0100
0010
1000
0001
0010
0100
,
0010
0001
1000
0001
0010
0001
1000
0010
0100
0001
1000
0010
1000
0001
0010
0100
,
0010
0001
1000
0100
1000
0001
0100
0001
1000
0010
0100
0001
1000
0001
0010
0001
,
1000
0010
0100
0001
1000
0001
0100
0001
1000
0100
0010
0100
1000
0001
1000
0010
,
0100
0001
1000
0010
1000
0001
0010
0001
1000
0100
0010
0100
1000
0001
0100
0001
,
2000
0000
0000
0000
,
3000
0000
0000
0000
;
