#TITLE:Trisection V2;
#SUBTITLE:Final Fantasy Tactics (1997);
#ARTIST:Glome & Hiroshi Sakimoto;
#TITLETRANSLIT:;
#SUBTITLETRANSLIT:;
#ARTISTTRANSLIT:;
#CREDIT:;
#BANNER:Trisection.jpg;
#BACKGROUND:Trisection-bg.jpg;
#LYRICSPATH:;
#CDTITLE:!yesssss-cdtitle.png;
#MUSIC:Trisection.mp3;
#OFFSET:-0.050;
#SAMPLESTART:20.564;
#SAMPLELENGTH:12.000;
#SELECTABLE:YES;
#BPMS:0.000=140.000,132.000=70.000,134.000=140.000,146.000=70.000,148.000=140.000,258.000=70.000,262.000=140.000,270.000=70.000,274.000=140.000;
#STOPS:;
#BGCHANGES:;
// cache tags:
#FIRSTBEAT:0.000;
#LASTBEAT:325.167;
#SONGFILENAME:Songs/VGMP 3/Trisection V2 (Yesssss)/Trisection.sm;
#HASMUSIC:1;
#HASBANNER:1;
#MUSICLENGTH:146.453;
// end cache tags

//---------------dance-single - ----------------
#NOTES:
     dance-single:
     :
     Hard:
     11:
     1.000,1.000,0.696,1.000,1.000,1200.000,102.000,190.000,0.000,14.000:

1000
0100
0010
0100
1000
0010
0100
0010
1000
0001
0100
0010
1000
0001
0010
0100
,
1000
0010
0100
0010
1000
0001
0100
0001
0110
0110
0110
0110
0002
0000
2003
0000
,
3011
0100
1000
0010
0100
0010
1000
0010
0100
0001
0010
0001
1000
0001
0010
0100
,
1001
0000
1000
0100
1000
0010
0000
0000
0001
0100
0010
0100
2002
0000
3223
0000
,
2330
3000
0200
0300
0020
0030
0100
0000
1000
0000
0002
0003
0010
0000
0001
0000
0200
0300
0001
0000
1000
0000
0002
0003
0100
0000
0010
0000
2000
3000
0001
0000
,
0200
0300
0002
0003
0020
0030
0100
0000
1000
0000
0020
0030
0100
0000
0010
0000
0200
0300
0020
0030
2000
3000
0002
0003
2200
0000
0000
0000
3322
0000
0000
0000
,
2033
3000
0200
0300
0020
0030
0100
0000
1000
0000
0001
0000
1000
0000
0100
0000
0020
0030
0100
0000
0010
0000
0002
0003
0100
0000
0010
0000
2000
3000
0100
0000
,
0020
0030
0200
0300
0020
0030
0001
0000
0100
0000
0020
0030
0100
0000
0010
0000
2000
3000
0002
0003
0200
0300
0020
0030
0001
0000
0001
0000
0100
0000
0100
0000
,
2001
3000
0200
0300
0020
0030
0001
0000
0100
0000
0020
0030
1000
0000
0010
0000
0200
0300
0001
0000
0010
0000
0002
0003
0010
0000
0100
0000
0020
0030
0001
0000
,
0200
0300
0002
0003
2000
3000
0010
0000
0100
0000
0002
0003
0010
0000
0100
0000
2000
3000
0020
0030
0200
0300
0020
0030
2002
0000
0000
0000
3223
0000
0000
0000
,
2330
3000
0200
0300
0020
0030
0001
0000
0100
0000
0020
0030
1000
0000
0001
0000
0200
0300
0010
0000
1000
0000
0002
0003
0010
0000
0100
0000
0020
0030
0100
0000
,
0001
0010
0100
0010
0001
1000
0100
0010
0001
1000
0010
0100
0001
1000
0010
0100
0010
1000
0001
0100
0010
1000
0100
0010
,
1001
0100
0010
0000
0100
0000
1001
0000
0010
0000
1000
0000
0101
0000
0010
0000
,
0001
0000
1010
0000
0100
0000
1000
0000
0110
0001
1000
0000
0001
0000
1001
0000
,
0100
0000
0001
0000
1010
0000
0100
0000
0010
0000
1100
0010
0001
0010
0100
0000
,
0101
0010
1000
0000
0010
0000
0101
0000
1000
0000
0001
0000
1010
0000
0001
0000
,
0100
0000
0011
0000
1000
0000
0010
0000
1001
0100
0010
0000
1000
0000
0011
0000
,
1000
0000
0100
0000
1001
0000
0010
0000
0100
0000
1001
0010
0100
1000
0011
0000
,
0110
0001
1000
0000
0010
0000
0101
0000
0010
0000
1000
0000
0001
0000
0100
0000
,
1100
0000
0001
0000
0010
0000
0101
0000
0011
1000
0001
0000
0010
0000
1001
0000
,
0010
0000
1000
0000
0001
0000
0100
0000
1001
0000
0100
0001
1000
0001
0100
0000
,
0101
1000
0010
0000
0001
0000
0101
0000
0010
0000
1000
0000
0001
0000
1000
0000
,
0011
0000
1000
0000
0010
0000
1001
0000
1001
0100
0010
0000
0100
0000
1001
0000
,
0010
0000
1000
0000
0010
0000
0001
0000
0101
0000
1000
0001
0100
0001
1000
0000
,
1001
0010
0100
0000
1000
0000
0101
0000
0010
0000
0001
0000
0100
0000
0001
0000
,
1100
0000
0001
0000
1000
0000
0110
0000
0011
1000
0100
0000
0100
0000
0101
0000
,
0010
0000
0001
0000
0010
0000
1000
0000
0101
0000
1000
0001
1000
0010
0100
0000
,
1001
0100
0010
0000
0001
0000
0101
0000
0010
0000
0001
0000
1000
0000
0010
0000
,
0011
0000
0100
0000
0001
0000
1010
0000
0101
1000
0010
0000
0001
0000
0110
0000
,
0001
0000
0100
0000
2002
0000
0000
3003
2020
0000
0000
3030
0220
0000
0000
0330
,
0001
1000
0100
0010
0100
1000
0001
1000
0100
0010
0100
1000
0010
0100
0010
1000
0100
0010
0001
0010
0100
0010
0001
0010
,
0100
0010
0100
1000
0100
0010
0100
1000
0100
0010
0100
0010
0001
0010
0100
1000
0100
1000
0001
1000
0100
1000
0010
0100
,
0001
1000
0100
1000
0010
0100
0001
1000
0100
1000
0010
0100
0010
1000
0100
1000
0010
0100
0001
1000
0100
1000
0010
0100
,
0001
0000
0000
0000
0000
0000
0000
0000
0000
0000
0000
0000
0000
0000
0000
0000
0000
0000
0010
0000
0000
0000
0000
0000
0000
0000
0000
0000
0000
0000
0000
0000
0000
0000
0000
0000
0100
0000
0000
0000
0000
0000
0000
0000
0000
0000
0000
0000
0000
0000
0000
0000
0000
0000
0001
0000
0000
0000
0000
0000
0000
0000
0000
0000
0000
0000
0000
0000
0000
0000
0000
0000
0100
0000
0000
0000
0000
0000
0000
0000
0001
0000
0000
0000
1000
0000
0000
0000
0100
0000
0000
0000
0010
0000
0000
0000
0001
0000
0000
0000
0000
0000
0000
0000
0010
0000
0000
0000
0000
0000
0000
0000
0100
0000
0000
0000
0000
0000
0000
0000
1000
0000
0000
0000
0000
0000
0000
0000
0100
0000
0000
0000
0000
0000
0000
0000
1000
0000
0000
0000
0000
0000
0000
0000
0001
0000
0000
0000
0000
0000
0000
0000
0010
0000
0000
0000
0000
0000
0000
0000
0100
0000
0000
0000
0000
0000
0000
0000
1000
0000
0000
0000
0000
0000
0000
0000
0100
0000
0000
0000
0000
0000
0000
0000
1000
0000
0000
0000
0000
0000
0000
0000
,
0001
0010
0100
0010
0100
1000
0001
1000
0100
0010
0001
0100
0001
0010
0100
1000
0001
0100
0010
0100
0001
1000
0010
0100
,
0001
0100
0010
1000
0010
0100
0001
0010
0100
1000
0010
0100
0001
0010
0001
1000
0100
0010
0001
0100
0010
1000
0010
0100
,
0001
0000
0000
0000
0000
0000
0000
0000
0010
0000
0000
0000
0000
0000
0000
0000
0100
0000
0000
0000
0000
0000
0000
0000
1000
0000
0000
0000
0000
0000
0000
0000
0100
0000
0000
0000
0000
0000
0000
0000
1000
0000
0000
0000
0000
0000
0000
0000
0001
0000
0000
0000
0000
0000
0000
0000
1000
0000
0000
0000
0000
0000
0000
0000
0100
0000
0000
0000
0000
0000
0000
0000
0010
0000
0000
0000
0000
0000
0000
0000
0100
0000
0000
0000
0000
0000
0000
0000
0010
0000
0000
0000
0000
0000
0000
0000
0001
0000
0000
0000
0000
0000
0000
0000
0000
0000
0000
0000
0000
0000
0000
0000
0000
0000
0010
0000
0000
0000
0000
0000
0000
0000
0000
0000
0000
0000
0000
0000
0000
0000
0000
0000
1000
0000
0000
0000
0000
0000
0000
0000
0000
0000
0000
0000
0010
0000
0000
0000
0000
0000
0000
0000
0000
0000
0000
0000
0010
0000
0000
0000
0000
0000
0000
0000
0000
0000
0000
0000
0010
0000
0000
0000
0000
0000
0000
0000
0000
0000
0000
0000
0010
0000
0000
0000
0000
0000
0100
0000
0000
0000
0000
0000
,
0010
1000
0100
0010
0001
0010
0100
1000
0100
1000
0020
0000
0000
0030
1000
0100
,
0010
0100
1000
0100
0010
0001
0010
0100
1000
0100
0002
0000
0000
0003
1000
0010
,
1000
0001
0100
0010
1000
0010
0100
0001
1000
0010
0200
0000
0000
0300
1000
0100
,
0011
0100
0010
1000
0010
0100
0010
0100
1001
0010
1000
0001
0100
0100
0001
0000
,
0110
1000
0001
1000
0100
1000
0001
1000
0100
1000
0020
0000
0000
0030
1000
0100
,
0010
0100
1000
0001
0010
0100
1000
0001
1000
0100
0002
0000
0000
0003
0100
0010
,
0100
0010
0001
1000
0100
1000
0001
0010
0100
1000
0020
0000
0000
0030
1000
0010
,
1001
0010
0100
1000
0100
0010
0001
0010
1100
0010
1000
0001
1000
1000
0001
0000
,
0110
0110
0000
0110
0000
0110
0110
0000
2001
0000
0000
0000
0001
0000
0000
3000
,
0120
0000
0000
0000
0100
0000
0000
0030
0201
0000
0000
0000
0010
0000
0000
0300
,
1002
0000
0000
0000
0000
0000
0100
0000
0000
0000
0000
0000
0100
0000
0000
0000
0100
0000
0000
0000
0000
0103
0000
0000
0201
0000
0000
0000
0000
0000
0000
0000
0000
0000
0000
0000
0001
0000
0000
0000
0000
0000
0000
0000
0000
0300
0000
0000
,
1020
0000
0000
0030
2010
0000
0000
3000
0201
0000
0000
0000
0001
0000
0000
0301
,
1000
0000
0000
0000
0100
0000
0000
0000
0010
0000
0000
0000
0001
0000
0000
0000
1000
0000
0010
0000
0100
0010
0000
0000
1000
0000
0100
0000
0010
0000
0001
0000
0010
0000
0100
0000
1000
0000
0100
0000
0010
0000
0001
0000
0010
0000
0100
0000
,
0010
0100
0010
0001
0010
0100
1000
0100
0010
0001
0010
0100
0010
0001
0010
0100
0010
0001
1000
0100
0010
0001
1000
0001
,
0010
0100
0010
0001
0010
0100
0010
0100
0010
0001
0010
0100
1000
0010
0100
0001
0100
0010
1000
0010
0100
0001
0100
0010
,
1000
0010
0100
0001
0100
0010
1000
0010
0100
0001
0100
0010
1000
0100
0010
0001
1000
0100
0010
0001
1000
0001
0010
0001
,
0010
0100
1000
0001
1000
0001
1000
0010
0100
0010
0100
0010
1000
0100
1000
0010
1000
0001
0100
0010
1000
0001
0100
0010
,
0100
0001
0100
0001
1000
0001
0100
0010
1000
0001
0100
0010
1000
0100
0010
0001
0100
0010
1000
0001
0100
0010
1000
0001
,
0100
0010
1000
0100
0010
0100
0010
0001
0010
0100
0010
0001
0010
0100
1000
0010
0100
0001
0010
0100
1000
0010
0100
0001
,
0010
0100
1000
0010
0100
0001
0010
0100
1000
0010
0100
0010
1000
0100
0010
0001
0100
0010
1000
0100
0010
0001
0100
0010
,
1000
0100
0010
0001
0100
0010
1000
0100
0010
0001
0100
0010
0100
0010
1000
0001
0010
0100
0010
0100
1000
0001
0010
0100
,
1000
0100
0010
0100
0010
0001
1000
0010
1000
0001
0010
0100
0010
0100
1000
0010
0100
0001
1000
0100
1000
0010
0100
0001
,
0010
0100
1000
0010
0100
0001
0010
0100
1000
0010
0100
0010
0100
0000
0010
0000
0001
0000
1000
0000
0100
0000
0010
0000
,
0001
0000
0010
0000
0100
0000
0010
0000
0001
0000
0010
0000
2200
0000
0000
0000
0000
0000
0000
0000
3300
0010
0100
0010
,
2002
0000
0000
0000
0000
0000
0000
0000
3003
0010
1000
0001
0220
0000
0000
0000
0000
0000
0000
0000
0000
0000
0000
0000
,
0000
0000
0000
0000
0000
0000
0000
0000
0330
1000
0001
0100
2020
0000
0000
0000
0000
0000
0000
0000
0000
0000
0000
0000
,
0000
0000
0000
0000
0000
0000
0000
0000
3030
0100
1000
0010
0202
0000
0000
0000
0000
0000
0000
0000
0000
0000
0000
0000
,
0000
0000
0000
0000
0000
0000
0000
0000
0000
0000
0000
0303
1001
0000
0010
0000
0100
0000
0011
0000
0100
0000
1000
0000
,
0101
0000
0000
0000
0000
0000
0000
0000
0000
0000
0000
0000
0000
0000
0000
0000
0010
0000
0000
0000
0000
0000
0000
0000
0000
0000
0000
0000
0000
0000
0000
0000
1000
0000
0000
0000
0000
0000
0000
0000
0000
0000
0000
0000
0000
0000
0000
0000
0011
0000
0000
0000
0000
0000
0000
0000
0000
0000
0000
0000
0100
0000
0000
0000
0000
0000
0000
0000
0000
0000
0000
0000
0001
0000
0000
0000
0000
0000
0000
0000
0000
0000
0000
0000
0100
0000
0000
0000
0000
0000
0010
0000
0000
0000
0000
0000
0100
0000
0000
0000
0000
0000
0000
0000
0010
0000
0000
0000
0000
0000
0000
0000
0100
0000
0000
0000
0000
0000
0000
0000
0010
0000
0000
0000
0000
0000
0000
0000
0100
0000
0000
0000
0000
0000
0000
0000
1000
0000
0000
0000
0000
0000
0000
0000
0100
0000
0000
0000
0000
0000
0000
0000
0010
0000
0000
0000
0000
0000
0000
0000
0100
0000
0000
0000
0000
0000
0000
0000
0010
0000
0000
0000
0000
0000
0000
0000
0100
0000
0000
0000
0000
0000
0000
0000
1000
0000
0000
0000
0000
0000
0000
0000
,
0001
0010
0100
0010
0100
1000
0100
0010
0100
0010
0100
1000
0100
0010
0100
0010
0100
1000
0100
0010
0100
0010
0100
1000
,
0001
0000
0010
0000
0100
0000
0010
0000
0100
0000
1000
0000
0001
0000
0000
0100
0000
0000
0001
0000
0000
0100
0000
0000
1001
0000
0000
0000
0000
0000
0001
0010
0100
1000
0000
0000
0100
0010
0100
0010
0000
0000
1000
0010
1000
0010
0000
0000
,
0100
0000
0000
0000
0001
0000
0000
0000
0100
0000
0000
0000
0001
0000
0000
0000
0000
0000
0000
0000
0000
0000
0000
0000
0010
0000
0000
0000
0100
0000
0000
0000
0010
0000
0000
0000
0100
0000
0000
0000
0000
0000
0000
0000
0000
0000
0000
0000
1000
0000
0000
0000
0001
0000
0000
0000
1000
0000
0000
0000
0001
0000
0000
0000
0000
0000
0000
0000
0000
0000
0000
0000
0010
0000
0000
0000
0000
0000
0000
0000
0010
0000
0000
0000
0000
0000
0000
0000
0010
0000
0000
0000
0000
0000
0000
0000
0002
0000
0000
0000
0000
0000
0003
0000
0000
0000
0000
0000
2000
0000
0000
0000
0000
0000
3000
0000
0000
0000
0000
0000
0020
0000
0000
0000
0000
0000
0030
0000
0000
0000
0000
0000
0100
0000
0000
0000
0000
0000
0000
0000
0000
0000
0000
0000
0001
0000
0000
0000
0000
0000
0000
0000
0000
0000
0000
0000
2000
0000
0000
0000
0000
0000
3000
0000
0000
0000
0000
0000
0100
0000
0000
0000
0000
0000
0000
0000
0000
0000
0000
0000
0010
0000
0000
0000
0000
0000
0000
0000
0000
0000
0000
0000
,
0200
0300
0010
0000
0001
0000
0020
0030
0001
0000
0100
0000
0002
0003
1000
0000
0020
0030
0200
0300
0020
0030
1000
0000
0001
0000
0200
0300
0010
0000
0100
0000
,
0002
0003
0020
0030
0200
0300
2000
3000
0022
0000
0000
0000
2233
0000
0000
0000
3320
0030
0200
0300
0020
0030
0100
0000
0010
0000
0002
0003
1000
0000
0001
0000
,
0200
0300
0010
0000
1000
0000
0020
0030
0100
0000
0001
0000
0200
0300
0000
0000
1001
0000
0000
0000
1001
0000
0000
0000
1001
0000
0000
0000
1001
0000
0000
0000
,
2000
3000
0002
0003
0020
0030
0200
0300
0022
0000
0000
0000
1033
0100
1000
0100
0020
0030
0002
0003
2000
3000
0100
0000
0010
0000
0002
0003
1000
0000
0100
0000
,
0020
0030
0100
0000
1000
0000
0002
0003
1000
0000
0010
0000
0200
0300
0010
0000
2000
3000
0002
0003
0020
0030
0100
0000
1000
0000
0020
0030
1000
0000
0001
0000
,
2000
3000
0002
0003
0020
0030
0200
0300
2002
0000
0000
0000
3223
0000
0000
0000
2330
3000
0200
0300
0020
0030
0100
0000
0010
0000
0002
0003
1000
0000
0100
0000
,
0020
0030
0001
0000
0100
0000
0020
0030
1000
0000
0010
0000
0200
0300
0010
0000
2000
3000
0200
0300
0020
0030
0100
0000
1000
0000
0020
0030
0100
0000
0001
0000
,
2000
3000
0002
0003
0020
0030
0200
0300
0001
0000
0001
0000
1000
0000
1000
0000
0002
0003
2000
3000
0200
0300
0010
0000
0001
0000
0200
0300
0010
0000
0100
0000
,
0002
0003
1000
0000
0001
0000
0020
0030
0100
0000
0010
0000
0200
0300
1000
0000
0200
0300
2000
3000
0200
0300
0010
0000
0001
0000
0200
0300
0010
0000
0100
0000
,
0002
0003
2000
3000
0020
0030
0200
0300
2002
0000
0000
0000
3223
0000
0000
0000
2330
3000
0020
0030
0200
0300
0010
0000
1000
0000
0002
0003
1000
0000
0010
0000
,
1000
0000
0000
0100
0000
0000
1000
0000
0000
0100
0000
0000
2020
0000
0000
0000
0000
0000
0000
0000
0000
3030
0000
0000
0001
0000
0010
0000
0100
0000
0010
0000
0100
0000
1000
0000
0001
0000
0010
0000
0100
0000
0010
0000
0100
0000
1000
0000
,
0001
0000
0100
0000
0010
0000
0100
0000
0001
0000
1000
0000
0100
0000
1000
0000
0001
0000
0010
0000
0100
0000
1000
0000
0220
0000
0000
0000
0000
0000
0000
0000
0000
0330
0000
0000
0220
0000
0000
0000
0000
0000
0000
0000
0000
0000
0000
0000
,
0000
0000
0000
0000
0000
0000
0000
0000
0000
0330
0000
0000
1000
0000
0010
0000
0000
0000
0000
0000
0000
0000
0000
0000
0000
0000
0000
0000
0000
0000
0000
0000
0000
0000
0000
0000
0000
0000
0000
0000
0000
0000
0000
0000
0000
0000
0000
0000
;

//---------------dance-single - Copied from----------------
#NOTES:
     dance-single:
     Copied from:
     Challenge:
     15:
     1.000,1.000,1.000,0.526,1.000,1245.000,560.000,77.000,0.000,162.000:




1100
0110
0101
1000
0100
0011
0100
0010
1100
0001
1000
0011
1000
0001
1010
0100
,
1001
0110
0101
1000
0100
0011
1000
0001
0110
0110
0110
0110
0022
0000
2233
0000
,
3311
0101
1010
0100
1001
0110
0001
0010
1100
0001
0100
0011
1100
0001
1010
0100
,
1011
0000
1000
1000
1000
0011
0000
0000
1011
0110
1001
0111
1212
0000
2323
0000
,
3131
0110
1011
0100
1000
0011
1100
0001
0110
0001
1100
0011
0100
0001
1110
0001
,
0011
0110
1101
0010
0100
0011
1100
0010
0101
0110
1101
0011
2200
0000
3322
0000
,
1133
0110
1011
0100
1000
0011
1100
0100
0011
1000
0110
1001
0100
0010
1011
0100
,
1001
0110
1011
0100
0001
1010
0101
0010
1001
0110
1101
0110
1101
1000
1011
0011
,
0011
1100
0111
1000
0001
0110
1001
0010
1100
0001
0110
1001
0010
0100
1011
0100
,
0011
0110
1101
0010
0001
1100
0011
0100
1001
0110
1101
0110
2002
0000
3223
0000
,
1331
0011
1101
0010
0001
1100
0011
0100
1100
0010
0101
1010
0001
0100
1011
0100
,
0001
0000
0010
0000
0100
0000
1010
0000
0001
0000
1000
0000
0100
0000
0010
0000
0001
0000
1100
0000
0010
0000
0100
0000
0011
0000
0100
0000
1000
0000
0010
0000
0100
0000
0001
0000
0110
0000
1000
0000
0001
0000
0010
0000
0100
0001
1000
0000
,
0101
0010
1000
0000
0100
0000
1101
0000
0010
0000
1000
0000
0111
0000
0010
0000
,
0001
0000
1110
0000
0100
0000
1000
0000
1110
0001
1000
0000
0001
0000
1011
0000
,
0100
0000
0001
0000
1011
0000
0100
0000
0010
0000
1101
0010
0001
0010
0100
0000
,
1101
0010
1000
0000
0010
0000
0111
0000
1000
0000
0001
0000
1110
0000
0001
0000
,
0100
0000
1011
0000
1000
0000
0010
0000
1011
0100
0010
0000
1000
0000
0111
0000
,
1000
0000
0100
0000
1011
0000
0010
0000
0100
0000
1001
0011
0110
1100
1111
0000
,
1110
0001
1100
0000
0110
0000
1011
0000
0011
0000
1100
0000
0011
0000
0101
0000
,
1110
0000
0101
0000
1010
0000
1101
0000
0111
1000
0101
0000
1010
0000
1101
0000
,
0110
0000
1010
0000
0101
0000
0110
0000
1101
0000
0110
0011
1100
0001
0110
1000
,
0111
1000
0110
0000
0101
0000
1011
0000
1010
0000
1100
0000
0011
0000
1100
0000
,
0111
0000
1010
0000
0110
0000
1011
0000
1101
0010
1001
0000
0110
0000
1011
0000
,
0110
0000
1001
0000
0110
0000
1010
0000
0111
0000
1100
0101
1010
0001
1100
0000
,
1101
0010
0101
0000
1100
0000
1011
0000
0110
0000
1001
0000
0110
0000
1001
0000
,
1110
0000
0101
0000
1010
0000
1011
0000
1101
0010
1001
0000
0110
0000
1101
0000
,
1100
0000
1010
0000
0011
0000
1100
0000
0111
0000
1001
0110
1001
0010
1001
0100
,
1011
0100
1001
0000
0101
0000
1011
0000
1010
0000
0110
0000
1100
0000
0011
0000
,
1110
0000
1100
0000
0011
0000
1110
0000
0111
1000
0101
0000
0011
0000
1110
0000
,
0011
0000
0110
0000
2022
0000
0000
3033
2220
0000
0000
3330
2202
0000
0000
3303
,
1011
0100
0010
1001
0100
1000
0010
0100
0010
1001
0100
1000
0010
0100
0010
1001
0100
1000
0111
1000
0100
1001
0010
1000
,
0111
1000
0010
0101
0010
0100
0010
1000
0010
0101
0010
0100
1011
0100
0010
1001
0100
1000
0111
1000
0010
1001
0100
1000
,
0111
1000
0100
1001
0010
1000
0010
1000
0100
1001
0010
1000
0010
1000
0100
1001
0010
1000
0111
1000
0100
1001
0010
0100
,
1011
0000
0000
0000
0000
0000
0000
0000
0000
0000
0000
0000
0000
0000
0000
0000
0000
0000
0011
0000
0000
0000
0000
0000
0000
0000
0000
0000
0000
0000
0000
0000
0000
0000
0000
0000
1110
0000
0000
0000
0000
0000
0000
0000
0000
0000
0000
0000
0000
0000
0000
0000
0000
0000
0101
0000
0000
0000
0000
0000
0000
0000
0000
0000
0000
0000
0000
0000
0000
0000
0000
0000
0110
0000
0000
0000
0000
0000
0000
0000
0001
0000
0000
0000
1000
0000
0000
0000
0100
0000
0000
0000
0010
0000
0000
0000
1101
0000
0000
0000
0000
0000
0000
0000
0010
0000
0000
0000
0000
0000
0000
0000
0100
0000
0000
0000
0000
0000
0000
0000
0011
0000
0000
0000
0000
0000
0000
0000
0100
0000
0000
0000
0000
0000
0000
0000
1000
0000
0000
0000
0000
0000
0000
0000
0100
0000
0000
0000
0000
0000
0000
0000
0010
0000
0000
0000
0000
0000
0000
0000
0100
0000
0000
0000
0000
0000
0000
0000
0011
0000
0000
0000
0000
0000
0000
0000
0100
0000
0000
0000
0000
0000
0000
0000
1000
0000
0000
0000
0000
0000
0000
0000
,
0100
0010
0100
0011
0100
1000
0111
1000
0010
1100
0001
0100
1011
0100
0010
1001
0100
1000
0010
0100
0010
1001
0100
1000
,
0111
1000
0010
0101
0010
1000
0111
1000
0100
1001
0010
0100
1011
0100
0010
1001
0100
1000
0010
0100
0010
1001
0100
1000
,
0010
0000
0000
0000
0000
0000
0000
0000
0100
0000
0000
0000
0000
0000
0000
0000
0010
0000
0000
0000
0000
0000
0000
0000
1001
0000
0000
0000
0000
0000
0000
0000
0100
0000
0000
0000
0000
0000
0000
0000
1000
0000
0000
0000
0000
0000
0000
0000
0111
0000
0000
0000
0000
0000
0000
0000
1000
0000
0000
0000
0000
0000
0000
0000
0100
0000
0000
0000
0000
0000
0000
0000
1001
0000
0000
0000
0000
0000
0000
0000
0010
0000
0000
0000
0000
0000
0000
0000
0100
0000
0000
0000
0000
0000
0000
0000
1011
0000
0000
0000
0000
0000
0000
0000
0000
0000
0000
0000
0000
0000
0000
0000
0000
0000
0110
0000
0000
0000
0000
0000
0000
0000
0000
0000
0000
0000
0000
0000
0000
0000
0000
0000
1001
0000
0000
0000
0000
0000
0000
0000
0000
0000
0000
0000
0100
0000
0000
0000
0001
0000
0000
0000
0000
0000
0000
0000
0100
0000
0000
0000
0001
0000
0000
0000
0000
0000
0000
0000
0100
0000
0000
0000
0001
0000
0000
0000
0000
0000
0000
0000
1100
0000
0000
0000
0001
0000
1100
0000
0000
0000
0000
0000
,
1010
0001
0010
0100
1001
0100
0010
0001
1010
0001
0220
0000
1001
0330
1000
0100
,
0011
0100
0010
0001
0110
1000
0100
0010
1001
0010
2200
0000
0011
3300
0001
0100
,
0011
1000
0010
0100
0011
0100
0010
1000
0011
0100
2020
0000
0101
3030
0101
0010
,
1101
0010
0100
0001
1100
0010
0100
1000
0111
1000
0001
1000
0110
0110
1000
0000
,
1110
0001
1000
0001
0110
1000
0001
1000
0110
0001
2200
0000
0011
3300
0001
0010
,
0101
0010
0001
1000
0101
0010
0001
1000
0101
0010
2002
0000
0110
3003
0010
0100
,
1010
0100
1000
0001
1010
0001
1000
0100
1010
0001
0220
0000
1001
0330
1001
0100
,
1011
0100
1000
0001
0110
1000
0001
0100
1011
0100
0001
1000
0011
0011
1000
0000
,
0110
0110
0000
0110
0000
0110
0110
0000
2101
0000
0000
0000
0011
0000
0000
3000
,
1021
0000
0000
0000
1001
0000
0000
0030
1201
0000
0000
0000
0011
0000
0000
0300
,
1012
0000
0000
0000
0000
0000
0100
0000
0000
0000
0000
0000
1010
0000
0000
0000
0100
0000
0000
0000
0000
0103
0000
0000
1201
0000
0000
0000
0000
0000
0000
0000
0000
0000
0000
0000
0011
0000
0000
0000
0000
0000
0000
0000
0000
0300
0000
0000
,
1021
0000
0000
0030
2110
0000
0000
3000
0211
0000
0000
0000
1001
0000
0000
0311
,
1000
0000
0000
0000
0100
0000
0000
0000
0010
0000
0000
0000
0101
0000
0000
0000
1000
0000
0011
0000
0100
0011
0000
0000
1001
0000
0100
0000
0010
0000
1001
0000
0010
0000
0100
0000
1000
0000
0100
0000
0010
0000
1001
0000
0010
0000
0100
0000
,
1010
0100
0010
0101
1010
0100
1000
0100
1010
0101
0010
0100
1010
0001
0010
1100
0010
0001
1000
0100
0010
0101
1000
0001
,
1010
0100
0010
0101
1010
0100
0010
0100
1010
0101
0010
0100
1001
0010
0100
1001
0100
0010
1000
0010
0100
1001
0100
0010
,
1001
0010
0100
0011
1100
0010
1000
0010
1100
0011
0100
0010
1001
0100
0010
0101
1000
0100
0010
0001
1000
0101
0010
0001
,
1010
0100
0010
0101
1010
0001
0010
0100
1010
0101
1000
0100
0011
0100
1000
0110
1000
0001
0100
0010
1000
0011
0100
0010
,
1100
0001
0100
0011
1000
0001
1100
0010
1000
0011
0100
0010
1001
0100
0010
0101
1010
0100
0010
0001
1010
0101
0010
0001
,
1010
0100
0010
0101
1010
0100
0010
0001
1010
0101
0010
0001
0010
0100
1000
0010
0100
1000
0001
0010
1000
0010
0100
1000
,
0010
0100
1000
0001
0010
1000
0010
0100
1000
0010
0100
1000
0001
0010
0100
0001
0010
0100
1000
0001
0100
0001
0010
0100
,
0001
0000
0010
1001
0100
0000
1000
0000
0001
0000
0100
0000
0001
0000
0010
0000
0100
0000
1010
0000
0001
1000
0010
0000
0101
0000
0010
0000
1000
0000
0001
0000
0010
0000
1000
0000
0010
0000
0100
0000
1000
0000
0001
0000
0010
0000
1000
0000
,
0001
0010
1000
0010
0100
1000
0001
0010
1000
0001
0010
1000
0010
0100
1000
0010
0100
1000
0001
0100
1000
0010
0100
1000
,
0010
0100
1000
0001
0100
1000
0010
0100
1000
0010
0100
1000
0100
0000
0010
1100
0001
0000
1000
0000
0100
1001
0010
0000
,
1000
0000
0010
1001
0100
0000
0010
0000
0001
1100
0010
0000
2200
0000
0000
0011
0000
0000
0000
0000
3300
1010
0001
0100
,
0022
0000
0000
1100
0000
0000
0000
0000
0033
0110
1000
0001
0220
0000
0000
1001
0000
0000
0000
0000
0000
1001
0000
0000
,
0000
0000
0000
1001
0000
0000
0000
0000
0330
1010
0001
0100
2020
0000
0000
0101
0000
0000
0000
0000
0000
0101
0000
0000
,
0000
0000
0000
0101
0000
0000
0000
0000
3030
0101
1000
0010
0202
0000
0000
1010
0000
0000
0000
0000
0000
1010
0000
0000
,
0000
0000
0000
1010
0000
0000
0000
0000
0000
1010
0000
0303
1011
0000
0010
0000
0100
0000
0011
0000
0100
0000
1000
0000
,
1101
0000
0000
0000
0000
0000
0000
0000
0000
0000
0000
0000
0000
0000
0000
0000
0011
0000
0000
0000
0000
0000
0000
0000
0000
0000
0000
0000
0000
0000
0000
0000
0110
0000
0000
0000
0000
0000
0000
0000
0000
0000
0000
0000
0000
0000
0000
0000
0011
0000
0000
0000
0000
0000
0000
0000
0000
0000
0000
0000
1100
0000
0000
0000
0000
0000
0000
0000
0000
0000
0000
0000
0011
0000
0000
0000
0000
0000
0000
0000
0000
0000
0000
0000
1100
0000
0000
0000
0000
0000
1100
0000
0000
0000
0000
0000
0010
0000
0000
0000
0000
0000
0000
0000
0100
0000
0000
0000
0000
0000
0000
0000
1000
0000
0000
0000
0000
0000
0000
0000
0011
0000
0000
0000
0000
0000
0000
0000
0100
0000
0000
0000
0000
0000
0000
0000
1000
0000
0000
0000
0000
0000
0000
0000
0010
0000
0000
0000
0000
0000
0000
0000
0100
0000
0000
0000
0000
0000
0000
0000
1000
0000
0000
0000
0000
0000
0000
0000
0011
0000
0000
0000
0000
0000
0000
0000
0100
0000
0000
0000
0000
0000
0000
0000
1000
0000
0000
0000
0000
0000
0000
0000
,
0001
0100
1000
0011
0100
1000
0010
0100
1000
0011
0100
1000
0010
0100
1000
0011
0100
1000
0010
0100
1000
0011
0100
1000
,
0001
0000
0100
0000
1000
0000
0011
0000
0100
0000
1000
0000
0011
0000
0100
0011
1000
0000
0011
0000
0100
0011
1000
0000
0011
0000
0000
0000
0000
0000
0011
0100
0100
0100
0000
0000
0010
0010
0010
0010
0000
0000
1000
1000
1000
1000
0000
0000
,
0101
0001
0001
0001
0000
0000
0100
0100
0100
0100
0000
0000
1001
1001
1001
1001
0000
0000
1100
0000
1100
0000
1100
0000
0011
0000
0000
0110
0000
0000
1010
0000
0000
0100
0000
0000
0001
0000
0000
1010
0000
0000
0100
0000
0000
0010
0000
0000
,
1100
0010
0001
1010
0001
0100
0011
0100
1001
1100
0011
0100
0001
1100
0010
0100
,
1001
0011
0110
1100
1022
0000
2233
0000
3311
0110
1001
0100
0010
0101
1000
0001
,
1100
0010
1000
0011
0100
0001
1100
0010
1101
0110
1011
0100
1010
0011
1100
0010
,
1101
0000
0110
0000
1011
0000
0110
0000
1022
0000
0000
0000
1033
0100
1000
0100
1011
0000
0110
0000
1011
0000
0100
0000
0001
0000
0110
0000
1001
0000
0100
0000
,
0011
0100
1010
0101
1000
0010
1101
0010
1100
0011
1011
0100
1000
0011
1100
0001
,
1010
0110
1011
0110
2002
0000
3223
0000
1331
0110
1011
0100
0010
1100
0011
0100
,
0011
1000
0101
1010
0001
0010
1101
0010
1001
0110
1101
0010
0001
1100
0011
0100
,
1010
0110
1101
1100
0012
0010
1203
1000
0311
1001
1110
0001
1000
0101
1010
0100
,
0011
1000
0101
1010
0100
0010
1101
0010
1001
0110
1101
0010
1000
0110
1001
0010
,
1100
0011
1101
0110
2002
0000
3223
0000
1331
1010
0111
1000
0001
0110
1001
0010
,
1100
0000
0000
1100
0000
0000
1100
0000
0000
1101
0000
0000
2200
0000
0000
0000
0000
0000
0001
0000
0000
3300
0000
0000
0101
0000
0010
1000
0001
0000
0110
0000
1000
0000
0100
0000
1000
0000
0001
0100
0010
0000
0001
0000
0010
0000
0100
0000
,
1011
0000
0100
0001
0010
0000
1100
0000
0001
0010
0100
0000
1001
0000
0100
0000
0001
0000
1010
0000
0100
0000
1000
0000
0220
0000
0000
0000
0000
0000
0000
0000
0000
0330
0000
0000
0220
0000
0000
0000
0000
0000
0000
0000
0000
0000
0000
0000
,
0000
0000
0000
0000
0000
0000
0000
0000
0000
0330
0000
0000
1100
0000
0011
0000
0000
0000
0000
0000
0000
0000
0000
0000
0000
0000
0000
0000
0000
0000
0000
0000
0000
0000
0000
0000
0000
0000
0000
0000
0000
0000
0000
0000
0000
0000
0000
0000
;
