#TITLE:HELL SCAPER;
#SUBTITLE:-Izzy-;
#ARTIST:L.E.D.LIGHT-G remix by paraoka;
#TITLETRANSLIT:;
#SUBTITLETRANSLIT:;
#ARTISTTRANSLIT:;
#CREDIT:;
#BANNER:HellScraper.PNG;
#BACKGROUND:HellScaper-bg.PNG;
#LYRICSPATH:;
#CDTITLE:!IzzyTitle.JPG;
#MUSIC:hellScaperParaokaMix.mp3;
#OFFSET:-0.062;
#SAMPLESTART:46.920;
#SAMPLELENGTH:15.500;
#SELECTABLE:YES;
#BPMS:0.000=210.080,227.750=211.500,259.750=213.700,276.000=217.080,307.750=214.600,323.500=216.940,327.500=219.600;
#STOPS:;
#BGCHANGES:;
// cache tags:
#FIRSTBEAT:12.000;
#LASTBEAT:374.000;
#SONGFILENAME:Songs/Izzy/hellScaper-Izzy-/hellScaperParaokaMix.sm;
#HASMUSIC:1;
#HASBANNER:1;
#MUSICLENGTH:106.318;
// end cache tags

//---------------dance-single - ----------------
#NOTES:
     dance-single:
     :
     Challenge:
     13:
     1.000,1.000,0.019,1.000,1.000,770.000,2.000,156.000,2.000,0.000:
0000
0000
0000
0000
,
0000
0000
0000
0000
,
0000
0000
0000
0000
,
0001
0010
0001
0010
0001
0000
0100
0000
1000
0000
0100
0000
1000
0000
0100
0000
,
1000
0100
0010
0001
0010
0000
0100
0000
1000
0000
0100
0000
0010
0000
0001
0000
,
0010
0001
0010
0001
0010
0000
0100
0000
1000
0000
0100
0000
0010
0000
0001
0000
,
0010
0100
1000
0100
1000
0000
0100
0000
0010
0000
0001
0000
0010
0000
0001
0000
,
0010
0100
1000
0100
0010
0000
0001
0000
0010
0000
0001
0000
0010
0000
0100
0000
,
1000
0100
0010
0001
0010
0100
1000
0100
1000
0100
0010
0100
0010
0100
1000
0100
,
0010
0001
0010
0001
0010
0000
0100
0000
1000
0000
0100
0000
1000
0000
0100
0000
,
0010
0001
0010
0001
0010
0000
0100
0000
1000
0000
0100
0000
0010
0000
0001
0000
,
0010
0100
1000
0100
1000
0000
0100
0000
0010
0000
0001
0000
0010
0000
0100
0000
,
1000
0100
1000
0100
0010
0001
0010
0001
0010
0000
0100
0000
0000
0000
0000
0000
,
1000
0010
1000
0010
1000
0000
0100
0000
0010
0000
0001
0000
0010
0000
0100
0000
,
1000
0100
1000
0100
1000
0000
0100
0000
0010
0000
0001
0010
0100
1000
0100
0000
,
0010
0001
0010
0001
0010
0000
0100
0000
1000
0000
0100
0000
0010
0000
0001
0000
,
0010
0100
0010
0100
0010
0100
0010
0100
1000
0100
0010
0001
0010
0000
0000
0000
,
2000
3200
0320
0032
0003
0000
0000
0000
,
0000
0000
0000
0000
0002
0003
0020
0030
0200
0300
2000
3000
0200
0300
0020
0030
,
0002
0000
0000
0000
0000
0003
0010
0200
0000
0000
0000
0000
0300
1000
0200
0000
,
0000
0000
0320
0000
0000
0000
0030
0000
0000
0000
0002
0000
0000
0000
0000
0003
,
2000
0000
0000
0000
,
0000
3000
0200
0000
0000
0000
0000
0320
0000
0000
0000
0000
0000
0030
0100
0000
,
2000
0000
0000
0000
3000
0000
0200
0000
0000
0000
0300
0010
0002
0000
0000
0000
,
0003
0000
0010
0000
2000
0000
3200
0000
2300
0000
3000
0100
0010
0000
0000
0000
,
0000
0000
0010
0002
0000
0000
0000
0000
0000
0000
0000
0000
0000
0000
0003
0000
,
0000
0000
0020
0000
0000
0000
0030
0100
0000
0000
0002
0000
0000
0000
0003
0100
,
1000
0000
0200
0000
0000
0000
0300
0000
1000
0000
0200
0000
0000
0000
0000
0300
,
0010
0000
2000
0000
0000
0000
3000
0100
0020
0000
0000
0000
0030
0000
0100
0000
,
1000
0100
0020
0000
0000
0000
0000
0000
,
0000
0000
0000
0030
2000
0000
3000
0000
0001
0020
0000
0000
0030
1000
0000
0000
,
0002
0000
0000
0000
0003
0100
0000
0020
0000
0000
0000
0000
0000
0000
0000
0030
,
0100
0000
0002
0000
0000
0000
0000
0000
0003
0000
0010
0200
0000
0300
0000
0000
,
0100
0010
0100
0010
0000
0000
0001
1000
,
0001
0000
0000
2002
3003
1000
0100
1000
,
0100
0010
0001
0010
0001
0010
0100
1000
,
0100
0010
0100
1000
0100
0010
0100
1000
,
0001
1000
0001
1000
0000
0000
0001
1000
,
0001
0000
0000
2002
3003
1000
0100
0010
,
0001
0010
0100
0010
0001
0010
0100
0010
,
0001
0010
0001
0010
0200
2300
0000
3000
,
0100
0000
0010
0000
0001
0000
0010
0000
0100
0010
0100
0010
0200
0000
0320
0000
,
0032
0000
0023
0000
0230
0000
2300
0000
3100
1000
0100
1000
0200
0000
0320
0000
,
0032
0000
0023
0000
0230
0000
2300
0000
3100
0010
0001
0010
0002
0000
0023
0000
,
0032
0000
0023
0000
0032
0000
0023
0000
0230
0000
1300
0001
1000
0001
1000
0000
,
0100
0010
0001
0010
0100
1000
0100
0010
0100
0000
1000
0000
0100
0010
0001
0010
,
0100
1000
0100
1000
0100
1000
0100
1000
0100
0000
0010
0000
0001
0010
0100
0010
,
0100
1000
0100
0010
0100
1000
0100
0010
0100
0000
1000
0000
0100
0010
0100
0010
,
0100
0010
0001
0010
0001
0010
0001
0010
0100
0000
1000
0100
1000
0100
1000
0000
,
0100
0000
1000
0100
0010
0001
0010
0000
0100
0000
1000
0000
0100
1000
0100
1000
,
0100
0000
1000
0100
0010
0001
0010
0000
0100
0000
1000
0000
0100
0010
0001
0010
,
0100
0000
1000
0100
0010
0001
0010
0000
0100
0000
1000
0000
0100
0010
0100
0010
,
0100
0000
1000
0100
0010
0001
0010
0000
0001
0000
0010
0100
1000
0100
1000
0000
,
0100
0010
0001
0010
0001
1000
0100
1000
0100
1000
0100
1000
0100
0010
0001
0010
,
0100
1000
0100
0010
0001
0010
0100
1000
0100
0010
0001
0010
0100
1000
0100
0010
,
0100
1000
0100
0010
0100
1000
0100
0010
0100
1000
0100
0010
0100
1000
0100
0010
,
0200
0000
2300
0000
3200
0000
0310
0000
0001
0010
0001
0010
0001
0010
0001
0010
,
0001
0000
2000
0000
0000
0000
0000
0000
0000
0000
0000
0000
0000
0000
0000
3000
,
0000
0000
0000
0000
0001
0020
0000
0000
0000
0000
0000
0000
0000
0000
0030
0000
,
0200
0000
0000
0000
0000
0000
0300
0000
2000
0000
0000
0000
0000
0000
0000
3000
,
0100
0020
0000
0000
0000
0000
0000
0030
0200
0000
0000
0000
0000
0300
0000
0000
,
2000
0000
0000
0000
0000
0000
0000
3000
0000
0000
0000
0000
0000
0000
0000
0000
,
0000
0002
0000
0000
0000
0000
0000
0000
0000
0003
0010
0000
0000
0000
0000
0000
,
0200
0000
0000
0000
0000
0000
0300
2000
3200
0000
0000
0000
0302
0000
0000
0003
,
2000
3200
0300
0000
0000
0000
0000
0000
,
2000
3200
0320
0032
0023
0230
2300
3200
,
0320
0032
0023
0230
2300
3200
0320
0030
,
2000
3000
0002
0003
0000
0000
0000
0000
2000
3000
0002
0003
0000
0000
0000
0000
,
0000
0000
2000
3000
0000
0000
0002
0003
0000
0000
2000
3000
0000
0000
0002
0003
,
2000
3000
0002
0003
2000
3000
0002
0003
0000
0000
0000
0000
0200
0300
0020
0030
,
0200
0300
0000
0000
0000
0000
0200
0300
0000
0000
2000
3000
0200
0300
0020
0030
,
0002
0003
0020
0030
0200
0300
2000
3000
0200
0300
0020
0030
0002
0003
0020
0030
,
0002
0003
0020
0030
0002
0003
0020
0030
0200
0300
2000
3000
0200
0300
0020
0030
,
0002
0003
0020
0030
0200
0300
2000
3000
0000
0000
0000
0000
0200
0300
0020
0030
,
0200
0300
0000
0000
0000
0000
2000
3000
0000
0000
0200
0300
0020
0030
0200
0300
,
0020
0030
0200
0300
0020
0030
0200
0300
2000
3000
0200
0300
0020
0030
0002
0003
,
0020
0030
0002
0003
0020
0032
0023
0030
0002
0000
0000
0000
0003
0000
0000
0000
,
1000
0000
0100
0000
0010
0000
0001
0000
0010
0100
1000
0100
0010
0000
0001
0000
,
0010
0000
0100
0000
1000
0000
0100
0000
0010
0001
0010
0001
0010
0000
0100
0000
,
0010
0000
0100
0000
0010
0000
0100
0000
1000
0100
0010
0001
0010
0000
0001
0000
,
0010
0000
0100
0000
1000
0000
0100
0000
0010
0001
0010
0100
1000
0100
0010
0001
,
0010
0100
1000
0100
0010
0001
0010
0100
1000
0000
0100
0000
1000
0100
1000
0100
,
1000
0100
0010
0001
0010
0001
0010
0001
0010
0000
0100
0000
1000
0100
0010
0001
,
0010
0100
1000
0100
0010
0001
0010
0100
1000
0000
0100
0000
1000
0100
1000
0100
,
1000
0100
0010
0001
0010
0001
0010
0001
0010
0000
0100
0000
1000
0100
0010
0001
,
0010
0100
1000
0100
0010
0001
0010
0100
1000
0100
0010
0100
1000
0100
0010
0100
,
1000
0100
1000
0100
1000
0100
0010
0001
0010
0100
1000
0100
1000
0100
0010
0001
,
0010
0001
0010
0001
0010
0100
1000
0100
0010
0001
0010
0100
0010
0001
0010
0100
,
0010
0001
0010
0100
0010
0001
0010
0100
0010
0001
0010
0100
0010
0001
0010
0100
,
1000
0001
1000
0001
1000
0000
0001
0000
1000
0000
0001
0000
1000
0000
0001
0000
,
1000
0100
0010
0001
0010
0100
1000
0000
0100
0000
0010
0000
0001
0000
0010
0000
,
1000
0100
1000
0100
0010
0001
0010
0000
0100
0000
1000
0000
0100
0000
0010
0000
,
1000
0100
0010
0001
0100
0010
1000
0100
0010
0001
0100
0010
1000
0100
0020
0000
,
0000
0031
0000
M000
000M
0000
0000
0000
;

//---------------dance-single - ----------------
#NOTES:
     dance-single:
     :
     Easy:
     1:
     0.000,0.000,0.000,0.000,0.000,0.000,0.000,0.000,0.000,0.000:
0000
0000
0000
0000
;
