#TITLE:Tearz;
#SUBTITLE:Beastiality Violation;
#ARTIST:Imil & Slaughtered Panda Mask;
#TITLETRANSLIT:;
#SUBTITLETRANSLIT:;
#ARTISTTRANSLIT:;
#CREDIT:Tyler & Aoreo;
#BANNER:../BV - ban.png;
#BACKGROUND:../BV - bg.png;
#LYRICSPATH:;
#CDTITLE:;
#MUSIC:Tearz.ogg;
#OFFSET:-0.048;
#SAMPLESTART:88.374;
#SAMPLELENGTH:15.364;
#SELECTABLE:YES;
#BPMS:0.000=250.000;
#STOPS:;
#BGCHANGES:;
// cache tags:
#FIRSTBEAT:60.000;
#LASTBEAT:652.000;
#SONGFILENAME:Songs/Beastiality Violation/Tearz - [Tyler & Aoreo]/Tearz.sm;
#HASMUSIC:1;
#HASBANNER:1;
#MUSICLENGTH:160.391;
// end cache tags

//---------------dance-single - T. Moore vs J. Nero----------------
#NOTES:
     dance-single:
     T. Moore vs J. Nero:
     Challenge:
     17:
     1.000,1.000,0.200,0.511,0.580,976.000,32.000,82.000,0.000,4.000:
0000
0000
0000
0000
,
0000
0000
0000
0000
,
0000
0000
0000
0000
,
0000
0000
0000
0000
,
0000
0000
0000
0000
,
0000
0000
0000
0000
,
0000
0000
0000
0000
,
0000
0000
0000
0000
,
0000
0000
0000
0000
,
0000
0000
0000
0000
,
0000
0000
0000
0000
,
0000
0000
0000
0000
,
0000
0000
0000
0000
,
0000
0000
0000
0000
,
0000
0000
0000
0000
,
1000
1000
1000
1000
,
4001
3001
4000
3001
,
0000
0001
0000
0100
,
0200
0000
0310
2000
0000
3002
0000
0000
,
0023
0000
0100
0000
0000
0000
0100
0030
,
4000
0000
3001
0000
1000
0010
0100
0001
,
1000
0000
0001
0000
0100
0000
0010
1000
,
0001
0000
1000
0100
0000
0010
0002
0000
,
0000
1000
1000
1003
,
1040
1030
0040
1030
,
0000
0001
0000
0001
,
0002
0000
0013
0200
0000
2300
0000
3000
,
0002
1000
0000
1003
,
0040
0000
1030
0000
0001
0100
0010
1000
,
0001
0000
1000
0000
0010
0000
0100
0001
,
1000
0000
0001
0020
0000
0130
2000
0000
,
0000
0001
3001
0001
,
0011
0001
1000
0001
0100
0010
1000
0010
,
0100
0001
1000
0001
0100
0001
0010
0001
,
0010
0100
1000
0001
1000
0100
0010
0001
,
0100
0000
0001
0000
1000
0000
0001
0000
0100
0000
0000
0000
0001
1000
0100
0010
,
0001
1000
0010
0100
0001
0010
0100
1000
,
0001
0000
1000
0000
0100
0000
0010
0000
0001
0000
1000
0000
0001
0000
0100
0001
,
0100
0010
1000
0001
1000
0010
0100
0001
,
2000
3000
2200
3300
0220
0330
0010
0000
,
0001
1000
0001
0100
0010
1000
0010
0100
,
0001
1000
0100
0010
0100
1000
0010
1000
,
0010
1000
0001
0010
0100
1000
0010
1000
,
0100
0000
0010
0000
0001
0000
0010
0000
0100
0000
0000
0000
1000
0001
1000
0001
,
0010
0100
1000
0100
0010
0001
0100
0010
,
1000
0000
0010
0000
0100
0000
0001
0000
1000
0000
0001
0000
0100
0000
0010
1000
,
0010
0100
0001
1000
0001
0100
0010
1000
,
0002
0003
0022
0033
0220
0330
1000
0000
,
0001
0100
0010
1000
0001
1000
0010
0100
,
0001
0000
1000
0000
0100
0000
1000
0000
0001
0000
0000
0000
0100
0001
0100
0010
,
1000
0000
0010
0000
1000
0001
0100
0001
1000
0000
0010
0000
0100
0000
0001
0000
,
1000
0000
0001
0000
0100
0000
0010
0000
1000
0000
0000
0000
0001
0010
0100
1000
,
0001
1000
0001
1000
0100
0010
0001
0100
,
0001
0000
1000
0000
0100
0000
1000
0000
0001
0000
0100
0000
0010
0000
1000
0001
,
1000
0010
0100
0001
1000
0100
0010
0100
,
1000
0010
0100
0010
1000
0001
0100
0001
1000
0001
0010
0100
1000
0001
0010
0001
,
1000
0100
1000
0001
0100
0010
1000
0010
,
0100
0000
0001
0000
0010
0000
0100
0000
1000
0100
0010
0001
1000
0010
0100
0010
,
1000
0001
1000
0010
0100
0001
0010
0001
,
0100
0000
0010
0000
0100
0000
0010
0000
1000
0000
0000
0000
0001
1000
0001
1000
,
0010
0100
0001
0100
0010
1000
0100
0010
,
0001
0000
0010
0000
0100
0000
1000
0000
0001
0000
1000
0000
0100
0000
0010
0001
,
0010
0100
1000
0001
0100
0010
1000
0010
,
0200
0300
0202
0303
2002
3003
0001
0000
,
0041
0031
0040
0031
,
0000
1000
0000
1000
,
2000
0000
3010
0200
0000
0302
0000
0000
,
2003
0100
0000
3100
,
0040
0000
0031
0000
0010
0100
1000
0010
,
0100
0000
0001
0000
0100
0000
0010
1000
,
0001
0000
0010
0200
0000
1300
0002
0000
,
0000
1000
1000
1003
,
2002
3003
0000
0000
0000
0000
0000
0000
0000
0000
0000
0000
0000
0000
0000
0000
0000
0000
0000
0000
0000
0000
0000
0000
0000
0000
0000
0000
0000
0000
0000
0000
0000
0000
0000
0000
0000
0000
0000
0000
0000
0000
0000
0000
0000
0000
0000
0000
0000
0000
0000
0000
0000
0000
0000
0000
0000
0000
0000
0000
0000
0000
0000
0000
0000
0000
0000
0000
0000
0000
0000
0000
0000
0000
0000
0000
0000
0000
0000
0000
0000
0000
0000
0000
0000
0000
0000
0000
0000
0000
0000
0000
0000
0000
0000
0000
0000
0000
0000
0000
0000
0000
0000
0000
0000
0000
0000
0000
0000
0000
0000
0000
0000
0000
0000
0000
0000
0000
0000
0000
0000
0000
0000
0000
0000
0000
0000
0000
0000
0000
0000
0000
0000
0000
0000
0000
0000
0000
0000
0000
0000
0000
0000
0000
0000
0000
0000
0000
0000
0000
0000
0000
0000
0000
0000
0000
0000
0000
0000
0000
0000
0000
0000
0000
0000
0000
0000
0000
0000
0000
0000
0000
0000
0000
0000
0000
0000
0000
0000
0000
0000
0000
0000
0000
0000
0000
0000
0000
0000
0000
0000
0000
,
0000
0000
0000
0000
,
0000
0000
0000
0000
,
0000
0000
0000
0000
,
1001
0001
0010
0100
0000
1000
0010
0100
,
0000
0001
0010
0100
0000
1000
0100
0010
,
0000
0001
1000
0010
0000
0100
0001
1000
,
0000
0001
0010
0001
0100
0000
0001
1000
,
0000
0100
0010
0001
0000
1000
0010
0100
,
0000
0001
0010
0100
0000
1000
0100
0010
,
0000
0001
0100
0010
0000
1000
0100
1000
,
0000
0000
0000
0000
0001
0000
0000
0000
0100
0000
0000
0000
0010
0000
0000
0000
2000
0000
0000
0000
0000
0000
0000
3000
1000
0000
0000
0000
0010
0000
0000
0000
,
0100
0001
0100
0001
1000
0100
0010
0001
,
1000
0010
0100
0001
1000
0001
0100
0010
,
1000
0001
0010
0001
1000
0100
0010
0001
,
1000
0000
0010
0000
0100
0000
0001
0000
0010
0000
0000
0000
0100
1000
0100
1000
,
0001
0010
0100
0010
0001
1000
0010
0100
,
0001
0000
1000
0000
0100
0000
1000
0000
0001
0000
0100
0000
0010
0000
0100
0001
,
1000
0100
0010
0100
1000
0001
0100
0010
,
2000
3000
2002
3003
0202
0000
0000
0303
,
0001
0100
0001
1000
0010
0100
0010
1000
0001
1000
0010
0100
0001
1000
0010
0100
,
0001
1000
0001
0010
0100
1000
0001
0010
0001
1000
0100
0010
0001
1000
0001
0100
,
0010
1000
0001
0100
0010
0100
0001
1000
0001
0010
0100
1000
0001
1000
0010
0100
,
0010
1000
0001
0100
0001
1000
0001
0100
0020
0000
0000
0000
0000
0000
0000
0000
,
1030
0001
1000
0010
0100
0001
0100
0010
1000
0001
0100
0001
0100
0010
1000
0001
,
1000
0001
0010
0100
1000
0001
1000
0100
0010
0100
1000
0001
0010
0100
1000
0001
,
1000
0010
0100
0001
1000
0010
0100
0001
1000
0100
0010
0001
0100
0001
1000
0010
,
0100
0001
1000
0001
0010
0100
1000
0001
2000
0000
0000
0000
0000
0000
0000
0000
,
3001
0100
0001
1000
0010
0100
0001
1000
0001
0100
0010
0100
0010
1000
0001
1000
,
0001
0010
0100
1000
0001
0010
0001
1000
0100
0010
0001
1000
0100
1000
0010
0100
,
0001
1000
0010
1000
0010
0100
0001
1000
0001
0100
0010
0100
0001
1000
0001
0010
,
0100
1000
0001
1000
0100
0010
0001
1000
0002
0000
0000
0000
0003
0000
0000
0000
,
1000
0100
1000
0001
0010
0100
1000
0001
0010
0001
1000
0100
0010
0001
1000
0001
,
1000
0010
0100
0001
0100
0010
1000
0001
0100
0001
1000
0010
0100
0010
1000
0001
,
1000
0001
0010
0100
1000
0001
1000
0010
0100
0001
1000
0100
0010
0001
1000
0001
,
1000
0010
0100
0010
1000
0001
0100
0010
1000
0010
0100
0001
1000
0010
0100
0001
,
2000
0000
3000
0000
,
0000
0000
0000
0000
,
0000
0000
0000
0000
,
0000
0000
0000
0000
,
0000
0000
0000
0000
,
0000
0000
0000
0000
,
0001
0000
0001
0000
,
1000
1000
1000
1000
,
2002
0000
3003
0001
0100
0000
0001
1000
,
0001
1000
0000
0100
1000
0000
0001
0000
,
0100
0001
0100
0001
0010
0000
0100
1000
,
0100
0010
0000
0010
0001
0000
0100
0100
,
0010
1000
0000
1000
0100
0000
0010
0001
,
0010
0100
0000
0100
1000
0000
0001
0000
,
0100
0001
0100
0010
1000
0000
0010
1000
,
0010
1000
0000
1000
0100
0000
0010
0001
,
0022
0033
0000
0001
1000
0000
0010
1000
,
0010
1000
0000
1000
0001
0000
0010
0000
,
0100
1000
0100
1000
0001
0000
1000
0100
,
1000
0010
0000
0010
0100
0001
1000
0010
,
2020
3030
0000
1000
0001
0000
0010
0001
,
0010
0001
0000
0001
0010
0000
0100
0000
,
1000
0001
1000
0001
0100
0000
0001
1000
,
2002
3003
0000
0001
0100
0000
0010
0010
,
1000
0010
0100
0001
1000
0100
0010
0001
,
1000
0000
0001
0000
0100
0000
0010
0000
2000
0000
3000
0000
0001
0100
0010
0100
,
0001
1000
0001
1000
0100
1000
0001
0100
,
0010
0000
1000
0000
0100
0000
0010
0000
0001
1000
0001
0100
0010
1000
0100
0010
,
0001
1000
0100
0010
0001
0010
0100
1000
,
0100
0000
1000
0000
0001
0000
0100
0000
0010
0000
1000
0000
0100
0000
0010
0100
,
1000
0001
0100
0001
1000
0100
1000
0001
,
0100
0010
1000
0100
0020
0030
0004
0003
,
2022
3033
0000
0000
0222
0333
0000
0000
,
2202
3303
0000
0000
2220
3330
0000
0000
,
0001
0000
0400
0300
0010
0000
1000
0000
0001
0000
0010
0000
0001
0000
0400
0300
,
0010
0000
0400
0300
0010
0000
1000
0000
0001
0000
0010
0000
0100
0000
1000
0000
,
0010
0000
0400
0300
0001
0000
1000
0000
0400
0300
0010
0000
0001
0000
0400
0300
,
0010
0000
0400
0300
0001
0000
1000
0000
0002
0000
0000
0000
0000
0000
0003
0000
,
1000
0000
0040
0030
0100
0000
0001
0000
1000
0000
0001
0000
0100
0000
0040
0030
,
1000
0000
0040
0030
0100
0000
0001
0000
1000
0000
0100
0000
0010
0000
0001
1000
,
0001
0000
0040
0030
0100
0000
1000
0000
0040
0030
0100
0000
0001
0000
0040
0030
,
0200
0300
0040
0030
0002
0003
1000
0000
0200
0000
0000
0000
0000
0000
0300
0000
,
1000
0000
0040
0030
0100
0000
0001
0000
1000
0000
0100
0000
1000
0000
0040
0030
,
0100
0000
0040
0030
0100
0000
0001
0000
1000
0000
0100
0000
0010
0000
0001
0000
,
0100
0000
0040
0030
1000
0000
0001
0000
0040
0030
0100
0000
1000
0000
0040
0030
,
0100
0000
0040
0030
1000
0000
0001
0000
2000
0000
0000
0000
3100
1000
0001
1000
,
0001
0000
0400
0300
0010
0000
1000
0000
0001
0000
1000
0000
0010
0000
0400
0300
,
0001
0000
0400
0300
0010
0000
1000
0000
0001
0000
0010
0000
0100
0000
1000
0001
,
1000
0000
0400
0300
0010
0000
0001
0000
0400
0300
0010
0000
1000
0000
0400
0300
,
0020
0030
0400
0300
2000
3000
0001
0000
0020
0000
0000
0000
0000
0000
0030
0000
,
2002
0000
0000
0000
,
0000
0000
0000
3003
,
2002
0000
0000
3003
2002
0000
0000
3003
,
2002
0000
0000
0000
,
0000
0000
0000
0000
,
3003
0000
0000
0000
;
