#TITLE:Silver Fang Theme;
#SUBTITLE:;
#ARTIST:Children of Bodom;
#TITLETRANSLIT:;
#SUBTITLETRANSLIT:;
#ARTISTTRANSLIT:;
#CREDIT:;
#BANNER:Banner.jpg;
#BACKGROUND:;
#LYRICSPATH:;
#CDTITLE:;
#MUSIC:Children Of Bodom - Hopeanuoli1.MP3;
#OFFSET:0.000;
#SAMPLESTART:100.000;
#SAMPLELENGTH:12.000;
#SELECTABLE:YES;
#BPMS:0.000=140.000;
#STOPS:;
#BGCHANGES:0.000=Backgrnd.jpg=1.200=0=0=0,
99999=-nosongbg-=1.000=0=0=0 // don't automatically add -songbackground-
;
// cache tags:
#FIRSTBEAT:0.500;
#LASTBEAT:366.000;
#SONGFILENAME:Songs/toune 5/Children Of Bodom - Hopeanuoli1/Children Of Bodom - Hopeanuoli1.sm;
#HASMUSIC:1;
#HASBANNER:1;
#MUSICLENGTH:158.517;
// end cache tags

//---------------dance-single - ----------------
#NOTES:
     dance-single:
     :
     Hard:
     7:
     0.545,0.548,0.410,0.536,0.744,454.000,65.000,85.000,0.000,2.000:
0000
0000
1000
0000
0000
1000
0000
0000
1000
0000
0000
1000
0000
0000
0001
0000
,
0000
0000
1000
0000
0000
0010
0000
0000
0100
0000
0000
1000
0010
0000
0000
0000
,
0000
0200
1000
0000
0000
0000
0000
0300
0000
0000
0001
0000
0000
1000
0000
0000
,
0010
0000
0000
0100
0000
0000
0000
1001
0000
0000
0010
0000
0100
0000
0000
0000
,
1000
0001
0100
0000
0010
0000
0100
0000
0000
1000
0000
0000
0000
0001
0000
0000
,
0010
0200
0000
0000
0000
0000
0000
0000
0000
0000
0000
0300
0000
1000
0001
0000
,
0000
0010
0000
0000
0100
0000
0000
0000
1000
0000
0000
0010
0000
0002
0000
0000
,
0000
0000
0003
1010
,
1010
0000
0000
0100
0001
0000
0000
0010
2000
0000
0000
0000
0000
3000
0100
0000
,
0000
0001
0000
0000
0010
0000
0000
2000
0010
0000
0000
0000
0000
0000
3000
0000
,
0100
0001
0000
1000
0010
0000
0000
0000
2000
0000
0000
0000
0000
3000
1100
0000
,
0000
0000
1100
0002
0000
0000
0000
0003
0010
0000
0000
1000
0000
0000
0100
0000
,
2020
0000
0000
0000
0000
0000
0000
0000
0000
0000
0000
0000
0000
3030
0000
0000
,
0001
0000
0000
0100
0000
0000
1010
0000
0000
0000
0101
0002
0000
0000
0000
0000
,
0000
0000
0000
0000
0000
0000
0003
0000
1000
0010
0000
0100
0000
0100
2100
0000
,
0000
0000
0000
0000
0000
3000
0100
1000
0010
0000
0001
0000
0200
0000
0000
0000
,
0000
0000
0000
0300
1000
0000
0010
0200
0000
0000
0000
0000
0000
0300
1000
0000
,
0001
1000
0000
0010
0000
0000
0000
0000
1010
0000
0000
0010
1000
0000
0000
1010
,
0000
0000
0000
0000
0000
0001
0100
0000
1000
0010
0000
0000
0100
0000
1000
0020
,
0000
0000
0000
0000
0000
0000
0000
0000
0030
0001
0100
0000
1000
0020
0000
0000
,
0000
0000
0000
0000
0000
0000
0030
1000
1000
0000
1000
0100
0000
1000
0000
0000
,
0001
0000
0000
0000
0000
0000
0000
0000
0000
0000
0000
0000
0000
0000
0000
0000
0000
0000
0000
0000
0000
0000
0000
0000
0000
0000
0000
0000
0000
0000
0000
0000
0000
0000
0000
0000
0010
0000
0000
0000
0000
0000
0000
0000
0000
0000
0000
0000
0000
0000
0000
0000
0000
0000
0000
0000
0000
0000
0000
0000
0100
0000
0000
0000
0000
0000
0000
0000
0000
0000
0000
0000
0000
0000
0000
0000
0000
0000
0000
0000
0000
0000
0000
0000
0000
0000
0000
0000
0000
0000
0000
0000
0000
0000
0000
0000
0002
0000
0000
0000
0000
0000
0000
0000
0000
0000
0000
0000
0000
0000
0000
0000
0000
0000
0000
0000
0000
0000
0000
0000
0000
0000
0000
0000
0000
0000
0000
0000
0000
0000
0000
0000
0000
0000
0000
0000
0000
0000
0000
0000
0000
0000
0000
0000
0000
0003
0000
0000
0000
0000
0000
0000
0000
0000
0000
0000
0000
0000
0000
0000
0000
0000
0000
0000
0000
0000
0000
0000
0000
0000
0000
0000
0000
0000
0000
0000
0000
0000
0000
0000
0000
0000
0000
0000
0000
0000
0000
0000
0000
0000
0000
0000
,
0000
0000
0000
0000
1000
0000
0000
0100
0000
1000
0000
0010
0200
0000
0000
0000
,
0000
0000
0000
0000
0300
0001
0000
1000
0000
0010
0002
0000
0000
0000
0000
0003
,
0000
1000
0010
0000
0100
0000
0000
0100
0000
0000
0000
0100
1000
0010
0000
0001
,
0100
0000
0000
0010
0000
0000
0010
0000
0000
0000
1000
0001
0100
1000
0000
0000
,
0000
0010
0000
0000
0000
0000
0000
0000
0000
0010
0000
1000
0100
0002
0000
2000
,
0000
0003
0000
0000
0000
3000
0000
0100
0000
1000
0010
1000
0000
0000
1000
0000
,
0000
0000
1000
0001
0000
0000
0000
2020
0000
0000
0000
0000
0000
0000
0000
0000
,
0000
0000
0030
3000
0000
0000
0001
0100
0000
1000
0010
0000
0200
0000
0000
0000
,
0000
0000
0000
0300
0001
0000
1000
0010
0000
0200
0000
0000
0000
0300
0001
1000
,
0000
0010
0000
1000
0000
0010
0000
0000
0000
1010
0000
0000
1010
0000
0000
0000
,
1010
0000
0000
1010
0000
0000
0000
1010
0000
0000
0000
0101
1000
0000
0010
0000
,
0000
0100
1000
1000
0000
0000
0000
0001
0100
0000
1000
0000
0000
0000
0000
0101
,
0000
1000
0000
0000
0000
0001
0000
0000
0000
1000
0000
0000
0000
0010
0000
1000
,
0000
0000
0000
0001
0000
0100
1000
0000
0000
0000
0000
0010
0000
0100
0000
0000
,
0000
0010
0000
0000
0000
1001
0000
0000
1001
0000
0000
0000
0010
0000
0000
0010
,
0000
0100
0000
0000
2002
0000
0000
3003
,
0010
0000
0000
0100
0000
0000
0000
0010
0000
0000
0100
0000
0000
0000
1001
0000
,
0000
1001
0000
0000
0020
0000
0000
0000
0000
0000
0030
0000
0100
0000
0000
0010
,
0000
0000
0110
0000
0000
0000
0110
0000
0000
2001
0000
0000
0000
3000
0000
0220
,
0000
0000
0000
0000
0000
0330
0000
0002
0000
0000
0000
0000
0003
2000
0000
0000
,
0000
0000
3000
0000
0000
1001
0000
0000
0000
0000
0220
0000
0000
0000
0000
0000
,
0330
0001
2020
3032
,
0003
0000
0000
0000
0100
0100
0000
2020
0000
0000
0000
0000
0000
3030
0000
0001
,
0000
0000
0100
0000
0000
0000
1000
0000
0000
0001
0000
0020
0000
0000
0000
0000
,
0000
0000
0000
0000
0030
0101
0000
1000
0000
0000
0010
0000
0000
0000
1000
0000
,
0000
0100
0000
0010
0000
0000
0002
0000
0000
0000
0000
0000
0000
0000
0000
0000
,
0000
0000
0000
0003
0000
0000
1100
0000
0000
0010
0000
0000
0000
0100
0001
1000
,
0000
0000
0020
0000
0000
0000
0000
0030
0100
0000
0000
1000
0001
0000
0000
0000
,
0220
0000
0000
0000
0000
0000
0000
0330
0000
0001
0000
1000
0010
0000
0100
0000
,
0000
2020
0000
0000
0000
0000
0030
3000
0000
0100
0000
0000
0100
0001
0000
0000
,
0000
0010
0000
0000
1000
0000
0000
0010
0000
0200
0000
0000
0000
0000
0000
0000
,
0000
0000
0000
0000
0300
1000
0001
0010
0000
0000
0010
0000
0000
0100
0000
0000
,
1000
0000
0000
0001
0000
2200
0000
0000
0000
0000
0000
0000
0000
0000
0000
0000
,
3300
0000
0001
0100
0000
1000
0000
0000
0010
0000
0002
0000
0000
0000
0000
0003
,
1000
0100
0000
0020
0000
0000
0000
0100
0032
0000
0000
0000
0000
0003
1000
0000
,
0100
0020
0000
0000
0000
0000
0030
0000
0001
0000
1000
0010
0000
0000
0101
0000
,
0000
0101
0000
0000
0001
0100
0000
0000
2020
0000
0000
0030
3000
0000
0101
1000
,
0010
0010
0000
0000
0001
0000
0100
1000
0020
0000
0000
0000
0000
0000
0000
0000
,
0030
0100
0000
0100
0000
0100
0020
0001
0000
0000
0000
0000
0000
0000
0030
0000
,
1000
0001
0100
0000
1000
0010
0000
0000
0001
0000
0000
0000
1000
0001
0100
0000
,
0000
0020
0000
0000
0000
0000
0000
0000
0000
0000
0000
0000
0000
0000
0000
0030
,
0000
0001
0100
1000
0010
0000
0201
0000
0002
0000
0000
0000
0000
0303
0000
0010
,
0000
1000
0100
0000
0020
0000
0000
0000
0000
0000
0031
0000
1000
0010
0000
0000
,
0100
0000
0000
0000
0000
0001
0100
1000
0000
0010
0000
0000
0101
0000
0000
0101
,
0000
0000
0000
0010
1000
0000
0100
0001
0100
2000
0000
0000
0000
0000
0000
0000
,
0000
3100
0000
1000
0001
0010
0000
0100
0020
0000
0000
0000
0000
0000
0000
0030
,
0100
0000
1000
0001
0000
0000
0000
0100
0000
0000
0000
0101
0000
1000
0000
2020
,
0000
0000
0000
0000
0000
0000
0000
0000
0000
0000
0000
0000
0000
3030
0000
0000
,
0001
0100
1000
0010
0000
0200
0000
0000
0000
0000
0000
0000
0000
0000
0300
1000
,
0101
0000
1000
0020
0000
0000
0000
0030
0000
0100
1000
0010
0000
0000
0100
0000
,
0000
0000
0100
0000
0000
0100
0000
0000
0000
0100
0000
0000
0100
0000
0000
0000
,
1000
0000
0000
0000
0001
1000
0000
0010
0000
0000
0000
0010
0020
1000
0000
0000
,
0030
1010
0000
0020
0000
0000
0000
0030
0001
0100
1000
0000
0000
0000
0100
1000
,
0000
0002
0000
0000
0000
0000
0000
0000
0000
0000
0000
0003
0100
1000
0010
0000
,
0200
0000
0000
0000
0000
0000
0000
0000
0000
0300
1000
0000
0001
1000
0010
0000
,
0000
0000
0010
0000
0000
0010
0000
1010
0000
0000
0002
0100
0000
0000
0000
0000
,
0000
0000
0000
0000
0000
0000
0003
0000
0000
0100
0000
1000
0010
0000
0100
2000
,
0000
0000
0000
0000
0000
0000
0000
3000
0001
1000
0000
0010
0000
2001
0000
0000
,
0000
0000
3000
0001
1000
0000
1100
0000
0000
1100
0000
0000
1000
0000
0100
1000
,
0000
0100
1000
0000
0000
1010
0000
0002
0010
0000
0000
0000
0100
0003
0000
1000
,
0100
0000
2000
0000
0000
0000
0000
0000
0000
3000
0000
0100
1000
0001
0000
1000
,
0000
0020
0000
0000
0000
0000
0000
0030
0000
0100
0000
1000
0010
0000
0000
0000
,
1010
0000
0000
0010
0000
1100
0000
0000
0200
0000
0000
0000
0000
0000
0000
0000
,
0000
0000
0000
0000
0000
0000
0300
0000
0101
0000
1101
1000
0000
0200
0000
0000
,
2000
0000
0000
0000
0300
3000
0001
0000
1000
0100
0000
2200
0000
0000
0000
0300
,
0000
3001
1100
0000
1100
0000
0000
0010
0000
0000
1010
0000
0000
0000
1001
0000
,
0000
0020
0000
0000
0000
0000
0000
0000
0000
0000
0000
0030
0001
1000
0000
0000
,
0010
0000
0000
1100
0000
0010
0000
0000
0000
0001
0000
0100
2000
0000
0000
0000
,
0000
3100
0000
2000
0000
0000
0000
3000
0010
0000
0000
0001
0000
1000
0010
0000
,
0100
0000
1010
0001
0000
1010
0000
0010
0100
0000
0000
0000
0000
0000
0000
0000
;
