#TITLE:Sea Gate;
#SUBTITLE:Sonic Heroes;
#ARTIST:Jun Senoue;
#TITLETRANSLIT:;
#SUBTITLETRANSLIT:;
#ARTISTTRANSLIT:;
#CREDIT:Owem;
#BANNER:../banner.png;
#BACKGROUND:../bg.png;
#LYRICSPATH:;
#CDTITLE:../cdtitleowem.png;
#MUSIC:Sonic Heroes - Jun Senoue - Sea Gate.ogg;
#OFFSET:-0.274;
#SAMPLESTART:39.993;
#SAMPLELENGTH:29.999;
#SELECTABLE:YES;
#BPMS:0.000=160.124;
#STOPS:;
#BGCHANGES:;
// cache tags:
#FIRSTBEAT:2.000;
#LASTBEAT:523.000;
#SONGFILENAME:Songs/Owem's Simfiles 08 - 1.2/Sea Gate - [Owem] v1.0.1/Sea Gate.sm;
#HASMUSIC:1;
#HASBANNER:1;
#MUSICLENGTH:204.643;
// end cache tags

//---------------dance-single - 14- (Owem)----------------
#NOTES:
     dance-single:
     14- (Owem):
     Challenge:
     14:
     1.000,1.000,0.122,0.215,1.000,1955.000,25.000,44.000,0.000,0.000:
0000
0000
0000
0000
0000
0000
0000
0000
1000
0100
0010
0001
1000
0010
0100
0001
,
1000
0100
1000
0001
0010
0100
1000
0001
0010
0001
0100
0010
1000
0001
0100
0001
,
1000
0010
0100
0010
0100
0001
1000
0100
0010
0001
1000
0100
1000
0001
0010
0001
,
0100
0010
1000
0001
1000
0100
0010
0001
1000
0100
0010
0100
1000
0001
0100
0010
,
1000
0000
0010
0100
0002
0000
0000
0000
0103
0010
1000
0010
0100
0001
1000
0100
,
0010
0100
1000
0001
0100
0001
0010
0100
1000
0001
0010
0001
0100
0010
1000
0010
,
0100
0001
1000
0100
0010
0001
1000
0100
1000
0001
0100
0010
1000
0001
0100
0001
,
0010
0100
1000
0001
0010
0001
1000
0100
0010
0001
1000
0001
0100
0010
1000
0010
,
0100
0000
0001
1000
0020
0000
0000
0000
2030
0000
0000
3001
0100
0000
0120
0000
,
0000
1030
0001
0000
0201
0000
0000
0310
1000
0000
0001
0100
0000
0010
0100
0001
,
1000
0100
0010
0001
2000
0000
0000
0000
3200
0000
0000
0000
0310
0001
1000
0001
,
0100
0010
1000
0100
1000
0001
0100
0001
1000
0100
0010
0100
1000
0001
0100
0001
,
1000
0010
0100
0001
1000
0100
1000
0001
0010
0100
1000
0001
0010
0001
1000
0100
,
1000
0001
0100
0001
1000
0100
0010
0100
1000
0001
1000
0010
0100
0001
1000
0100
,
0010
0001
1000
0001
0100
0010
1000
0010
0100
0001
1000
0100
1000
0001
0100
0001
,
1000
0100
0010
0001
1000
0100
1000
0001
0010
0001
0100
0010
1000
0001
0100
0010
,
0100
0001
1000
0010
1000
0100
0010
0001
1000
0100
1000
0001
0100
0010
0100
0001
,
1000
0100
0010
0001
1000
0000
0001
0100
0010
0000
2010
0000
3001
0000
0210
0000
,
0301
1000
0000
0100
0010
0001
1000
0000
0020
0000
0000
0000
0130
0001
1000
0010
,
1000
0001
0100
0010
1000
0001
0100
0001
0010
0100
1000
0001
0010
0001
1000
0100
,
1000
0010
0100
0001
1000
0010
1000
0100
0010
0001
0100
0010
0100
0001
1000
0100
,
1000
0010
0100
0001
1000
0001
0010
0100
1000
0001
0010
0001
1000
0100
0010
0100
,
1000
0001
1000
0010
0100
0001
1000
0100
1000
0001
0010
0100
1000
0001
0010
0001
,
0100
0010
1000
0001
0100
0001
1000
0010
0100
0001
1000
0100
1000
0001
0010
0100
,
1000
0001
0010
0001
1000
0100
0010
0100
1000
0001
0010
0001
0100
0010
1000
0001
,
0100
0001
1000
0100
0010
0000
0001
1000
0001
0000
0201
0000
0310
0000
2010
0000
,
3001
0000
0010
0100
1000
0001
1000
0000
0100
0010
0001
1000
0010
1000
0001
0100
,
0010
1000
0001
1000
0100
0010
0001
1000
0100
1000
0001
0100
0010
0100
0001
1000
,
0100
1000
0010
1000
0001
0100
0001
1000
0100
0010
0100
1000
0001
0100
0010
1000
,
0001
0010
0001
1000
0100
1000
0010
0100
0001
1000
0100
0010
0001
1000
0001
1000
,
0100
0010
0001
1000
0100
1000
0001
0100
0010
1000
0001
0100
0010
0100
0001
1000
,
0001
0100
0010
0100
0001
1000
0010
1000
0100
0010
0001
1000
0100
1000
0001
0010
,
0100
1000
0001
0010
0001
1000
0100
0010
0100
1000
0001
1000
0010
0100
0001
1000
,
0010
1000
0100
0010
0001
1000
0100
1000
0001
0100
0010
1000
0001
0100
0001
0010
,
0100
1000
0001
1000
0100
0010
0001
1000
0100
1000
0001
0100
0010
1000
0010
0100
,
0001
1000
0100
1000
0001
1000
0100
0010
0100
1000
0001
0010
0001
1000
0001
0100
,
0010
0100
0001
1000
0100
0010
0100
1000
0001
1000
0010
0100
0001
1000
0010
1000
,
0001
0100
0010
0100
0001
1000
0010
0100
0001
1000
0100
0010
0001
1000
0100
1000
,
0010
0100
0001
1000
0100
0010
0001
0010
0100
1000
0001
0100
0001
1000
0100
0010
,
0001
1000
0100
1000
0001
0100
0001
1000
0010
0100
0001
1000
0100
1000
0001
0100
,
0010
0100
0001
1000
0100
1000
0001
0100
0010
1000
0001
1000
0100
0010
0001
1000
,
0100
1000
0001
0100
0010
0100
0001
1000
0100
1000
0001
0100
0001
0010
0100
1000
,
0100
0010
0001
1000
0100
1000
0010
0100
0002
0000
0103
0000
0010
0000
4000
0000
,
3200
0000
0320
0000
0031
0000
1000
0010
1000
0001
0100
0010
1000
0001
0100
0001
,
0010
0100
1000
0001
0010
0001
1000
0100
0010
0100
1000
0001
0100
0010
1000
0001
,
1000
0100
0010
0001
1000
0100
1000
0001
0100
0010
0100
0001
1000
0100
0010
0100
,
1000
0001
0010
0001
1000
0100
0010
0100
1000
0001
1000
0010
0100
0001
1000
0100
,
1000
0001
0010
0100
1000
0001
1000
0010
0100
0001
1000
0100
1000
0001
0100
0010
,
1000
0001
0100
0010
0100
0001
1000
0100
0010
0100
1000
0001
0100
0001
1000
0100
,
1000
0001
0010
0001
1000
0100
0010
0100
1000
0001
1000
0010
0100
0001
1000
0100
,
1000
0001
0010
0100
1000
0001
0010
0001
1000
0100
1000
0001
0100
0010
1000
0001
,
0100
0001
1000
0100
0010
0001
1000
0100
1000
0001
0010
0001
1000
0100
0010
0100
,
1000
0001
0100
0001
1000
0010
0100
0001
0100
0010
1000
0001
0100
0001
1000
0001
,
0100
0010
0100
0001
1000
0100
0010
0100
1000
0001
0010
0001
1000
0100
1000
0001
,
0100
0010
1000
0001
1000
0100
0010
0001
1000
0100
1000
0001
0100
0010
0100
0001
,
1000
0001
0010
0001
0100
0010
1000
0001
0100
0001
1000
0100
0010
0001
1000
0100
,
1000
0001
0100
0010
0100
0001
1000
0100
0010
0100
1000
0001
1000
0010
0100
0001
,
1000
0100
1000
0001
0010
0100
1000
0001
0100
0001
1000
0010
0100
0001
1000
0100
,
1000
0001
0100
0010
0100
0001
1000
0100
1000
0001
0010
0100
1000
0001
1000
0010
,
0100
0001
1000
0100
1000
0001
0100
0010
2000
0000
3001
0100
0010
0000
2010
0000
,
3100
0010
0001
0000
2001
0000
3010
0100
0001
0000
2001
0000
3010
0100
0001
0000
,
0201
0000
0310
1000
0002
0000
0000
0000
1003
0100
1000
0010
0100
0001
1000
0100
,
0010
0001
1000
0100
1000
0001
0010
0100
1000
0001
0100
0001
0010
0100
1000
0001
,
1000
0010
0100
0001
1000
0100
1000
0001
0100
0010
0100
0001
1000
0010
1000
0100
,
0010
0001
1000
0100
1000
0001
0100
0010
0100
0001
1000
0100
0010
0100
1000
0001
,
0010
0001
1000
0100
0010
0100
1000
0001
0100
0010
0100
0001
1000
0100
0010
0100
,
1000
0001
0010
0001
1000
0010
0100
0001
0100
0010
1000
0001
0100
0010
0100
0001
,
1000
0010
0100
0001
1000
0100
1000
0001
0010
0100
0010
0001
1000
0100
1000
0001
,
1000
0010
0100
0001
1000
0010
1000
0001
0100
0000
0120
0000
0030
0000
1000
0000
,
1020
0000
0000
0130
0001
1000
0001
0000
1000
0100
1000
0001
0010
0001
0100
0010
,
1000
0001
0100
0001
1000
0100
0010
0001
0100
0010
1000
0001
0100
0010
0100
0001
,
1000
0100
0010
0001
1000
0100
1000
0001
0010
0001
0100
0010
1000
0001
0100
0010
,
0100
0001
1000
0100
1000
0001
1000
0100
0010
0001
1000
0100
1000
0010
1000
0001
,
0100
0010
1000
0001
0100
0001
1000
0100
1000
0001
0010
0100
1000
0001
0010
0001
,
1000
0100
0010
0100
1000
0001
1000
0010
0100
0001
1000
0100
1000
0001
0100
0001
,
1000
0100
0010
0100
1000
0001
0010
0001
1000
0100
1000
0010
0100
0001
1000
0001
,
0100
0010
1000
0001
0100
0010
1000
0001
1000
0000
0012
0000
1003
0000
1020
0000
,
0130
0000
0001
1000
0001
0010
0100
1000
0010
0100
0001
1000
0010
1000
0001
0100
,
0010
1000
0001
1000
0100
0010
0001
1000
0100
1000
0001
0100
0010
0100
0001
1000
,
0100
1000
0010
1000
0001
0100
0001
1000
0100
0010
0100
1000
0001
0100
0010
1000
,
0001
0010
0001
1000
0100
1000
0010
0100
0001
1000
0100
0010
0001
1000
0001
1000
,
0100
0010
0001
1000
0100
1000
0001
0100
0010
1000
0001
0100
0010
0100
0001
1000
,
0001
0100
0010
0100
0001
1000
0010
1000
0100
0010
0001
1000
0100
1000
0001
0010
,
0100
1000
0001
0010
0001
1000
0100
0010
0100
1000
0001
1000
0010
0100
0001
1000
,
0010
1000
0100
0010
0001
1000
0100
1000
0001
0100
0010
1000
0001
0100
0001
0010
,
0100
1000
0001
1000
0100
0010
0001
1000
0100
1000
0001
0100
0010
1000
0010
0100
,
0001
1000
0100
1000
0001
1000
0100
0010
0100
1000
0001
0010
0001
1000
0001
0100
,
0010
0100
0001
1000
0100
0010
0100
1000
0001
1000
0010
0100
0001
1000
0010
1000
,
0001
0100
0010
0100
0001
1000
0010
0100
0001
1000
0100
0010
0001
1000
0100
1000
,
0010
0100
0001
1000
0100
0010
0001
0010
0100
1000
0001
0100
0001
1000
0100
0010
,
0001
1000
0100
1000
0001
0100
0001
1000
0010
0100
0001
1000
0100
1000
0001
0100
,
0010
0100
0001
1000
0100
1000
0001
0100
0010
1000
0001
1000
0100
0010
0001
1000
,
0100
1000
0001
0100
0010
0100
0001
1000
0100
1000
0001
0100
0001
0010
0100
1000
,
0100
0010
0001
1000
0100
1000
0010
0100
0002
0000
0103
0000
0010
0000
4000
0000
,
3200
0000
0320
0000
0031
0000
1000
0010
1000
0001
0100
0010
1000
0001
0100
0001
,
0010
0100
1000
0001
0010
0001
1000
0100
0010
0100
1000
0001
0100
0010
1000
0001
,
1000
0100
0010
0001
1000
0100
1000
0001
0100
0010
0100
0001
1000
0100
0010
0100
,
1000
0001
0010
0001
1000
0100
0010
0100
1000
0001
1000
0010
0100
0001
1000
0100
,
1000
0001
0010
0100
1000
0001
1000
0010
0100
0001
1000
0100
1000
0001
0100
0010
,
1000
0001
0100
0010
0100
0001
1000
0100
0010
0100
1000
0001
0100
0001
1000
0100
,
1000
0001
0010
0001
1000
0100
0010
0100
1000
0001
1000
0010
0100
0001
1000
0100
,
1000
0001
0010
0100
1000
0001
0010
0001
1000
0100
1000
0001
0100
0010
1000
0001
,
0100
0001
1000
0100
0010
0001
1000
0100
1000
0001
0010
0001
1000
0100
0010
0100
,
1000
0001
0100
0001
1000
0010
0100
0001
0100
0010
1000
0001
0100
0001
1000
0001
,
0100
0010
0100
0001
1000
0100
0010
0100
1000
0001
0010
0001
1000
0100
1000
0001
,
0100
0010
1000
0001
1000
0100
0010
0001
1000
0100
1000
0001
0100
0010
0100
0001
,
1000
0001
0010
0001
0100
0010
1000
0001
0100
0001
1000
0100
0010
0001
1000
0100
,
1000
0001
0100
0010
0100
0001
1000
0100
0010
0100
1000
0001
1000
0010
0100
0001
,
1000
0100
1000
0001
0010
0100
1000
0001
0100
0001
1000
0010
0100
0001
1000
0100
,
1000
0001
0100
0010
0100
0001
1000
0100
1000
0001
0010
0100
1000
0001
1000
0010
,
0100
0001
1000
0100
1000
0001
0100
0010
2000
0000
3001
0100
0010
0000
2010
0000
,
3100
0010
0001
0000
2001
0000
3010
0100
0001
0000
2001
0000
3010
0100
0010
0000
,
0210
0000
0301
0000
1002
0000
0003
0000
1000
0100
0010
0001
0100
0001
1000
0100
,
0010
0001
1000
0100
1000
0001
0010
0100
1000
0001
0100
0001
0010
0100
1000
0001
,
1000
0010
0100
0001
1000
0100
1000
0001
0100
0010
0100
0001
1000
0010
1000
0100
,
0010
0001
1000
0100
1000
0001
0100
0010
0100
0001
1000
0100
0010
0100
1000
0001
,
0010
0000
0100
1000
0002
0000
0000
0000
0103
0010
1000
0010
0100
0001
1000
0100
,
0010
0100
1000
0001
0100
0001
0010
0100
1000
0001
0010
0001
0100
0010
1000
0010
,
0100
0001
1000
0100
0010
0001
1000
0100
1000
0001
0100
0010
1000
0001
0100
0001
,
0010
0100
1000
0001
0010
0001
1000
0100
0010
0001
1000
0001
0100
0010
1000
0010
,
0100
0000
0001
1000
0020
0000
0000
0000
2030
0000
0000
3001
0100
0000
0120
0000
,
0000
1030
0001
0000
0201
0000
0000
0310
1000
0000
0001
0100
0000
0010
0100
0001
,
1000
0100
0010
0001
2000
0000
0000
0000
3200
0000
0000
0000
0310
0001
1000
0001
,
0100
0010
1000
0100
1000
0001
0100
0001
1000
0100
0010
0100
1000
0001
0100
0001
,
1000
0010
0100
0001
1000
0100
1000
0001
0010
0100
1000
0001
0010
0001
1000
0100
,
1000
0001
0100
0001
1000
0100
0010
0100
1000
0001
1000
0010
0100
0001
1000
0100
,
0010
0001
1000
0001
0100
0010
1000
0010
0100
0001
1000
0100
1000
0001
0100
0001
,
1000
0100
0010
0001
1000
0100
1000
0001
0010
0001
0100
0010
1000
0001
0100
0010
,
0100
0001
1000
0010
1000
0100
0010
0001
1000
0100
1000
0001
0100
0010
0100
0001
,
1000
0100
0010
0001
1000
0000
0001
0100
0010
0000
2010
0000
3001
0000
0210
0000
,
0301
1000
0000
0100
0010
0001
1000
0000
0020
0000
0000
0000
0030
0000
0000
0000
;
