#TITLE:Gaussian Blur 2;
#SUBTITLE:[3x];
#ARTIST:Kil;
#TITLETRANSLIT:;
#SUBTITLETRANSLIT:;
#ARTISTTRANSLIT:;
#CREDIT:;
#BANNER:gaussainbn.jpg;
#BACKGROUND:gaussainbg.jpg;
#LYRICSPATH:;
#CDTITLE:;
#MUSIC:Gaussian Blur 2.mp3;
#OFFSET:-0.073;
#SAMPLESTART:32.000;
#SAMPLELENGTH:12.000;
#SELECTABLE:YES;
#BPMS:0.000=140.000,52.000=135.000,53.000=140.000,54.000=145.000,55.000=150.000,57.000=155.000,58.000=160.000,59.000=165.000,61.000=170.000,62.000=175.000,63.000=180.000,64.000=185.000,65.000=191.000,66.000=197.000,67.000=204.000,68.000=213.000,292.000=215.000,308.000=217.000,312.000=219.000,316.000=220.000,320.000=221.000,324.667=101.380,325.000=87.360,325.333=80.400,325.667=70.120,326.000=65.340,326.333=59.320,326.667=52.500,327.000=44.080,327.333=35.660,327.667=26.400,328.000=15.580;
#STOPS:;
#BGCHANGES:;
// cache tags:
#FIRSTBEAT:0.000;
#LASTBEAT:328.000;
#SONGFILENAME:Songs/Ace Megapack/Gaussian Blur 2/gb2.sm;
#HASMUSIC:1;
#HASBANNER:1;
#MUSICLENGTH:116.435;
// end cache tags

//---------------dance-single - ya behbeh mm hmm----------------
#NOTES:
     dance-single:
     ya behbeh mm hmm:
     Challenge:
     14:
     1.000,1.000,1.000,0.644,0.876,670.000,144.000,75.000,0.000,0.000:
1000
0100
0010
0000
0001
0010
0100
0000
,
1000
0000
0100
0000
1000
0000
0001
0000
1000
0000
0000
0000
0000
0000
1000
0100
,
0010
0100
0001
0010
1001
0100
0010
0001
,
1001
0010
0100
1000
0110
0001
0100
0010
,
1001
0001
0010
0100
0011
0001
0010
0100
,
1100
0001
0100
1000
1001
0110
1100
0011
,
2002
0000
0000
3003
0000
1000
0100
0010
,
0200
2300
3002
2003
,
3200
0000
0000
0300
0000
0100
1000
0001
,
0010
0100
1000
0010
1000
1001
0100
0010
,
0001
0010
0100
1000
1001
0010
0100
1000
,
2002
0000
0000
3003
1100
0000
1001
0000
,
0022
0000
0000
0000
0000
0000
0000
0000
0000
0000
0033
0000
2002
0000
0000
3003
0000
0000
0200
0000
0000
0000
0000
0000
,
0300
0001
1000
0001
1000
0001
1000
0001
1000
0001
1000
0001
1000
0001
1000
0001
,
1000
0001
1000
0100
0010
0100
1000
0100
0010
0001
0010
0100
0010
0001
0010
0100
,
1000
0100
1000
0001
0100
0010
1000
0001
0100
0010
1000
0100
0001
0010
1000
0100
,
0001
0100
1000
0001
0100
0010
1000
0100
0010
0001
0100
0010
1000
0001
0100
1000
,
1000
0000
0001
0000
1000
0000
0100
0001
0010
0100
0001
0000
0100
0000
1000
0000
,
1001
0000
1000
0000
0001
0000
0010
0000
0001
0010
0100
0000
0100
0000
0001
0000
,
1001
0000
1000
0000
0010
0000
0100
0000
1000
0100
0010
0000
0001
0000
0100
0000
,
1000
0000
0000
0000
0011
0000
0000
0000
1000
0000
0000
0000
0011
0000
0000
0000
1000
0000
0000
0000
0011
0000
0000
0000
0001
0000
0000
0000
0000
0000
1000
0000
0000
0001
0000
0000
0010
0000
0000
0100
0000
0000
0010
0000
0000
0000
0000
0000
,
1001
0000
0000
0000
0000
1001
0011
1100
,
0022
0000
0000
0033
2200
0000
0000
3300
0202
0000
0000
0303
2020
0000
0000
3030
,
2002
0000
0000
0000
3003
1001
0101
0011
,
1100
1010
1100
0011
0020
0031
1100
0101
,
1010
1001
0101
0101
0002
1003
1010
0110
,
1001
0011
1010
0101
0002
1003
0011
0110
,
1001
1000
0011
0011
1000
0011
0011
0010
,
1100
1100
0001
0101
0101
1000
0110
0110
,
0100
1001
1001
0100
0011
0011
0001
1100
,
1100
0010
0101
0101
0100
1010
1010
0000
,
2002
0000
0000
3003
0022
0000
0000
0033
,
2200
0000
0000
3300
0220
0000
0000
0330
,
2200
0000
0000
0000
0000
0000
0000
0000
0000
0000
3300
0000
0000
0000
0001
0010
,
0100
1000
0000
0000
0000
0000
1001
0110
0000
0000
0000
0000
0000
0000
1100
0022
,
0000
0000
0000
0000
0000
0000
0000
0033
0202
0000
0000
0000
0000
0000
0000
0303
,
2002
0000
0000
0000
0000
0000
0000
3003
0220
0000
0000
0000
0000
0000
0000
0330
,
2002
0000
0000
0000
0000
0000
0000
0000
0000
0000
0000
0000
0000
0000
0000
3003
,
0220
0000
0000
0000
0000
0000
0000
0000
0000
0330
0000
0000
1000
0100
0010
0001
,
1000
0100
1000
0100
1001
0010
0100
0010
,
1001
0010
0100
1000
1100
0100
0010
0001
,
1100
0100
0010
1000
0101
0010
0001
0100
,
1000
0100
1000
0000
0000
0000
0000
0000
0001
0010
0001
0000
0000
0000
0000
0000
,
1001
0010
0100
1000
0011
0010
0100
1000
,
1100
0101
1001
1010
,
0100
0010
0100
1000
0100
0010
0001
0000
0010
0001
0010
0001
0010
0100
1000
0000
,
1000
0100
0010
0001
0000
0000
0001
0010
0100
0000
0000
0100
1000
0100
0010
0000
,
0001
1000
0001
1000
0001
0000
0000
0010
1000
0010
1000
0010
1000
0010
0000
0001
,
0100
0001
0100
0001
0100
0001
0000
0000
1001
0000
0011
0000
0101
0000
1001
0000
,
2002
3003
1001
1010
1100
1001
2002
3003
,
0110
0000
0101
0000
1010
0000
1001
0000
2000
0000
3001
0002
0000
1003
0000
0000
,
1001
0101
1010
0110
1100
0011
1010
1001
,
0101
1001
0110
1010
1100
0000
0000
0000
,
2002
0000
0000
0000
0000
0000
0000
3003
,
0022
0000
0000
0000
0000
0000
0000
0033
,
2200
0000
0000
0000
0000
0000
0000
0000
3300
0022
0000
0000
0000
0000
0000
0033
,
1000
0001
1000
0000
0001
0100
1000
0100
0001
1000
0001
1000
0001
1000
0001
0000
,
2002
0000
0000
0000
0000
0000
0000
3003
,
2200
0000
0000
0000
0000
0000
0000
3300
,
0022
0000
0000
0000
,
0000
0000
0000
0000
,
0033
1001
0100
0001
0100
0001
0100
0001
0010
0100
0010
0100
1000
0100
1000
0100
,
0010
0000
0000
0000
0100
1000
0100
1000
0100
0010
0100
0010
0001
0010
0001
0010
,
0100
0000
0000
0000
0001
0010
0100
1000
0100
0010
0001
0010
0100
1000
0100
0010
,
0001
0000
0000
0000
1000
0001
1000
0010
1000
0001
1000
0100
1000
0010
1000
0000
,
0000
0000
1000
0100
0010
0100
1000
0100
0010
0100
0010
0100
1000
0100
0010
0001
,
0000
0000
0000
0001
0100
1000
0100
0001
0010
0100
1000
0010
0100
0001
0010
0100
,
1000
0000
0000
0000
1000
0100
0010
0001
1000
0100
0010
0001
1000
0100
0010
0001
,
1000
0000
0000
0000
0001
0100
1000
0100
0001
0100
1000
0100
0001
0100
1000
0100
,
2002
3003
0110
0000
0000
0000
1001
0000
,
0000
0000
0000
0000
0000
0000
1001
0000
0000
0000
0000
0000
0000
0000
0000
0000
0000
0000
1001
0000
0000
1000
0100
0010
,
0001
1001
0000
1001
,
1000
0000
0000
0000
0100
0000
0000
0000
0010
0000
0000
0000
1001
0000
0000
0000
0000
0000
0001
0000
0000
0000
0000
0000
0010
0000
0000
0000
0000
0000
0100
0000
0000
0000
0000
0000
0001
0000
0000
1000
0000
0000
0100
0000
0000
0001
0000
0000
,
0010
0100
0010
1000
0001
0100
0010
1000
0001
0100
0010
1000
0001
0010
1000
0100
,
0001
0100
0010
1000
0001
1000
0010
0100
1000
0001
0010
0001
1000
0010
0001
0010
,
1000
0001
0010
1000
0010
0100
0001
0100
1000
0010
0001
0010
1000
0100
0001
0010
,
1000
0100
0001
0010
0100
0001
0100
0010
1000
0001
0100
1000
0010
0100
0001
0100
,
0001
1000
0010
0100
1000
0001
0010
1000
0100
1000
0100
0010
1000
0001
0100
1000
,
0010
0001
1000
0100
0010
0001
0100
1000
0001
0010
0100
1000
0001
0100
0010
1000
,
1000
0100
0010
0001
1000
0100
0010
0001
1000
0100
0010
0001
1000
0100
0010
0001
,
0001
0010
0100
1000
0001
0010
0100
1000
0001
0010
0100
1000
0001
0010
0100
1000
,
0001
0000
0000
0010
0000
0000
0100
0000
2002
0000
0000
0000
0000
0000
0000
0000
0000
0000
0000
0000
0000
0000
0000
0000
0000
0000
0000
0000
0000
0000
0000
0000
3003
0000
0000
0000
0220
0000
0000
0000
0000
0000
0000
0000
0000
0000
0000
0000
,
0330
0000
0000
0000
;
