#TITLE:Strip Mine;
#SUBTITLE:;
#ARTIST:Beatdrop;
#TITLETRANSLIT:;
#SUBTITLETRANSLIT:;
#ARTISTTRANSLIT:;
#CREDIT:;
#BANNER:Strip Mine.png;
#BACKGROUND:Strip Mine-bg.png;
#LYRICSPATH:;
#CDTITLE:;
#MUSIC:Strip Mine.mp3;
#OFFSET:-0.100;
#SAMPLESTART:32.340;
#SAMPLELENGTH:12.000;
#SELECTABLE:YES;
#BPMS:0.000=118.980;
#STOPS:;
#BGCHANGES:;
// cache tags:
#FIRSTBEAT:8.000;
#LASTBEAT:177.500;
#SONGFILENAME:Songs/newbie/Strip Mine/Strip Mine.sm;
#HASMUSIC:1;
#HASBANNER:1;
#MUSICLENGTH:89.604;
// end cache tags

//---------------dance-single - E. Holniker----------------
#NOTES:
     dance-single:
     E. Holniker:
     Challenge:
     11:
     0.914,0.842,0.022,1.000,0.982,456.000,2.000,115.000,2.000,21.000:







0000
0000
0000
0000
,
0000
0000
0000
0000
,
0000
0000
0000
0000
,
0000
0000
0000
0000
,
1000
0010
1000
0010
0100
0010
0100
0010
0100
0001
0100
0001
1000
0100
1000
0100
,
0010
0001
0010
0001
0010
0100
0010
0100
0010
0100
2000
0020
0000
0000
3030
M0M0
,
1000
0100
1000
0100
0010
0100
0010
0100
0001
0100
0001
0100
1000
0010
1000
0010
,
0100
0010
0100
0010
0001
0010
0001
0010
1000
0100
1000
0100
0000
0100
0010
0001
,
2000
0000
3200
0000
0310
0001
0010
0100
1000
0010
0200
0000
0320
0002
0000
0003
,
0230
0000
0320
0000
0031
0010
0100
1000
0010
0100
0020
0002
0000
0033
0100
1000
,
0200
0000
0320
0000
0031
0010
0100
1000
0010
0200
0020
0330
2000
0200
0000
3300
,
0020
0000
0032
0000
0013
1000
0100
0010
0100
0001
0200
0020
0330
0000
0100
1000
,
0020
0000
0230
0000
0310
1000
0100
0010
0100
0002
0200
0303
2000
0020
0000
3030
,
0200
0000
0320
0000
0031
0010
1000
0010
0100
0010
2000
0020
0000
3030
0100
0010
,
2000
3200
0320
0032
2003
3020
2030
3200
,
0320
0230
0302
1000
2000
0000
0010
3003
,
0100
0010
0100
0010
0100
0010
0200
0300
1000
0100
1000
0100
1000
0100
2000
3000
,
0001
0010
0001
0010
0001
0010
0002
0003
0100
0010
0100
0010
0100
0010
0200
0300
,
1000
0100
0010
0001
0010
0100
0010
0100
1000
0010
1000
0010
0100
0010
0100
0010
,
0001
0010
0001
0010
1000
0010
1000
0010
1000
0100
1000
0100
1000
0100
2000
3000
,
0001
0100
0001
0100
0002
0000
0100
0003
0100
0010
0100
0010
0200
0000
1000
0300
,
1000
0100
1000
0100
2000
0000
0001
3000
0001
0010
0001
0010
0002
0000
0010
0003
,
0010
0100
1000
0010
0100
0010
0001
0010
1000
0100
0010
0100
0001
0100
0010
0100
,
1000
0010
0100
0010
0001
0010
1000
0100
0010
0100
1000
0001
0100
0010
0001
0010
,
2000
0000
0000
0000
0200
0000
3300
0000
0010
0000
0000
0100
0010
0000
0000
0010
0100
0000
0000
0100
1000
0000
0000
0000
0001
0000
0100
0000
0000
0000
0000
0000
,
0010
0000
0000
0000
0010
0000
0000
0000
1000
0000
0200
0000
0000
0000
2000
0000
0000
0000
0000
0000
0001
0000
0000
0010
0001
0000
0000
0010
3301
0000
0000
0000
,
0010
0000
0000
0000
0100
0000
0000
0000
1000
0000
0000
0010
0100
0000
0000
0100
0001
0000
0000
0001
1000
0000
0000
0000
0100
0000
0010
0000
0000
0000
0000
0000
,
0001
0000
0000
0000
1000
0000
0000
0000
0010
0000
0200
0000
0000
0000
0020
0000
0000
0000
0000
0000
1000
0000
0000
0001
1000
0000
0000
0001
1000
0000
0330
0000
,
0001
0000
0000
0000
1000
0000
0000
0000
0100
0000
0000
0010
0001
0000
0000
0001
0010
0000
0000
0010
0100
0000
0000
0000
0100
0000
0000
0000
1000
0000
0000
0000
,
0010
0000
0000
0000
0100
0000
0000
0000
0010
0000
0002
0000
0000
0000
0200
0000
0000
0000
0000
0000
1000
0000
0000
0010
1000
0000
0000
0010
1303
0000
0000
0000
,
0001
0000
0000
0000
0100
0000
0000
0000
0010
0000
0000
1000
0100
0000
0000
0100
0010
0000
0000
0010
0001
0000
0000
0000
0010
0000
0100
0000
0000
0000
0000
0000
,
1000
0000
0000
0000
0010
0000
0000
0000
0100
0000
0020
0000
0000
0000
2000
0000
0000
0000
0000
0000
0001
0000
0000
0100
0001
0000
0000
0100
3031
0000
0000
0000
,
0020
0000
0230
0000
2300
0000
3002
0000
0023
0000
0130
0010
0100
1000
0010
0100
,
0020
0000
0032
0000
0013
1000
0000
0100
0020
0000
0032
0000
0023
0000
0030
0000
,
0200
0000
2300
0000
3200
0000
0310
0001
0010
0100
1000
0010
0100
0010
0002
0000
,
0023
2030
3200
0320
0230
0300
2002
3003
,
0200
0000
0320
0000
1030
0100
0000
0100
1000
0000
1000
0100
0000
0100
0020
0000
,
0032
0000
2003
0000
3010
0100
0000
0100
0010
0000
0010
0001
0000
0001
2000
0000
,
3020
0000
0230
0000
0310
0100
0000
0100
1000
0000
1000
0010
0000
0010
0002
0000
,
0203
0000
2300
0000
3010
0100
0000
0100
0001
0000
0001
1000
0000
1000
0200
0000
,
0320
0000
0032
0000
0013
0100
0000
0100
1000
0000
1000
0010
0000
0010
0200
0000
,
0302
0000
0023
0000
0130
1000
0000
1000
0010
0000
0010
0001
0000
0001
0200
0000
,
2300
3020
0230
0302
2003
3200
0320
0032
,
2003
0000
3200
0000
1300
0010
0000
0100
0000
0100
0002
0000
2003
0000
3100
0000
,
2200
0000
0000
3300
0000
0000
0000
0000
;

//---------------dance-single - E. Holniker----------------
#NOTES:
     dance-single:
     E. Holniker:
     Hard:
     9:
     0.827,0.815,0.056,1.000,0.385,337.000,5.000,177.000,0.000,1.000:





0000
0000
0000
0000
,
0000
0000
0000
0000
,
0000
0000
0000
0000
,
0000
0000
0000
0000
,
1000
0000
0010
0000
0010
0000
0100
0000
1000
0000
2000
0200
0000
0000
0000
3300
,
0010
0000
0001
0000
0010
0000
0100
0000
1000
0000
0020
0200
0000
0000
0000
0330
,
1000
0100
0010
0001
0010
0100
1000
1000
,
0010
0100
0001
0000
1000
0000
0100
0000
0010
0000
0100
1000
0000
1000
0010
0000
,
0100
0000
0001
0000
1000
0100
0010
0100
0010
0002
0200
0303
2000
0000
0020
3030
,
0001
0000
0100
0000
0010
0001
0010
0001
1000
0100
0020
0200
0000
0000
0330
0000
,
1000
0000
0010
0000
0100
0010
0001
0010
0001
2000
0200
3300
0020
0000
0002
0033
,
1000
0000
0100
0000
0010
0001
0010
0001
0010
0100
0020
0002
0000
0000
0033
0010
,
1000
0000
0100
0000
0010
0001
0010
0001
0010
0200
0020
0330
0002
0000
0020
0033
,
1000
0000
0010
0000
0100
1000
0100
1000
0100
1000
0200
2000
0000
3300
0002
0000
,
0023
0230
2300
3020
0230
0000
0002
0303
,
2000
0000
3200
0000
0320
0000
0032
0000
2003
0000
0000
0000
0020
0000
0000
3030
,
0100
1000
0100
1000
0100
0000
0100
0000
0010
0001
0010
0001
0010
0000
0010
0000
,
0010
0100
0010
0100
0010
0000
0100
0000
1000
0100
1000
0100
1000
0000
0100
0000
,
0020
0000
0230
0000
2300
0000
0000
0000
3002
0000
0203
0000
0320
0000
0000
0030
,
2000
3200
0302
0203
2300
0000
3020
0230
,
2300
0000
3200
0000
2300
0000
0000
0000
3002
0000
0023
0000
0032
0000
0000
0003
,
0010
0100
0010
0100
0020
0000
0000
0030
1000
0001
1000
0001
2000
0000
0000
0000
,
3200
0320
2030
3020
0032
0023
0032
0000
,
2003
3200
0320
0230
0302
0203
2300
0000
,
3020
0230
2300
3020
0032
0203
0320
2030
,
3200
0320
0230
0302
0200
0000
0000
0303
,
2000
3020
0230
0320
0032
0203
2300
3200
,
0320
0230
2300
3020
0200
0000
0000
0330
,
2000
3002
0203
0320
2030
3020
0230
0302
,
0203
0302
0023
2030
3200
2300
3002
2003
,
3020
0230
0320
2030
3200
0320
0230
0302
,
0203
2300
3200
0000
2000
0000
0010
3300
,
1000
0100
2000
0000
3002
0000
0023
0000
0230
0000
0320
0000
2030
0000
3000
0000
,
0100
0010
0100
0000
0020
0000
0230
0300
2002
0000
3003
0000
2020
0000
0000
3030
,
0100
0010
0100
0000
0002
0000
2003
0000
3200
0000
0320
0000
0032
0000
2003
0000
,
3100
1000
0100
0000
2000
0000
3020
0030
2020
0000
0000
3030
0202
0000
0000
0303
,
2000
0000
3200
0300
1000
0100
0000
0100
1000
0000
1000
0100
0000
0100
2000
0000
,
3002
0000
0203
0300
0010
0100
0000
0100
0010
0000
0010
0100
0000
0100
0020
0000
,
2030
0000
3200
0300
0010
0100
0000
0100
0001
0000
0001
0100
0000
0100
2000
0000
,
3020
0000
0230
0300
0001
0100
0000
0100
1000
0000
1000
0100
0000
0100
0020
0000
,
2030
0000
3200
0300
0010
0100
0000
0100
1000
0000
1000
0001
0000
0001
0200
0000
,
0320
0000
2030
3000
0100
0010
0000
0010
0100
0000
0100
1000
0000
1000
0002
0000
,
0203
0320
2030
0000
3200
0302
0203
0000
,
2300
0000
3020
0000
0032
0000
0003
0100
0000
0100
1000
0000
0010
0000
0100
0000
,
2002
3003
0000
0000
;

//---------------dance-single - E. Holniker----------------
#NOTES:
     dance-single:
     E. Holniker:
     Medium:
     6:
     0.371,0.393,0.335,0.000,0.000,203.000,30.000,0.000,9.000,0.000:

0000
0000
0000
0000
,
0000
0000
0000
0000
,
1000
0100
1000
0100
,
1000
0100
1000
0100
1000
0000
1100
0000
,
0010
0100
1000
0010
,
0100
0010
0100
0010
0100
0000
0011
0000
,
0010
0100
1000
0010
,
1000
0010
1000
0000
1010
0000
0101
0000
,
1000
0100
0010
0000
,
0001
0010
0100
0000
,
1000
0100
1000
0000
0001
0000
0010
0000
,
0100
0010
0100
0000
1000
0000
0000
0000
,
0010
0100
0001
1000
,
0100
1000
0100
0000
0110
0000
0000
0000
,
0001
1000
0010
0100
,
1000
0100
1000
0100
1100
0000
0000
0000
,
0010
0010
0100
0100
,
1000
1000
0001
0001
,
1000
0100
100M
0100
10M0
0000
1100
0000
,
0001
0010
M001
0010
0M01
0000
0011
0000
,
0010
0100
1000
0010
,
M001
0010
0001
1000
,
1000
0100
1000
0100
1000
0000
1100
0000
,
0010
0100
0010
0100
0010
0000
0110
0000
,
1000
0100
1000
0000
0001
0010
0001
0000
,
0010
0100
1000
0010
0100
0000
0110
0000
,
1000
0100
0010
0000
0100
0001
0100
0000
,
1000
0010
0100
0010
1000
0000
0110
0000
,
1000
0001
0010
0000
0100
0001
0100
0000
,
1000
0010
0100
0010
1000
0000
0110
0000
,
0001
0100
0010
0000
1000
0100
0010
0000
,
0100
0001
0100
0010
0100
0000
1010
0000
,
0110
0011
1100
0110
,
1010
0110
0011
MMMM
,
1100
0110
0101
1010
,
0110
0011
1100
0000
,
1000
0100
1000
0100
,
0010
0001
0010
0001
,
0010
0100
0010
0100
,
1000
0100
1000
0100
1000
0100
1000
0000
,
0001
0100
1000
0010
,
0100
1000
0100
0010
,
0001
0010
0001
0010
0001
0000
0001
0000
,
1000
0100
1000
0100
1000
0000
1001
0000
,
0110
0000
0000
0000
;

//---------------dance-single - E. Holniker----------------
#NOTES:
     dance-single:
     E. Holniker:
     Easy:
     3:
     0.266,0.319,0.056,0.156,0.000,148.000,5.000,14.000,0.000,0.000:

0000
0000
0000
0000
,
0000
0000
0000
0000
,
0000
0000
0000
0000
,
0000
0000
0000
0000
,
1000
0100
0010
0001
,
0010
0100
1000
0000
0010
0000
0001
0000
,
0001
0010
0100
1000
,
0100
0010
0001
0000
0001
0000
1000
0000
,
0100
1000
0010
0000
,
0001
0100
0010
0000
,
1000
0100
1000
0100
1000
0000
0000
0000
,
0001
0100
0010
0000
,
1000
0100
0010
0000
,
0100
0010
0100
0010
0100
0000
0000
0000
,
1000
0100
0010
0100
,
0010
0100
1000
0000
,
1000
1000
0001
0001
,
0100
0100
0010
0010
,
2000
0000
3200
0000
,
0320
0000
0032
0000
,
1003
1000
0100
0100
,
0010
0010
0001
0001
,
0200
0000
0320
0000
,
2030
0000
3002
0000
,
1003
0100
1000
0000
0001
0000
0001
0000
,
0010
0100
0010
0000
1000
0000
1000
0000
,
0010
1000
0010
0000
0100
0000
0100
0000
,
0001
0100
0001
0000
0010
0000
0010
0000
,
1000
0100
1000
0000
0010
0000
0010
0000
,
0100
0010
0100
0000
1000
0000
1000
0000
,
0001
0100
0001
0000
0010
0000
0010
0000
,
1000
0100
0010
0000
,
0010
0000
0110
0000
,
0100
0000
1100
0000
,
0001
0000
0110
0000
,
1000
0000
1010
0000
,
1000
0100
1000
0100
,
0010
0001
0010
0001
,
0010
0100
0010
0100
,
2000
3200
0320
0032
,
1003
0100
1000
0100
,
0001
0100
0001
0100
,
2000
0000
0000
3000
0020
0000
0000
0030
,
0100
1000
0010
0100
,
1001
0000
0000
0000
;

//---------------dance-single - E. Holniker----------------
#NOTES:
     dance-single:
     E. Holniker:
     Beginner:
     1:
     0.204,0.246,0.067,0.000,0.000,122.000,6.000,0.000,0.000,0.000:

0000
0000
0000
0000
,
0000
0000
0000
0000
,
0000
0000
0000
0000
,
0000
0000
0000
0000
,
1000
0000
1000
0000
,
0010
0000
0010
0000
,
0100
0000
1000
0000
,
0001
0000
0010
0000
,
1000
1000
1000
0000
,
0100
0100
0100
0000
,
1000
0010
1000
0010
,
0001
0001
0001
0000
,
0100
1000
0100
0000
,
0010
0100
0010
0000
,
1000
0100
0010
0001
,
0010
0010
0010
0000
,
1000
0000
0100
0000
,
0010
0000
0001
0000
,
1000
1000
0010
0000
,
0100
0100
1000
0000
,
1100
0000
1010
0000
,
0101
0000
0110
0000
,
1010
0000
0000
0000
,
1000
1000
0010
0010
,
1000
0100
1000
0000
,
0001
0010
0001
0000
,
0010
0100
0010
0000
,
1000
0100
0010
0000
,
0001
0100
0010
0000
,
1000
0100
1000
0000
,
0010
1000
0100
0000
,
0001
0010
0010
0000
,
1000
0100
1000
0000
,
0010
0100
0010
0000
,
0001
1000
0001
0000
,
0010
1000
0100
0000
,
0001
0100
0001
0100
,
1000
0100
1000
0100
,
1000
0010
1000
0010
,
0001
0100
0001
0100
,
1000
0010
1000
0100
,
0001
0010
0100
0010
,
1000
1000
0001
0001
,
0010
1000
0100
1000
,
1100
0000
0000
0000
;
