#TITLE:Solitude Sun;
#SUBTITLE:;
#ARTIST:DJ Sharpnel;
#TITLETRANSLIT:;
#SUBTITLETRANSLIT:;
#ARTISTTRANSLIT:;
#CREDIT:;
#BANNER:solitude bn.png;
#BACKGROUND:solitude bg.png;
#LYRICSPATH:;
#CDTITLE:;
#MUSIC:solitudesun.ogg;
#OFFSET:-0.480;
#SAMPLESTART:144.580;
#SAMPLELENGTH:16.466;
#SELECTABLE:YES;
#BPMS:0.000=174.890;
#STOPS:;
#BGCHANGES:;
// cache tags:
#FIRSTBEAT:4.000;
#LASTBEAT:738.000;
#SONGFILENAME:Songs/SHARPNELSTREAMZ v2/Solitude Sun/solitudesun.sm;
#HASMUSIC:1;
#HASBANNER:1;
#MUSICLENGTH:256.084;
// end cache tags

//---------------dance-single - 15+ (TYLR)----------------
#NOTES:
     dance-single:
     15+ (TYLR):
     Challenge:
     15:
     1.000,1.000,0.086,0.156,1.000,2604.000,22.000,40.000,0.000,0.000:
0000
0000
0000
0000
,
1000
0100
0010
0000
0011
0000
0001
0000
1000
0000
0001
0000
0101
0000
0100
0000
,
0010
1000
0001
0000
0011
0000
0010
0000
0100
0000
1000
0000
1001
0000
0001
0000
,
0100
0010
1000
0000
0101
0000
0001
0000
1000
0000
0010
0000
0101
0000
0100
0000
,
0010
1000
0001
0000
1100
0000
1000
0000
0001
0000
0010
0000
1100
0000
0100
0000
,
0010
0001
1000
0000
1010
0000
0010
0000
0100
0000
0001
0000
1010
0000
1000
0000
,
0001
0010
0100
0000
1001
0000
1000
0000
0010
0000
0100
0000
1001
0000
0001
0000
,
1000
0001
0100
0000
1010
0000
0010
0000
0100
0000
0001
0000
1010
0000
1000
0000
,
0001
1000
0100
0000
0020
0000
0000
0031
1000
0001
0000
1000
0010
0100
0010
1000
,
0100
0010
0011
0001
0100
0010
1010
1000
,
0001
0010
0100
0000
1001
0000
1000
0000
0010
0000
0100
0000
1001
0000
0001
0000
,
1000
0100
0010
0000
0011
0000
0001
0000
1000
0000
0100
0000
0011
0000
0010
0000
,
0100
1000
0001
0000
0101
0000
0100
0000
0010
0000
1000
0000
0101
0000
0001
0000
,
1000
0001
1000
0100
0010
0100
1000
0001
0010
0001
1000
0001
0100
0010
1000
0001
,
1000
0010
0100
0001
1000
0100
1000
0001
0010
0100
0010
0001
0100
0010
1000
0001
,
1000
0100
0010
0001
1000
0001
0010
0100
1000
0001
0100
0010
1000
0100
0010
0001
,
1000
0000
0000
0000
0002
0000
0000
0103
0001
1000
0000
0100
0010
0001
0010
0001
,
0200
0000
0000
0301
1000
0000
0001
0000
1000
0100
0010
0000
0001
1000
0001
0000
,
0200
0000
0000
0301
1000
0000
0001
0000
1000
0100
0010
0000
0001
1000
0001
0000
,
0200
0000
0000
0301
1000
0000
0001
0000
1000
0100
0010
0000
0001
1000
0001
0000
,
0200
0000
0000
0301
1000
0000
0001
0000
1000
0100
0010
0000
0001
1000
0001
0000
,
0020
0000
0000
0031
1000
0000
0001
0000
1000
0010
0100
0000
0001
1000
0001
0000
,
0020
0000
0000
0031
1000
0000
0001
0000
1000
0010
0100
0000
0001
1000
0001
0000
,
0020
0000
0000
0031
1000
0000
0001
0000
1000
0010
0100
0000
0001
1000
0001
0000
,
0020
0000
0000
0031
2000
0000
0000
3001
0100
0001
0000
0100
0010
1000
0010
1000
,
0200
0000
0000
1300
0001
0000
1000
0000
0001
0100
0010
0000
1000
0001
1000
0000
,
0200
0000
0000
1300
0001
0000
1000
0000
0001
0100
0010
0000
1000
0001
1000
0000
,
0200
0000
0000
1300
0001
0000
1000
0000
0001
0100
0010
0000
1000
0001
1000
0000
,
0200
0000
0000
1300
0001
0000
1000
0000
0001
0100
0010
0000
1000
0001
1000
0000
,
0020
0000
0000
1030
0001
0000
1000
0000
0001
0010
0100
0000
1000
0001
1000
0000
,
0020
0000
0000
1030
0001
0000
1000
0000
0001
0010
0100
0000
1000
0001
1000
0000
,
0020
0000
0000
1030
0001
0000
1000
0000
0001
0010
0100
0000
1000
0001
1000
0000
,
0020
0000
0000
1030
0002
0000
0000
1003
0100
1000
0000
0100
0010
0001
0010
0001
,
0100
0001
1000
0100
0010
0100
1000
0010
0100
0001
1000
0001
1000
0100
0010
0001
,
0100
0001
1000
0100
0010
0100
1000
0010
0100
0001
1000
0001
1000
0100
0010
0001
,
0100
0001
1000
0100
0010
0100
1000
0010
0100
0001
1000
0001
1000
0100
0010
0001
,
0100
0010
0100
0001
1000
0010
1000
0001
0100
0010
0100
0001
0010
0100
0010
0001
,
0100
0001
1000
0100
0010
0100
1000
0010
0100
0001
1000
0001
1000
0100
0010
0001
,
0100
0001
1000
0100
0010
0100
1000
0010
0100
0001
1000
0001
1000
0100
0010
0001
,
0100
0001
1000
0100
0010
0100
1000
0010
0100
0001
1000
0001
1000
0100
0010
0001
,
0100
0010
0100
0001
1000
0010
1000
0001
0010
0100
0010
0001
0100
0010
0100
0001
,
0010
0001
1000
0010
0100
0010
1000
0100
0010
0001
1000
0001
1000
0010
0100
0001
,
0010
0001
1000
0010
0100
0010
1000
0100
0010
0001
1000
0001
1000
0010
0100
0001
,
0010
0001
1000
0010
0100
0010
1000
0100
0010
0001
1000
0001
1000
0010
0100
0001
,
0010
0100
0010
0001
1000
0100
1000
0001
0010
0100
0010
0001
0100
0010
0100
0001
,
0010
0001
1000
0010
0100
0010
1000
0100
0010
0001
1000
0001
1000
0010
0100
0001
,
0010
0001
1000
0010
0100
0010
1000
0100
0010
0001
1000
0001
1000
0010
0100
0001
,
0010
0001
1000
0010
0100
0010
1000
0100
0010
0001
1000
0001
1000
0010
0100
0001
,
0010
0100
0010
0001
1000
0100
1000
0001
0100
0010
0100
0001
0010
0100
0010
0001
,
0100
0001
1000
0100
0010
0100
1000
0010
0100
0001
1000
0001
1000
0100
0010
0001
,
0100
0001
1000
0100
0010
0100
1000
0010
0100
0001
1000
0001
1000
0100
0010
0001
,
0100
0001
1000
0100
0010
0100
1000
0010
0100
0001
1000
0001
1000
0100
0010
0001
,
0100
0010
0100
0001
1000
0010
1000
0001
0100
0010
0100
0001
0010
0100
0010
0001
,
0100
0001
1000
0100
0010
0100
1000
0010
0100
0001
1000
0001
1000
0100
0010
0001
,
0100
0001
1000
0100
0010
0100
1000
0010
0100
0001
1000
0001
1000
0100
0010
0001
,
0100
0001
1000
0100
0010
0100
1000
0010
0100
0001
1000
0001
1000
0100
0010
0001
,
0100
0010
0100
0001
1000
0010
1000
0001
0010
0100
0010
0001
0100
0010
0100
0001
,
0010
0001
1000
0010
0100
0010
1000
0100
0010
0001
1000
0001
1000
0010
0100
0001
,
0010
0001
1000
0010
0100
0010
1000
0100
0010
0001
1000
0001
1000
0010
0100
0001
,
0010
0001
1000
0010
0100
0010
1000
0100
0010
0001
1000
0001
1000
0010
0100
0001
,
0010
0100
0010
0001
1000
0100
1000
0001
0010
0100
0010
0001
0100
0010
0100
0001
,
0010
0001
1000
0010
0100
0010
1000
0100
0010
0001
1000
0001
1000
0010
0100
0001
,
0010
0001
1000
0010
0100
0010
1000
0100
0010
0001
1000
0001
1000
0010
0100
0001
,
0010
0001
1000
0010
0100
0010
1000
0100
0010
0001
0010
0100
1000
0010
0100
0001
,
0010
0100
0010
0000
0001
0000
1000
0000
0100
0010
0100
0000
1000
0100
1000
0000
,
0001
1000
0001
0000
0100
0000
0001
0000
1000
0010
1000
0000
0010
0100
0010
0000
,
0100
0001
0100
0000
0001
0000
1000
0000
0001
0010
0001
0000
0010
0100
0010
0000
,
0100
1000
0100
0000
0010
0000
0001
0000
1000
0001
1000
0000
0001
0100
0001
0000
,
2000
0000
0000
0000
0020
0000
0000
3000
2000
0000
0000
0030
0200
0000
0000
3000
,
0020
0000
0000
0300
0002
0000
0000
0030
0200
0000
0000
0003
0002
0000
0000
0300
,
0020
0000
0000
0003
0200
0000
0000
0030
2000
0000
0000
0300
0020
0000
0000
3000
,
2000
0000
0000
0030
0200
0000
0000
3000
0020
0000
0000
0300
0002
0000
0000
0030
,
1003
0100
1000
0001
0100
0010
0100
0001
1000
0001
1000
0100
0010
0001
0010
0100
,
1000
0001
1000
0010
0100
0010
1000
0001
1000
0100
1000
0001
0010
0001
1000
0010
,
0100
0001
0100
0010
1000
0001
1000
0100
0010
0001
0010
0100
1000
0001
1000
0100
,
0010
0001
0010
0001
1000
0010
1000
0001
0010
0100
0010
0001
1000
0010
0100
0001
,
1000
0010
1000
0001
0010
0100
0010
0001
1000
0001
1000
0010
0100
0001
0100
0010
,
1000
0001
1000
0100
0010
0100
1000
0001
1000
0010
1000
0001
0100
0001
1000
0100
,
0010
0001
0010
0100
1000
0001
1000
0010
0100
0001
0100
0010
1000
0001
1000
0010
,
0100
0001
0100
0001
1000
0100
1000
0001
0100
0010
0100
0001
1000
0100
0010
0001
,
1000
0100
1000
0001
0100
0010
0100
0001
1000
0001
1000
0100
0010
0001
0010
0100
,
1000
0001
1000
0010
0100
0010
1000
0001
1000
0100
1000
0001
0010
0001
1000
0010
,
0100
0001
0100
0010
1000
0001
1000
0100
0010
0001
0010
0100
1000
0001
1000
0100
,
0010
0001
0010
0001
1000
0010
1000
0001
0010
0100
0010
0001
1000
0010
0100
0001
,
1000
0010
1000
0001
0010
0100
0010
0001
1000
0001
1000
0010
0100
0001
0100
0010
,
1000
0001
1000
0100
0010
0100
1000
0001
1000
0010
1000
0001
0100
0001
1000
0100
,
0010
0001
0010
0100
1000
0001
1000
0010
0100
0001
0100
0010
1000
0001
1000
0010
,
0100
0001
0100
0001
1000
0100
0010
0001
0200
0000
0000
0000
0000
0000
0000
0000
,
0301
1000
0001
0010
0100
0010
0001
1000
0001
0100
0010
1000
0100
0010
0100
1000
,
0001
0100
0001
1000
0010
0100
0001
1000
0001
0010
0001
1000
0100
1000
0001
0100
,
0010
1000
0010
0100
0001
1000
0001
0010
0100
1000
0100
0010
0001
1000
0001
0010
,
0100
1000
0100
1000
0001
0100
0001
1000
0100
0010
0100
1000
0001
0100
0010
1000
,
0001
0100
0001
1000
0100
0010
0100
1000
0001
1000
0001
0100
0010
1000
0010
0100
,
0001
1000
0001
0010
0100
0010
0001
1000
0001
0100
0001
1000
0010
1000
0001
0010
,
0100
1000
0100
0010
0001
1000
0001
0100
0010
1000
0010
0100
0001
1000
0001
0100
,
0010
1000
0010
1000
0001
0010
0001
1000
0010
0100
0010
1000
0001
0010
0100
1000
,
0001
0010
0001
1000
0010
0100
0010
1000
0001
1000
0001
0010
0100
1000
0100
0010
,
0001
1000
0001
0100
0010
0100
0001
1000
0001
0010
0001
1000
0100
1000
0001
0100
,
0010
1000
0010
0100
0001
1000
0001
0010
0100
1000
0100
0010
0001
1000
0001
0010
,
0100
1000
0100
1000
0001
0100
0001
1000
0100
0010
0100
1000
0001
0100
0010
1000
,
0001
0100
0001
1000
0100
0010
0100
1000
0001
1000
0001
0100
0010
1000
0010
0100
,
0001
1000
0001
0010
0100
0010
0001
1000
0001
0100
0001
1000
0100
0010
0001
1000
,
0010
0100
0010
1000
0001
0010
0100
1000
0010
0100
0001
0100
0010
1000
0001
0010
,
0100
1000
0010
0100
0001
0100
0010
1000
0100
0010
0001
0100
0010
1000
0001
0010
,
0100
0000
0000
0000
2000
0000
0000
3001
0100
0001
0000
1000
0010
0100
0010
1000
,
0100
0010
0001
1000
0001
0100
0010
1000
0001
0100
0010
1000
0001
0010
0100
1000
,
0001
0100
0010
1000
0001
1000
0010
0100
0001
1000
0010
1000
0100
0010
0001
1000
,
0001
0100
0001
1000
0010
0100
0010
1000
0001
0010
0001
1000
0001
0100
0010
1000
,
0100
0010
0100
1000
0001
1000
0100
0010
0001
1000
0001
0100
0001
1000
0010
1000
,
0001
0010
0100
1000
0100
0010
0001
1000
0001
0100
0010
1000
0010
0100
0001
1000
,
0100
0010
0001
1000
0001
0100
0010
1000
0001
0100
0010
1000
0001
0010
0100
1000
,
0001
0100
0010
1000
0001
1000
0010
0100
0001
1000
0010
1000
0001
0010
0100
0010
,
0001
1000
0001
0100
0010
1000
0001
1000
0010
0100
0001
1000
0100
1000
0001
0010
,
0100
0010
0001
1000
0010
0100
0001
1000
0001
0100
0010
1000
0010
0100
0001
1000
,
0001
0000
0001
0001
,
1000
0100
0000
1000
0001
0000
0100
0000
0000
0000
0001
0000
1000
0000
0100
0000
,
0000
0000
0010
0000
0100
0000
1000
0000
0100
0000
0000
0000
0010
0001
0010
0001
,
0100
0010
1000
0001
1000
0100
0010
0001
1000
0100
0010
0001
1000
0010
0100
0001
,
1000
0100
0010
0001
1000
0001
0010
0100
1000
0001
0010
0001
0100
0010
1000
0001
,
1000
0100
1000
0001
0010
0100
0010
0001
1000
0010
1000
0001
1000
0100
0010
0001
,
0100
0010
0100
0001
1000
0001
0100
0010
1000
0001
1000
0100
1000
0001
0010
0001
,
1000
0010
0100
0001
0100
0010
1000
0001
1000
0100
0010
0001
0010
0100
1000
0001
,
0100
0010
1000
0001
1000
0100
0010
0001
1000
0100
0010
0001
1000
0010
0100
0001
,
1000
0100
0010
0001
1000
0001
0010
0100
1000
0001
0010
0001
1000
0010
0100
0010
,
1000
0001
1000
0100
0010
0001
1000
0001
0010
0100
1000
0001
0100
0001
1000
0010
,
0100
0010
1000
0001
0010
0100
1000
0001
1000
0100
0010
0001
0010
0100
1000
0010
,
1000
0001
1000
0001
1000
0001
1000
0001
0010
0100
0010
0001
0010
0100
0010
0001
,
0100
0010
1000
0010
0100
0001
0010
0001
1000
0010
0100
0001
0100
0001
0010
0100
,
1000
0010
0100
0001
0010
0001
0100
0001
0010
0100
1000
0001
0100
0001
0100
0001
,
1000
0010
1000
0100
0010
0100
1000
0010
0100
0001
1000
0001
1000
0100
0010
0001
,
0100
0001
1000
0100
0010
0100
1000
0010
0100
0001
1000
0001
1000
0100
0010
0001
,
0100
0001
1000
0100
0010
0100
1000
0010
0100
0001
1000
0001
1000
0100
0010
0001
,
0100
0010
0100
0001
1000
0010
1000
0001
0100
0010
0100
0001
0010
0100
0010
0001
,
0100
0001
1000
0100
0010
0100
1000
0010
0100
0001
1000
0001
1000
0100
0010
0001
,
0100
0001
1000
0100
0010
0100
1000
0010
0100
0001
1000
0001
1000
0100
0010
0001
,
0100
0001
1000
0100
0010
0100
1000
0010
0100
0001
1000
0001
1000
0100
0010
0001
,
0100
0010
0100
0001
1000
0010
1000
0001
0010
0100
0010
0001
0100
0010
0100
0001
,
0010
0001
1000
0010
0100
0010
1000
0100
0010
0001
1000
0001
1000
0010
0100
0001
,
0010
0001
1000
0010
0100
0010
1000
0100
0010
0001
1000
0001
1000
0010
0100
0001
,
0010
0001
1000
0010
0100
0010
1000
0100
0010
0001
1000
0001
1000
0010
0100
0001
,
0010
0100
0010
0001
1000
0100
1000
0001
0010
0100
0010
0001
0100
0010
0100
0001
,
0010
0001
1000
0010
0100
0010
1000
0100
0010
0001
1000
0001
1000
0010
0100
0001
,
0010
0001
1000
0010
0100
0010
1000
0100
0010
0001
1000
0001
1000
0010
0100
0001
,
0010
0001
1000
0010
0100
0010
1000
0100
0010
0001
1000
0001
1000
0010
0100
0001
,
0010
0100
0010
0000
0002
0000
0000
1003
0100
1000
0000
0001
0100
0010
0100
0001
,
0010
0100
1000
0001
0100
0001
0010
0100
0010
0001
1000
0001
1000
0100
0010
0001
,
0100
0001
1000
0100
0010
0100
1000
0010
0100
0001
1000
0001
1000
0100
0010
0001
,
0100
0001
1000
0100
0010
0100
1000
0010
0100
0001
1000
0001
1000
0100
0010
0001
,
0100
0010
0100
0001
1000
0010
1000
0001
0100
0010
0100
0001
0010
0100
0010
0001
,
0100
0001
1000
0100
0010
0100
1000
0010
0100
0001
1000
0001
1000
0100
0010
0001
,
0100
0001
1000
0100
0010
0100
1000
0010
0100
0001
1000
0001
1000
0100
0010
0001
,
0100
0001
1000
0100
0010
0100
1000
0010
0100
0001
1000
0001
1000
0100
0010
0001
,
0100
0010
0100
0001
1000
0010
1000
0001
0010
0100
0010
0001
0100
0010
0100
0001
,
0010
0001
1000
0010
0100
0010
1000
0100
0010
0001
1000
0001
1000
0010
0100
0001
,
0010
0001
1000
0010
0100
0010
1000
0100
0010
0001
1000
0001
1000
0010
0100
0001
,
0010
0001
1000
0010
0100
0010
1000
0100
0010
0001
1000
0001
1000
0010
0100
0001
,
0010
0100
0010
0001
1000
0100
1000
0001
0010
0100
0010
0001
0100
0010
0100
0001
,
0010
0001
1000
0010
0100
0010
1000
0100
0010
0001
1000
0001
1000
0010
0100
0001
,
0010
0001
1000
0010
0100
0010
1000
0100
0010
0001
1000
0001
1000
0010
0100
0001
,
0010
0001
1000
0010
0100
0010
1000
0100
0010
0001
0010
0100
1000
0010
0100
0001
,
0010
0100
0010
0000
0002
0000
0000
1003
0010
1000
0000
0001
0010
0100
0010
0001
,
0100
0010
1000
0001
1000
0100
0010
0001
1000
0100
0010
0001
1000
0010
0100
0001
,
1000
0100
0010
0001
1000
0001
0010
0100
1000
0001
0010
0001
0100
0010
1000
0001
,
1000
0100
1000
0001
0010
0100
0010
0001
1000
0010
1000
0001
1000
0100
0010
0001
,
0100
0010
0100
0001
1000
0001
0100
0010
1000
0001
1000
0100
1000
0001
0010
0001
,
1000
0010
0100
0001
0100
0010
1000
0001
1000
0100
0010
0001
0010
0100
1000
0001
,
0100
0010
1000
0001
1000
0100
0010
0001
1000
0100
0010
0001
1000
0010
0100
0001
,
1000
0100
0010
0001
1000
0001
0010
0100
1000
0001
0010
0001
1000
0010
0100
0010
,
1000
0001
1000
0100
0010
0001
1000
0001
0010
0100
1000
0001
0100
0001
1000
0010
,
0100
0010
1000
0001
0010
0100
1000
0001
1000
0100
0010
0001
0010
0100
1000
0001
,
1000
0000
1000
1000
,
0001
0010
0000
0001
1000
0000
0010
0000
0000
0000
1000
0000
0001
0000
0010
0000
,
0000
0000
0100
0000
0010
0000
0001
0000
0010
0000
0000
0000
0100
1000
0100
1000
,
0010
0100
0001
1000
0001
0010
0100
1000
0001
0010
0100
1000
0001
0100
0010
1000
,
0001
0010
0100
1000
0001
1000
0100
0010
0001
1000
0100
1000
0010
0100
0001
1000
,
0001
0010
0001
1000
0100
0010
0100
1000
0001
0100
0001
1000
0001
0010
0100
1000
,
0010
0100
0010
1000
0001
1000
0010
0100
0001
1000
0001
0010
0001
1000
0100
1000
,
0001
0100
0010
1000
0010
0100
0001
1000
0001
0010
0100
1000
0100
0010
0001
1000
,
0010
0100
0001
1000
0001
0010
0100
1000
0001
0010
0100
1000
0001
0100
0010
1000
,
0001
0010
0100
1000
0001
1000
0100
0010
0001
1000
0100
1000
0001
0100
0010
0100
,
0001
1000
0001
0010
0100
1000
0001
1000
0100
0010
0001
1000
0010
1000
0001
0100
,
0010
0100
0001
1000
0100
0010
0001
1000
0001
0010
0100
1000
0100
0010
0001
0100
,
0001
1000
0001
1000
0001
1000
0001
1000
0100
0010
0100
1000
0100
0010
0100
1000
,
0010
0100
0001
0100
0010
1000
0100
1000
0001
0100
0010
1000
0010
1000
0100
0010
,
0001
0100
0010
0100
0010
0000
0000
0000
;
