#TITLE:no is the new yes;
#SUBTITLE:;
#ARTIST:jim ether;
#TITLETRANSLIT:;
#SUBTITLETRANSLIT:;
#ARTISTTRANSLIT:;
#CREDIT:;
#BANNER:noisthenewyes banner.png;
#BACKGROUND:noisthenewyes.png;
#LYRICSPATH:;
#CDTITLE:;
#MUSIC:jim ether - no is the new yes edited.mp3;
#OFFSET:-4.940;
#SAMPLESTART:41.457;
#SAMPLELENGTH:12.000;
#SELECTABLE:YES;
#BPMS:0.000=196.720,362.000=57.500;
#STOPS:;
#BGCHANGES:;
// cache tags:
#FIRSTBEAT:0.000;
#LASTBEAT:374.000;
#SONGFILENAME:Songs/stepmix .10/no is the new yes/noisthenewyes.sm;
#HASMUSIC:1;
#HASBANNER:1;
#MUSICLENGTH:129.627;
// end cache tags

//---------------dance-single - ----------------
#NOTES:
     dance-single:
     :
     Easy:
     4:
     0.499,0.649,0.864,0.177,0.015,318.000,112.000,23.000,0.000,0.000:
1000
0000
0000
0000
,
0100
0000
0000
0000
,
0010
0000
0000
0000
,
0001
0000
0000
0010
,
1001
0000
0010
0000
,
0001
0000
0010
0000
,
1100
0000
0000
0000
,
1010
0000
0000
0000
,
0011
0000
0010
0000
,
0110
0000
0100
0000
,
1100
0000
0001
0000
,
0110
0000
0001
0000
,
1100
1100
0001
0010
,
0001
0100
1000
0010
,
0110
0110
0001
0010
,
1000
0001
0010
0001
,
0001
0011
0011
0010
,
1000
0100
0010
0001
,
0110
0011
1000
0100
,
0010
0001
0010
0100
,
1100
1100
0011
0011
,
0110
1001
0110
1001
,
0010
1000
0001
0100
,
0010
0001
1000
2001
,
3010
0001
0100
0010
,
0001
1000
0002
0103
,
0010
0110
0110
0110
,
0001
1000
0010
0110
,
0011
0100
0001
0010
,
1000
0100
1100
1100
,
0101
0100
0110
0001
,
0110
0010
1010
0010
,
1100
1000
1000
1000
,
0011
0001
0001
0001
,
0110
0001
0100
1000
,
1001
0100
0010
0001
,
1001
0100
0100
0100
,
0110
0000
0001
0000
0010
0000
0020
0030
,
1100
0001
0110
0001
,
0011
1000
0110
0010
,
0000
0001
0010
0000
0100
0000
0010
0000
,
0011
1000
0100
1000
,
1100
1100
0001
0010
,
0011
0100
0010
1000
,
0011
0100
0010
1000
,
0011
0011
0010
0001
,
1100
1100
0100
1000
,
0001
0001
1000
1000
,
0010
0010
0100
0100
,
1100
1100
1001
1001
,
0101
0101
0011
0011
,
0110
1100
0011
0110
,
1001
0110
1001
0110
,
0010
0010
0001
0001
,
2000
3001
0002
1003
,
1000
0000
0001
0000
,
0010
0000
0100
0010
,
0010
0000
0011
0000
,
1100
0000
0001
1000
,
0101
0100
0010
1000
,
0110
1000
1000
0001
,
0110
0010
0100
0001
,
0100
0020
0100
0130
,
1100
0100
0100
0100
,
0011
0010
0010
0010
,
1000
0001
0100
0010
,
0001
0001
1000
0100
,
1001
0100
1001
0010
,
1100
0001
0110
1000
,
0001
0001
1000
1000
,
1001
1100
0200
0310
,
2000
3000
0200
0300
,
0020
0030
0002
0003
,
2000
0000
0000
3000
,
0200
0000
0000
0300
,
0002
0000
0000
0003
,
0220
0330
0022
0033
,
2000
3100
0002
0013
,
0200
0310
0020
0130
,
0001
0100
0110
1100
,
1000
0100
0110
0011
,
0001
0010
1001
0110
,
1100
1100
0011
0010
,
0101
0110
1100
0000
,
1100
0110
0011
0000
,
1001
1001
1100
1100
,
0101
0011
0110
0000
,
0011
1000
1000
1000
,
0110
0010
0010
0010
,
1001
0010
0110
1000
,
0011
0100
0100
0001
,
1000
0000
0000
0000
0000
0000
0000
0000
0000
0000
0000
0000
0000
0000
0000
0000
0000
0000
0000
0000
0000
0000
0000
0000
0000
0000
0000
0000
0000
0000
0000
0000
0010
0000
0000
0000
0000
0000
0000
0000
0000
0000
0000
0000
0000
0000
0000
0000
0100
0000
0000
0000
0000
0000
0000
0000
0000
0000
0000
0000
0000
0000
0000
0000
0000
0000
0000
0000
0000
0000
0000
0000
0000
0000
0000
0000
0000
0000
0000
0000
0000
0000
0000
0000
0000
0000
0000
0000
0000
0000
0000
0000
0000
0000
0000
0000
0000
0000
0000
0000
0000
0000
0000
0000
0000
0000
0000
0000
1000
0000
0000
0000
0000
0000
0000
0000
0000
0000
0000
0000
0000
0000
0000
0000
0000
0000
0000
0000
0000
0000
0000
0000
0000
0000
0000
0000
0000
0000
0000
0000
0000
0000
0000
0000
0000
0000
0000
0000
0000
0000
0000
0000
0000
0000
0000
0000
0000
0000
0000
0000
0000
0000
0000
0000
0000
0000
0000
0000
0000
0000
0000
0000
0000
0000
0001
0000
0000
0000
0000
0000
0000
0000
0000
0000
0000
0000
0000
0000
0000
0000
0000
0000
,
0000
0000
0000
0000
0000
0000
0000
0000
0000
1000
0000
0000
0000
0000
0000
0000
0020
0000
0000
0000
0000
0000
0000
0000
0000
0000
0000
0000
0000
0000
0000
0000
,
0000
0000
0030
0000
;

//---------------dance-single - ----------------
#NOTES:
     dance-single:
     :
     Medium:
     7:
     0.608,0.647,0.864,0.031,0.019,436.000,112.000,4.000,0.000,0.000:
1000
0000
0000
0000
,
0100
0000
0000
0000
,
0010
0000
0000
0000
,
0001
0000
0000
0000
,
1001
0100
0110
0001
,
0101
0010
0110
0001
,
1100
0001
0010
0100
,
0011
0100
0010
1000
,
0101
0010
0100
1000
,
1001
0100
0110
0001
,
0011
0100
1010
0001
,
0110
1000
0202
0303
,
1100
1100
1100
0001
,
0010
0000
0001
0000
0100
0010
1000
0000
,
0011
1100
0010
0100
,
0110
0000
0001
0000
1000
0100
0010
0000
,
0001
1001
0110
1000
,
0110
0000
0011
0000
0100
0010
1000
0000
,
0011
0000
0100
0010
1000
0000
1100
0000
,
0001
0100
1010
1010
,
1000
0001
1000
0001
0010
0100
0010
0100
,
1000
0100
0010
0001
1000
0100
0010
0000
,
0011
0110
1100
0001
,
0110
0000
0001
0000
1000
0100
0010
0000
,
1100
0011
0100
0100
,
0011
0000
1000
0000
0100
0010
1000
0000
,
0001
1001
1001
0100
,
1000
0100
0010
0000
1100
0000
1100
0000
,
0011
0110
0001
0100
,
1000
0000
0100
0010
0001
1000
0100
0000
,
0001
0000
0100
0010
1000
0000
0100
0010
,
0001
0000
0100
0010
1000
0000
0001
0010
,
0100
1000
1000
1000
,
0011
0001
0001
0001
,
0110
0001
0100
0010
,
1100
0100
0011
0100
,
1100
0010
0011
0100
,
1100
0000
0010
0000
0001
0100
0010
0000
,
1001
0000
0100
0010
1000
0000
0001
0010
,
0100
0100
0100
0000
0100
0010
1000
0000
,
0000
0001
1000
0000
0001
0000
0100
0000
,
1100
0001
0010
0010
,
0101
0101
0010
1000
,
0101
0010
1100
0010
,
1001
0100
0101
0010
,
1100
0001
0101
0001
,
1010
0010
0100
0100
,
1001
1100
1001
0101
,
0011
0110
1100
0110
,
0011
1100
1010
0110
,
0011
0101
1100
1010
,
1001
0011
0110
0011
,
1100
0011
0110
0101
,
1000
0100
0001
0010
,
0011
0000
0100
0000
0010
0000
2000
3000
,
1000
0100
0000
0010
0000
0001
0000
0100
,
0000
1000
0000
0001
0000
0010
0110
0000
,
0110
0010
0000
0001
0000
0010
0000
0100
,
0000
1000
0000
0001
0000
0010
0101
0000
,
0101
1000
0000
0100
0000
0010
1001
0000
,
1001
0000
1001
0010
0000
1000
0000
0001
,
1000
0000
1000
0010
0000
0001
0000
0100
,
0000
0001
0000
0100
0010
0001
0100
0000
,
1000
0100
1000
0100
0010
0001
0010
0000
,
0001
0100
0010
0100
0001
0100
0010
0000
,
1000
0100
0010
0001
0010
0010
0001
0000
,
0001
0100
0010
0100
1000
0100
0010
0000
,
0010
1000
0100
0010
0001
0010
0100
0000
,
1000
0100
0010
0100
1000
0100
0010
0000
,
0100
0010
0001
0100
0010
0100
0010
0000
,
0001
1000
0001
1000
0010
0100
0010
0000
,
1001
0100
0110
0001
,
0101
0010
0110
1000
,
1100
0000
0100
0000
0010
0001
0100
0000
,
0101
0000
0010
0000
0100
0010
0100
0000
,
1100
0000
0001
0000
0010
0100
0001
0000
,
0101
1000
0110
1000
,
1100
0001
1001
0010
,
1100
0010
0101
0010
,
1000
0100
0010
0100
1000
0100
0010
0000
,
1000
0001
1000
0001
1000
0010
1000
0000
,
0001
0010
0001
0100
0001
1000
0001
0000
,
0100
0010
0100
1000
0100
0010
0100
0000
,
1000
0000
0100
0000
0010
0000
0001
0000
0010
0000
0000
0001
0000
0000
0000
0000
,
0010
0000
0100
0000
0001
0000
0010
0000
0100
0000
0000
1000
0000
0000
0000
0000
,
1000
0100
1000
0100
0010
0001
0010
0001
,
0100
0000
0010
0000
0100
0000
0000
0000
0001
0000
0000
0100
0000
0000
0000
0000
,
1000
1100
1100
1100
,
0010
0101
0101
0101
,
0010
0110
0001
0110
,
1000
0110
0001
1000
,
1000
0000
0000
0000
0000
0000
0000
0000
0000
0000
0000
0000
0001
0000
0000
0000
0000
0000
0000
0000
0000
0000
0000
0000
0000
0000
0000
0100
0000
0000
0000
0000
0000
0000
0000
0000
0000
0000
0000
0000
0000
0000
0000
0000
0001
0000
0000
0000
,
0000
0010
0200
0000
,
0000
0300
0000
0000
;

//---------------dance-single - ----------------
#NOTES:
     dance-single:
     :
     Hard:
     9:
     0.709,0.682,0.941,0.077,0.050,511.000,122.000,10.000,0.000,0.000:
1000
0000
0000
0000
,
0100
0000
0000
0000
,
0010
0000
0000
0000
,
0001
0000
0000
0000
,
1100
0010
0011
0100
,
0110
0001
0110
1000
,
1100
0010
0010
0010
,
0011
0100
0010
0100
,
0101
0010
0100
1000
,
1010
0100
0011
0100
,
0011
0100
1100
0010
,
0011
0100
1200
0300
,
0011
0000
0011
0000
0100
0010
1000
0000
,
0001
0010
0001
0100
0010
0001
0010
0000
,
0110
0000
1100
0000
0001
0100
0010
0000
,
1000
0100
0010
0100
1000
0010
0100
0000
,
0010
1001
1001
0001
,
0010
0000
0001
0100
0010
1000
0100
0000
,
0001
0010
0001
0010
0100
0000
0100
0000
,
0001
0000
0011
0000
1000
0100
1000
0000
,
0010
0010
0010
0010
0100
0100
0100
0100
,
1000
0100
1000
0100
0010
0001
0010
0000
,
0110
0000
0001
0010
0100
1000
0100
0000
,
0110
0000
1000
0100
0010
0001
0010
0000
,
0010
0100
0001
0000
0001
0000
0110
0000
,
1000
0100
1000
0000
0011
0000
0100
0000
,
0001
0010
0011
0000
0011
0000
1000
0000
,
1000
0000
0100
0010
1000
0001
0010
0000
,
0001
0000
0010
0100
0001
1000
0100
0000
,
1000
0100
1000
0000
0101
0000
0101
0000
,
1100
0000
0100
0010
0011
0000
0001
0100
,
1010
0000
0100
0010
1001
0000
0010
0100
,
0110
0000
0001
0000
1000
0001
0100
0000
,
0011
0000
0100
0000
0010
0001
0100
0000
,
0011
0000
1000
0100
0010
0100
0010
0000
,
0011
0000
0001
0100
1100
0000
0100
0010
,
1010
0000
0001
0010
0101
0000
0010
0100
,
1010
0000
0100
0010
1001
0000
0010
0000
,
1100
0000
0100
0010
0001
0000
0001
0100
,
0010
0010
0010
0000
1000
0100
0010
0000
,
0000
0011
0011
0000
0010
0100
0001
0000
,
1100
0100
0100
0000
0100
0010
0100
0000
,
1001
0000
1001
0000
0001
0010
0100
0010
,
0001
1000
0100
0000
0100
0010
0100
0000
,
1000
0001
0010
0001
0100
0010
1000
0000
,
0001
0010
0001
0000
0100
0010
1000
0000
,
1000
0100
0001
0000
0100
0010
0001
0000
,
1001
1100
1001
0101
,
0011
0000
0000
1100
0000
0000
0011
0000
0000
0001
0010
0100
,
1100
0110
0011
1100
,
0011
0110
1100
1001
,
0011
1100
1010
0101
,
0101
0000
1010
0000
1010
0000
1001
0100
,
1100
0011
0110
0011
,
0011
0000
1100
0000
0110
0000
0002
0003
,
1000
0100
0010
0001
0010
0001
0100
1000
,
0100
0010
0100
0010
1000
0010
1010
0000
,
1010
0000
0010
0001
0100
0010
0001
0010
,
1000
0010
1000
0001
0100
0001
1010
0000
,
1001
0000
0100
0010
0001
0100
1010
0000
,
1100
0000
0101
0000
0001
0010
0100
0010
,
0011
0000
0011
0000
1000
0100
0010
0000
,
0001
0010
0001
0000
0010
1000
0010
0000
,
0100
0010
1000
0001
0100
0010
1000
0010
,
0001
0010
1000
0100
0010
0001
1000
0100
,
0010
0100
0010
0100
1000
0001
1000
0001
,
1000
0100
0010
0100
1000
0001
0100
0010
,
0001
0010
0100
0000
1000
0100
0010
0000
,
0001
0100
0010
0000
1000
0100
0010
0000
,
0100
0010
1000
0000
0010
0100
0001
0000
,
1000
0100
1000
0000
0001
0010
0001
0000
,
0101
0000
0100
0010
1010
0000
1000
0100
,
0110
0000
0001
0010
0101
0000
0100
0010
,
1010
0001
0001
0001
,
1100
0100
0100
0100
,
0101
0000
0010
0000
1000
0001
0100
0000
,
0101
0000
0100
0010
1100
0000
0100
0010
,
0011
0000
0001
0100
1010
0000
0001
0010
,
0101
0000
0010
0100
1001
0000
0100
0000
,
1000
0000
0100
0000
0010
0000
0001
0000
0100
1000
0100
0000
0001
0000
0010
0000
,
0001
0000
0010
0000
0001
0000
1000
0000
0001
1000
0001
0000
0100
0000
0010
0000
,
0010
0000
0100
0000
1000
0000
0010
0000
0100
0010
0100
0000
0010
0000
0100
0000
,
0001
0000
0100
0000
0001
0000
0100
0000
0001
0100
0001
0000
0100
0000
0001
0000
,
0100
0000
0010
0000
1000
0000
0001
0000
0100
0000
0010
0100
0000
0000
0000
0000
,
0011
0000
0100
0000
1000
0000
0010
0000
0100
0000
0001
0010
0000
0000
0000
0000
,
1100
0100
0010
0001
0100
0010
1000
0001
,
0100
0000
0010
0000
0100
0000
0000
0000
0001
0000
0100
0010
0000
0000
0000
0000
,
1100
0011
0011
0011
,
0110
0011
0011
0011
,
0110
0011
0011
0011
,
0110
0011
0110
1100
,
0011
0000
0000
0000
0010
0000
0000
0000
0100
0000
0000
0000
1000
0000
0000
0000
0000
0000
0000
0000
0000
0000
0000
0000
0000
0000
0000
0022
0000
0000
0000
0000
0000
0000
0000
0000
0000
0000
0000
0033
0000
0000
0000
0000
2002
0000
0000
0000
,
0000
3003
0000
0000
0000
0000
0022
0000
0000
0033
0000
0000
2002
0000
0000
0000
0000
0000
0000
0000
0000
0000
0000
0000
,
3003
0000
0000
0000
;

//---------------dance-single - ----------------
#NOTES:
     dance-single:
     :
     Beginner:
     1:
     0.239,0.357,0.177,0.015,0.000,192.000,23.000,2.000,0.000,0.000:
0010
0000
0000
0000
,
0010
0000
0000
0000
,
0100
0000
0000
0000
,
1000
0000
0000
0000
,
0001
0000
0100
0000
,
0010
0000
1000
0000
,
0001
0000
0000
0000
,
0100
0000
0000
0000
,
0010
0000
0000
0000
,
1000
0000
0001
0000
,
0100
0000
0010
0000
,
1000
0000
0001
0000
,
1000
0000
1000
0000
,
0001
0000
0100
0100
,
0010
0000
0001
0000
,
1000
0000
0001
0001
,
1000
0000
0100
0000
,
0010
0000
0100
0100
,
1000
0000
0010
0000
,
0001
0000
0100
0100
,
0100
0000
0100
0000
,
0100
0000
0100
0000
,
0001
0000
0010
0000
,
1000
0000
0010
0000
,
0001
0000
0100
0000
,
0010
0000
1000
0000
,
0001
0000
0100
0000
,
0010
0000
1000
0000
,
0001
0000
0010
0000
,
0100
0000
0010
1001
,
0001
0000
1000
0000
,
0010
0000
0100
0000
,
0110
0000
0000
0000
,
1001
0000
0000
0000
,
1001
0000
0000
0000
,
0100
0000
0010
0000
,
1000
0000
0001
0000
,
0010
0000
0100
0000
,
0001
0000
0100
0000
,
0010
0000
1000
0000
,
0000
0000
0001
0000
,
0001
0000
0100
0000
,
0001
0000
0000
0000
,
1000
0000
0100
0000
,
0010
0000
0001
0000
,
0100
0000
0010
0000
,
1000
1000
0000
0000
,
0001
0001
0000
0000
,
0010
0010
0000
0000
,
0100
0100
0000
0000
,
1000
0100
0000
0000
,
0001
0010
0000
0000
,
0001
0100
0000
0000
,
1000
0100
0000
0000
,
0010
0000
0010
0000
,
1000
0000
0001
0000
,
0010
0000
0100
0000
,
1001
0000
0001
0000
,
0100
0000
0010
0000
,
0110
0000
1000
0000
,
0001
0000
0010
0000
,
1010
0000
0010
0000
,
0001
0000
0100
0000
,
0001
0001
0001
0000
,
0010
0010
0010
0000
,
1000
1000
1000
0000
,
0100
0100
0100
0000
,
0001
1000
0001
0000
,
0010
0100
0010
0000
,
1000
0001
1000
0000
,
0001
0100
0001
0000
,
1001
0000
0110
0000
,
1001
0000
1001
0000
,
0011
0000
0000
0000
,
1010
0000
0000
0000
,
1010
0000
0000
0000
,
1100
0000
0001
0000
,
0100
0000
0010
0000
,
1000
0000
0001
0000
,
1000
0001
1000
0001
,
0010
0100
0010
0100
,
1000
0001
1000
0001
,
0010
0001
0010
0001
,
1000
0100
0010
0000
,
0001
0010
0100
0000
,
0001
0001
1000
1000
,
0100
0000
0010
0000
,
1100
0000
0011
0000
,
0110
0000
0011
0000
,
1100
0000
0110
0000
,
0011
0000
2200
0000
,
0000
0000
0000
0000
,
0000
0000
3300
0000
;
