#TITLE:Lawn Wake IV (Black);
#SUBTITLE:;
#ARTIST:The Flashbulb;
#TITLETRANSLIT:;
#SUBTITLETRANSLIT:;
#ARTISTTRANSLIT:;
#CREDIT:Dark Bahamut;
#BANNER:Lawn Wake IV (Black)-bn.png;
#BACKGROUND:Lawn Wake IV (Black)-bg.png;
#LYRICSPATH:;
#CDTITLE:dark.gif;
#MUSIC:Lawn Wake IV (Black).mp3;
#OFFSET:-0.008;
#SAMPLESTART:66.310;
#SAMPLELENGTH:17.700;
#SELECTABLE:YES;
#BPMS:0.000=217.150;
#STOPS:;
#BGCHANGES:;
// cache tags:
#FIRSTBEAT:0.000;
#LASTBEAT:526.000;
#SONGFILENAME:Songs/toune 4/Lawn Wake IV (Black)/Lawn Wake IV (Black).sm;
#HASMUSIC:1;
#HASBANNER:1;
#MUSICLENGTH:148.971;
// end cache tags

//---------------dance-single - Schwer----------------
#NOTES:
     dance-single:
     Schwer:
     Hard:
     10:
     0.778,1.000,0.188,0.745,0.027,672.000,28.000,111.000,0.000,0.000:

1001
0000
0000
0000
,
0100
0000
0010
0000
0100
0000
0001
0010
,
0100
0000
1000
0000
0100
0010
0100
0000
,
0001
0010
0100
1000
,
0110
0000
0000
0000
,
0001
0000
1000
0000
0001
0000
0010
1000
,
0001
0000
0100
0000
0001
1000
0001
0000
,
0010
1000
0001
0100
,
1001
0000
0000
0000
,
0010
0000
0100
0000
0010
0000
1000
0100
,
0010
0000
0001
0000
0010
0100
0010
0000
,
1000
0100
0010
0001
,
0110
0000
0000
0000
,
1000
0000
0001
0000
1000
0000
0100
0001
,
1000
0000
0010
0000
1000
0001
1000
0000
,
0100
0001
1000
0010
,
1001
0000
0000
0000
0000
0001
0110
0000
,
1000
0100
0010
0100
0001
0010
0100
0010
,
2000
0000
3100
0010
0001
0001
0010
0100
,
1010
0000
0000
0101
0000
0000
1001
0000
0200
0000
0000
0000
0010
0000
0310
0000
,
1000
1000
0100
0100
0010
0010
0002
0000
,
1003
0000
0100
0000
0100
0000
0010
0000
0000
0001
0000
0000
0010
0000
1000
0000
,
0100
0100
0001
0010
0010
0200
0000
0000
,
1300
0100
0010
0001
0010
0100
0100
0010
,
1001
0000
0100
1000
0010
0001
0100
0010
,
0001
0001
1000
0001
0100
0020
0030
0200
,
0310
0010
1000
0200
0301
0001
0100
0010
,
1000
1000
2000
3001
0001
0001
0002
1003
,
0110
0100
0010
1000
0010
0010
0100
0000
,
1000
0000
0000
0000
0001
0000
0000
0000
1000
0000
0000
0000
0001
0000
0000
0010
0000
0000
0100
0000
0000
0010
0000
0000
,
0001
0001
1000
1000
0100
0100
0020
0000
,
0130
0000
0011
0000
1100
0000
0110
0000
0000
0000
0000
0000
,
1000
1000
0100
0010
0001
0001
0010
0100
,
1000
1000
0100
0100
0010
0010
0002
0000
,
0023
0000
0000
0000
0000
0130
1000
0100
,
2000
0000
3200
0000
,
0320
0000
0000
0000
0000
0000
0000
0000
0032
0000
0000
0000
0000
0000
0000
0003
,
0011
0000
0000
0110
0000
0000
1100
0000
0000
0110
0000
0000
2001
0000
0000
0000
,
0000
0000
0000
0000
,
0000
3001
0000
0000
0000
0000
0000
0000
,
1010
0100
0010
0001
0000
0010
0010
0000
,
1100
0010
0100
0001
0010
0100
0001
0000
,
0101
0010
0100
1000
0000
0100
0100
0000
,
0011
0100
0010
1000
0100
0010
1000
0010
,
1001
0100
0010
0001
0110
0000
1000
0000
,
0001
0000
0100
0010
0100
0000
0020
0000
,
1030
0001
0100
0010
0000
0000
0110
0000
,
1000
1000
0100
0100
0010
0010
0001
0001
,
0020
0000
0000
0000
,
0130
1000
0100
0010
0001
0010
0100
1000
,
0200
0000
0000
0000
0310
0010
0001
0001
,
0100
0100
1000
1000
0010
0010
0100
0100
,
2000
0000
3020
0000
,
0230
0000
0302
0000
,
2003
0000
3100
0010
0001
0001
1000
1000
,
0100
0010
0001
0010
0100
1000
0100
0010
,
0002
0000
0000
0000
,
0000
0000
0000
0000
0000
1003
0000
0000
,
0200
0000
0000
0000
,
0000
0000
0000
0310
,
1000
0100
1000
0010
1000
0100
1000
0010
,
1000
0100
1000
0010
1000
0100
1000
0010
,
0001
0100
0001
0010
0001
0100
0001
0010
,
0100
1000
0100
0010
0100
1000
0010
0100
,
0000
0100
0001
1000
0001
0100
0001
1000
,
0001
0100
0001
1000
0001
0100
0010
0100
,
1000
0010
1000
0001
1000
0010
1000
0100
,
0010
1000
0010
0100
0010
1000
0100
0010
,
0000
0010
0100
1000
1000
0100
0010
0001
,
0001
0100
0010
1000
1000
0010
0100
0001
,
0001
0100
1000
0010
0010
0001
0010
1000
,
1000
0010
0001
0100
0100
1000
0100
0010
,
0001
0010
0001
0100
1000
0100
1000
0010
,
0100
0010
0100
0001
0010
0100
0010
1000
,
0100
0010
0100
0001
0010
0100
0010
1000
,
0001
0100
0010
1000
0100
0001
1000
0010
,
2000
0000
0100
0000
0010
0000
0000
0010
,
3002
0000
0010
0000
0100
0000
0000
0100
,
1003
0000
1000
0100
0010
0001
0010
0001
,
0100
0010
1000
0100
0020
0000
0230
0000
,
0302
0000
2003
0000
3100
0010
0001
0010
,
0200
0000
0302
0000
0013
1000
0100
0001
,
2000
3200
0320
0032
1003
0100
0010
0001
,
0010
0100
1000
0100
0010
0001
0010
0100
,
2000
0000
3100
0010
0001
0010
0100
0010
,
0002
0000
0013
0100
1000
0100
0010
0100
,
1000
0100
0010
0100
0001
0100
1000
0100
,
0001
0010
0100
0010
1000
0010
0001
0010
,
2000
0000
3200
0000
0320
0032
0023
0000
,
1030
0100
0010
1000
0001
0010
0100
0001
,
2000
0000
3020
0000
0130
0001
1000
0010
,
0002
0000
0203
0000
0310
1000
0001
0100
,
2000
3200
0320
0032
,
2003
0000
0000
0000
3200
0302
2003
3020
,
1030
0100
0010
0100
1000
0100
0010
0001
,
0010
0100
1000
0100
0010
0100
0010
0100
,
2000
3200
0320
0032
2003
3002
0203
0320
,
0032
0023
0230
2300
3001
1000
0010
0100
,
1000
0001
0100
0010
0001
0010
0100
0001
,
1000
0100
0010
1000
0100
0010
0100
0010
,
0002
0000
0013
0100
1000
0100
0010
0100
,
2000
0000
3100
0010
0001
0010
0100
0010
,
0001
0001
0010
0010
0100
0100
1000
1000
,
0002
2003
3020
0230
,
0302
0000
2003
0000
3200
0320
0230
0320
,
0032
0000
0000
0023
0230
2300
3200
0320
,
0032
0203
0320
2030
3020
0230
0302
2003
,
0000
3100
0010
0100
0001
0010
0100
0010
,
0100
1000
1000
1000
1000
0100
0100
0100
,
0100
0010
0010
0010
0010
0010
0010
0010
,
0002
0000
0000
0000
0103
1000
0100
0010
,
0001
0010
0001
0010
0100
1000
0100
0010
,
0002
2003
3020
0230
,
2300
3002
0203
0320
,
0200
0000
0000
0330
0000
0000
0000
0000
,
2002
0000
0000
0000
,
0000
0000
0000
0000
,
0000
0000
0000
0000
,
0000
0000
0000
0000
,
0000
0000
0000
0000
,
0000
0000
0000
0000
,
0000
0000
0000
0000
,
0000
0000
0000
0000
,
0000
0000
0000
0000
,
0000
0000
0000
0000
,
0000
0000
0000
0000
,
0000
0000
0000
0000
0000
3003
0220
0000
,
0000
0000
0000
0000
,
0000
0000
0000
0000
,
0000
0000
0000
0000
,
0000
0000
0000
0000
,
0000
0000
0000
0330
0000
0000
0000
0000
;

//---------------dance-single - Experte----------------
#NOTES:
     dance-single:
     Experte:
     Challenge:
     13:
     1.000,1.000,1.000,0.631,1.000,1179.000,321.000,94.000,0.000,0.000:
1001
0000
0100
0000
0010
0000
1000
0010
,
0101
0000
1000
0000
0011
0000
0100
0000
1010
0000
0000
0000
1100
0000
0010
0100
,
1001
0000
1010
0001
0110
0001
0110
0000
,
0101
1000
0110
1000
0110
0000
1001
0000
,
0110
0000
0001
0000
1000
0000
0100
1000
,
0011
0000
0100
0000
1010
0000
0001
0000
1100
0000
0000
0000
0101
0000
1000
0001
,
0110
0000
1100
0010
1001
0010
1001
0000
,
0011
0100
1001
0100
1001
0000
0110
0000
,
1001
0000
0010
0000
0100
0000
0001
0100
,
1010
0000
0001
0000
1100
0000
0010
0000
0101
0000
0000
0000
0011
0000
0100
0010
,
1001
0000
0101
1000
0110
1000
0110
0000
,
1010
0001
0110
0001
0110
0000
1001
0000
,
0110
0000
1000
0000
0001
0000
0010
0001
,
1100
0000
0010
0000
0101
0000
1000
0000
0011
0000
0000
0000
1010
0000
0001
1000
,
0110
0000
0011
0100
1001
0100
1001
0000
,
1100
0010
1001
0010
1001
0110
1001
0110
,
1001
0000
0000
0000
0000
0000
0000
0000
0000
0000
0000
0000
0000
0000
0000
0000
0000
0000
0000
0000
0000
0000
0000
0000
0000
0000
0000
0000
0000
0000
0000
0000
0000
0000
0000
0000
0000
0000
0000
0000
0000
0000
0000
0000
0000
0000
0000
0000
1000
0000
0000
0000
0000
0000
0000
0000
0000
0000
0000
0000
0001
0000
0000
0000
0000
0000
0000
0000
0000
0000
0000
0000
1000
0000
0000
0000
0000
0000
0000
0000
0001
0000
0000
0000
0000
0000
0000
0000
1000
0000
0000
0000
0000
0000
0000
0000
0001
0000
0000
0000
0000
0000
1000
0000
0000
0000
0000
0000
0001
0000
0000
0000
0000
0000
1000
0000
0000
0000
0000
0000
0110
0000
0000
0000
0000
0000
0000
0000
0000
0000
0000
0000
0000
0000
0000
0000
0000
0000
0000
0000
0000
0000
0000
0000
1001
0000
0000
0000
0000
0000
0000
0000
0000
0000
0000
0000
0000
0000
0000
0000
0000
0000
0000
0000
0000
0000
0000
0000
0000
0000
0000
0000
0000
0000
0000
0000
0000
0000
0000
0000
0000
0000
0000
0000
0000
0000
0000
0000
0000
0000
0000
0000
,
1001
0100
1000
0100
1010
0000
0001
0010
0101
1000
0100
0010
1001
0000
0110
0001
,
2010
0000
0000
3000
0101
0010
0100
0010
1100
0000
0011
0000
0110
0001
1000
0001
,
1010
0000
0000
0101
0000
0000
1001
0000
0200
0000
0010
0000
0010
0001
0310
0100
,
1010
0000
1000
0000
0110
0000
0000
1000
0101
1000
0010
0000
0002
0000
0100
0000
,
1003
0000
0001
0000
1000
0000
0001
0000
1000
0000
0001
0000
1000
0000
0000
0001
0000
0000
0110
0000
0000
0000
0000
0000
0000
0000
0000
0000
0000
0000
1001
0000
0000
0000
0000
0000
0010
0000
0000
1000
0000
0000
0001
0000
0000
0100
0000
0000
,
1001
0010
0101
0010
0001
0100
1010
0100
1001
0000
0200
0000
0000
0000
0000
0300
,
1100
0000
0110
0000
0011
0000
1001
0000
0110
0000
1000
0001
1000
0000
0110
0000
,
1001
0000
0000
0000
0110
0000
0010
1000
0000
0100
0001
0000
1000
0001
0110
0000
,
1001
0000
1001
0000
0110
0000
0001
0000
1000
0100
0020
0000
0031
0000
0200
0300
,
0110
0000
0110
0000
1000
0000
0200
0000
0301
0100
0010
1000
0110
0000
0010
0100
,
1010
0000
1000
0100
2000
0000
3001
0000
0101
0000
0001
0010
0002
0000
1003
0000
,
0110
0000
1001
0000
0110
0000
1000
0100
0010
0001
0010
0100
1010
0000
0101
0000
,
1000
0000
0100
0000
0010
0000
0001
0000
0010
0000
0000
0000
0100
0000
0000
0000
1000
0000
0000
0000
0100
0000
0000
0000
0010
0000
0000
0010
0000
0000
0001
0000
0000
0001
0000
0000
0010
0000
0000
0010
0000
0000
0100
0000
0000
0100
0000
0000
,
1001
0000
1000
0100
0011
0000
0001
0010
1100
0000
1000
0100
0012
0100
1000
0013
,
1100
0110
0011
0110
1100
0000
0110
0000
0000
0000
0000
0000
,
1001
0000
0100
0010
1001
0000
0010
0100
1001
0010
0001
0100
0010
1000
0100
0010
,
1001
0000
0000
0000
0000
0000
1001
0000
0000
0000
0000
0000
0110
0000
0000
0000
0000
0000
0110
0000
0000
0000
0000
0000
0010
0000
0000
0100
0000
0000
0010
0000
0000
0100
0000
0000
0002
0000
0100
0000
1000
0000
0100
0000
1000
0003
0100
0000
,
0021
0000
0000
0000
0000
0000
0000
0000
0000
0000
0130
0100
1000
1000
0100
0100
,
2001
0000
0000
0000
0000
0000
0000
3000
1200
0000
0000
0000
0000
0000
0000
0300
,
0120
0000
0000
0000
0000
0000
0000
0030
0012
0000
0000
0000
0000
0000
0000
0003
,
0011
0000
0110
0110
0000
1100
1100
0000
0110
0110
0000
1001
2001
0000
0000
0000
,
0000
0000
0001
0010
0100
0000
0000
0000
0000
0000
0000
0000
0000
0000
0100
0010
0001
0000
0000
0000
0000
0000
0000
0000
0000
0000
0001
0010
0100
0000
0000
0000
0000
0000
0000
0000
0100
0010
0001
0000
0000
0000
0000
0000
0000
0000
0001
0010
0100
0000
0000
0000
0000
0000
0100
0010
0001
0000
0000
0000
0000
0000
0000
0001
,
0010
0100
0000
0000
0000
0000
0100
0010
0002
0000
0000
0000
0000
0000
0000
0000
0000
0000
0000
0000
0000
0000
0000
0000
0000
0000
0000
0000
0000
0000
0000
0000
0000
0000
0000
0000
0000
0000
0000
0000
0000
0000
0000
0000
0000
0000
0000
0000
0000
0000
0000
0000
0000
0000
0000
0000
3003
0000
0000
0000
0000
0000
0000
0000
,
1010
0000
0100
0001
0010
0100
0011
0000
0000
0000
0110
0000
0110
0000
0000
0000
,
1100
0000
0010
0000
0101
0000
0001
0100
1010
0001
0100
1000
0011
0000
0000
0000
,
0101
0000
0010
1000
0100
0010
1100
0000
0000
0000
0110
0000
0110
0000
0000
0000
,
0011
0000
0100
0000
1010
0000
1000
0010
0101
0000
0010
0000
1100
0000
0000
0000
,
1001
0000
0100
1000
0010
0100
0011
1000
0110
0000
1001
0000
0100
0010
0100
0000
,
0011
0000
0000
0000
0100
0000
0000
0000
1010
0000
0000
0000
0101
0000
0000
0000
1100
0000
0000
0000
1001
0000
0000
0000
1002
0100
1000
0100
1000
0100
1003
0100
,
1001
0000
0001
0010
0100
1000
0110
0000
0000
0000
1001
0000
0010
0100
0010
0100
,
1001
0010
1000
0010
1100
0001
0100
0001
0110
1000
0010
1000
0011
0100
0001
0100
,
1002
0100
1000
0100
1000
0100
1000
0100
1000
0000
0100
1000
0100
1000
0100
0000
,
0103
0010
1000
0001
0100
1000
0010
0100
0001
1000
0010
0001
0100
0010
1000
0001
,
0200
0000
0000
0000
0000
0000
0000
0000
0310
0010
0010
0010
0001
0001
0001
0001
,
0100
0100
0100
1000
1000
1000
0100
0100
0100
0010
0010
0010
0001
0001
0001
0100
,
2001
0000
0000
0000
0000
0000
0000
3000
1020
0000
0000
0000
0000
0000
0000
0030
,
0210
0000
0000
0000
0000
0000
0000
0300
0102
0000
0000
0000
0000
0000
0000
0003
,
2001
0000
0000
0010
3100
1000
0010
0100
0001
0010
0001
0100
1000
0010
1000
0001
,
0100
1000
0010
0100
0001
1000
0010
0001
0100
0010
1000
0001
0100
1000
0010
0100
,
0002
0000
0000
0000
,
0000
0000
0000
0000
0000
1003
0000
0000
,
0200
0000
0000
0000
,
0000
0000
0000
0000
0000
0000
0000
0000
0000
0000
0000
0000
0000
0000
0000
0000
0000
0000
0000
0000
0000
0000
0000
0000
0310
0100
0010
0100
0010
0100
0010
0100
,
1010
0000
0100
0000
1001
0000
0010
0001
1000
0010
0100
0001
1100
0000
0011
0000
,
0101
0000
0010
0000
1001
0000
0100
1000
0001
0100
0010
0000
1100
0000
0011
0000
,
1010
0000
0000
0000
0000
0000
0011
0000
0000
0000
0000
0000
1100
0000
0000
0000
0000
0000
0101
0000
0000
0000
0000
0000
1000
0000
0100
0000
0010
0000
0001
0000
0010
0000
0100
0000
1000
0000
0000
0100
0000
0000
0010
0000
0000
0001
0000
0000
,
1010
0000
0101
0000
1001
0000
0010
0001
0100
0010
1000
0100
0020
0000
0130
0000
,
0101
0000
1010
0000
1001
0000
0100
1000
0001
0100
0010
1000
0011
0000
1100
0000
,
1010
0000
0101
0000
1001
0000
0010
0001
1000
0010
0100
0000
0011
0000
1100
0000
,
0101
0000
0000
0000
0000
0000
1100
0000
0000
0000
0000
0000
0011
0000
0000
0000
0000
0000
1010
0000
0000
0000
0000
0000
0001
0000
0010
0000
0100
0000
1000
0000
0100
0000
0010
0000
0001
0000
0000
0010
0000
0000
0100
0000
0000
1000
0000
0000
,
0011
0000
1100
0000
1001
0000
0100
1000
0010
0100
0001
0010
0200
0000
0310
0000
,
0101
0000
1010
0000
1001
0000
1000
0010
1000
0001
0100
0000
1010
0000
0101
0000
,
0011
0000
0100
0010
1100
0000
0010
0100
1010
0000
0100
0010
0101
1000
0100
0010
,
1001
0000
0100
0000
0010
0000
0100
0000
0010
0000
0100
0000
1010
0000
0000
0101
0000
0000
1100
0000
0000
0011
0000
0000
1010
0000
0000
0000
0101
0000
0000
0000
1100
0000
0000
0000
0011
0000
0000
1000
0000
0000
0100
0000
0000
0010
0000
0000
,
0101
0000
1010
0000
1001
0000
0010
1000
0100
0001
1000
0010
0200
0000
0320
0030
,
1001
0000
0000
0000
0000
0000
0110
0000
0000
0000
0000
0000
1000
0000
0100
0000
0010
0000
0001
0000
0000
0010
0000
0000
0100
0000
0000
1000
0000
0000
0100
0000
0000
0010
0000
0000
0101
0000
0000
0000
0000
0000
1010
0000
0000
0000
0000
0000
,
1100
0000
0011
0000
1010
0000
0101
0000
0001
0010
0100
1000
0110
0000
1001
0000
,
1000
0100
1010
0001
1010
0100
1001
0010
0101
0010
0101
1000
0101
0010
1001
0100
,
1001
0010
0100
1000
0110
0000
1001
0000
0110
0000
0001
0010
1100
0000
0011
0000
,
2000
0000
0100
0000
0010
0000
0100
0010
,
3002
0100
0010
0000
0100
0000
0010
0100
,
1003
0000
0000
0000
1000
0000
0100
1000
0010
1000
0001
0100
1010
0000
0101
0000
,
1100
0000
0011
0000
0110
0000
1001
0000
1020
0000
1000
0030
0201
0000
0001
0000
,
0302
0000
0000
0000
2003
0000
0000
3000
1000
0100
0010
0100
0001
0010
0100
0010
,
0200
0000
0000
0000
0302
0000
0000
0003
1000
0010
0100
0010
0001
0100
0010
0100
,
2000
0000
3200
0000
0320
0000
0032
0003
1100
0000
0110
0000
0011
0000
0110
0000
,
1001
0000
0000
0000
0000
0000
0000
0000
0000
0000
0000
0000
0000
0000
0000
0000
0000
0000
0000
0000
0000
0000
0000
0000
0001
0000
0000
0000
0000
0000
0000
0000
0010
0000
0000
0000
0000
0000
0000
0000
0100
0000
0000
0000
0000
0000
0000
0000
1000
0000
0000
0000
0000
0000
0000
0000
0000
0000
0000
0000
0000
0000
0000
0000
0000
0000
0000
0000
0000
0000
0000
0000
1000
0000
0000
0000
0000
0000
0100
0000
0000
0000
0000
0000
0010
0000
0000
0000
0000
0000
0001
0000
0000
0000
0000
0000
0000
0000
0000
0000
0000
0000
0000
0000
0000
0000
0000
0000
0000
0000
0000
0000
0000
0000
0000
0000
0000
0000
0000
0000
0001
0000
0000
0000
0010
0000
0000
0000
0100
0000
0000
0000
1000
0000
0000
0000
0000
0000
0000
0000
0000
0000
0000
0000
0000
0000
0000
0000
0000
0000
0000
0000
0000
0000
0000
0000
0000
0000
0000
0000
0000
0000
0000
0000
0000
0000
0000
0000
1000
0000
0000
0000
0000
0000
0100
0000
0000
0000
0000
0000
0010
0000
0000
0000
0000
0000
0001
0000
0000
0000
0000
0000
,
2010
0000
0100
0000
3100
0000
0010
1000
0001
1000
0010
1000
0110
0000
1010
0000
,
0102
0000
0000
0000
0000
0000
0010
0000
0000
0000
0000
0000
0013
0000
0000
0000
0000
0000
0100
0000
0000
0001
0000
0000
1000
0000
0000
0001
0000
0000
0100
0000
0000
0001
0000
0000
1000
0100
0010
0001
0000
0000
0001
0010
0100
1000
0000
0000
,
1010
0000
0000
0000
0000
0000
0100
0000
0000
0000
0000
0000
1001
0000
0000
0000
0000
0000
1000
0100
0010
0001
0000
0000
0110
0000
0000
0000
0000
0000
0001
0010
0100
1000
0000
0000
0110
0000
0000
0000
0000
0000
1000
0100
0010
0001
0000
0000
,
1000
0100
0010
0001
0110
0000
0001
0010
0100
1000
0100
0010
1001
0000
0110
0000
,
2000
0000
0000
0000
3200
0000
0000
0000
0320
1000
0032
1000
0023
0000
0000
0000
,
1030
0001
0100
0001
0110
0000
0001
1000
0010
1000
0100
0000
1010
0000
0101
0000
,
2100
0001
0010
3100
0021
0000
1000
0000
0130
1000
0001
1000
0100
1000
0010
1000
,
0012
1000
0100
0013
1200
0000
0001
0300
0010
0000
1000
0010
0001
0010
0100
0000
,
2000
3200
0320
0032
,
2003
0000
0000
0000
3200
0302
2003
3020
,
1030
1000
0100
0100
0010
0010
0100
0100
1000
1000
0100
0100
0010
0010
0001
0001
,
0010
0100
0010
1000
0100
0010
0100
0001
1000
0100
0010
1000
0001
0010
0100
0001
,
1010
0000
0101
0000
1001
0000
1000
0010
0100
0001
0110
0000
0001
0010
1100
0000
,
0101
0000
1010
0000
1001
0000
0001
0100
0010
1000
0110
0000
1000
0100
0011
0000
,
1000
0100
0010
0001
1000
0100
0010
0100
0001
0010
0100
1000
0001
0010
0100
0010
,
1000
0100
1000
0100
1000
0010
1000
0010
0001
0010
0001
0010
0001
0100
0001
0100
,
1002
0000
0100
0000
0013
0000
0100
0010
1000
0010
0100
0001
1010
0000
0110
0000
,
2001
0000
0010
0000
3100
0000
0010
0100
0001
0100
0010
1000
0101
0000
1010
0000
,
0001
0000
0010
0000
0100
0000
1000
0000
0100
0000
0010
0000
0001
0000
0000
0010
0000
0000
0100
0000
0000
1000
0000
0000
0100
0000
0000
0010
0000
0000
0001
0000
0000
0010
0000
0000
0100
0000
0000
1000
0000
0000
0100
0000
0000
0010
0000
0000
,
0002
0000
1000
0103
2000
0000
0010
3100
0020
0000
0100
0031
0200
0000
0001
1300
,
0002
0000
0000
0000
0010
0000
0000
0000
0100
0000
0000
0000
2003
0000
0010
0000
0100
0000
0010
0000
0100
3000
0010
0000
0101
0000
0000
0000
0000
0000
1010
0000
0000
0000
0000
0000
0011
0000
0000
0000
0000
0000
1100
0000
0000
0000
0000
0000
,
1010
0000
0101
0000
1001
0000
0010
0100
0001
1000
0010
0100
0011
0000
1100
0000
,
0101
0000
1010
0000
1001
0000
0100
0010
1000
0001
0100
0010
1001
0000
0110
0000
,
1000
0000
0000
0000
0000
0000
0000
0000
0000
0000
0000
0000
0010
0000
0000
0000
0000
0000
0000
0000
0000
0000
0000
0000
0100
0000
0000
0000
0000
0000
0000
0000
0000
0000
0000
0000
1000
0000
0000
0000
0000
0000
0000
0000
0000
0000
0000
0000
0010
0000
0000
0000
0000
0000
0000
0000
0000
0000
0000
0000
1000
0000
0000
0000
0000
0000
0000
0000
0000
0000
0000
0000
0100
0000
0000
0000
0000
0000
0000
0000
0000
0000
0000
0000
1000
0000
0000
0000
0000
0000
0000
0000
0000
0000
0000
0000
0001
0000
0000
0000
0010
0000
0000
0000
0100
0000
0000
0000
1000
0000
0000
0000
0000
0000
0000
0000
0000
0000
0000
0000
0010
0000
0000
0000
0000
0000
0000
0000
0000
0000
0000
0000
0001
0000
0000
0000
0000
0000
0000
0000
0000
0000
0000
0000
0100
0000
0000
0000
0000
0000
0010
0000
0000
0000
0000
0000
0001
0000
0000
0000
0000
0000
0000
0000
0000
0000
0000
0000
0010
0000
0000
0000
0000
0000
0000
0000
0000
0000
0000
0000
0001
0000
0000
0000
0000
0000
0000
0000
0000
0000
0000
0000
,
1000
0010
0100
0001
1000
0010
0100
0001
1000
0010
0100
0001
0010
1000
0100
0001
,
1000
0100
0010
0001
0000
0000
0100
0000
0000
0010
0000
0000
0001
0000
0000
1000
0000
0000
0010
0000
0000
0100
0000
0000
0001
0000
0000
1000
0000
0000
0010
0000
0000
0100
0000
0000
0001
0000
0000
1000
0000
0000
0010
0000
0000
0100
0000
0000
,
0002
0000
0000
0000
0000
0000
0000
0000
1003
1000
0100
0100
0010
0010
0001
0001
,
0010
0010
0100
0100
1000
1000
0100
0100
0010
0010
0001
0001
0010
0010
0100
0010
,
0102
0000
0000
0003
2001
0000
0000
3000
1020
0000
0000
0030
0210
0000
0000
0300
,
2100
0000
0000
3000
1002
0000
0000
0003
0201
0000
0000
0300
0220
0000
0000
0330
,
0220
0000
0000
0000
0000
0330
0220
0000
0000
0000
0000
0330
0220
0000
0000
0330
,
2002
0000
0000
0000
,
0000
0000
0000
0000
,
0000
0000
0000
0000
,
0000
0000
0000
0000
,
0000
0000
0000
0000
,
0000
0000
0000
0000
,
0000
0000
0000
0000
,
0000
0000
0000
0000
,
0000
0000
0000
0000
,
0000
0000
0000
0000
,
0000
0000
0000
0000
,
0000
0000
0000
0000
0000
0000
0000
0003
0002
3000
2000
3003
0220
0000
0000
0000
,
0000
0000
0000
0000
,
0000
0000
0000
0000
,
0000
0000
0000
0000
,
0000
0000
0000
0000
,
0000
0000
0000
0330
0000
0000
0000
0000
;

//---------------dance-single - Normal----------------
#NOTES:
     dance-single:
     Normal:
     Medium:
     7:
     0.561,0.750,0.054,0.571,0.020,492.000,8.000,85.000,0.000,0.000:
0011
0000
0000
0000
,
0100
0010
0100
0000
,
0100
1000
0100
0010
,
0001
0000
0010
0000
,
0101
0000
0000
0000
,
0001
1000
0001
0000
,
0001
0100
0001
1000
,
0010
0000
1000
0000
,
1100
0000
0000
0000
,
0010
0100
0010
0000
,
0010
0001
0010
0100
,
1000
0000
0100
0000
,
1010
0000
0000
0000
,
1000
0001
1000
0000
,
1000
0010
1000
0001
,
0100
0000
0001
0000
,
0011
0000
0000
0000
0000
0010
0100
0000
,
1000
0100
0010
0000
0001
0010
0100
0000
,
2000
0000
3100
0000
0001
0000
0010
0100
,
0010
0000
0010
0000
0200
0000
0010
0300
,
1000
0100
0010
0000
0100
0010
0002
0000
,
1003
0100
1000
0100
0010
0000
0001
0000
,
0100
0000
1000
0100
0010
0002
0000
0000
,
1003
0100
0010
0000
0001
0010
0100
0000
,
1001
0000
0100
0000
0010
0001
0100
0010
,
0100
0000
1000
0000
0100
0020
0030
0200
,
0310
0000
0100
1000
0100
0000
0010
0001
,
0010
0100
2000
3000
0100
0010
0002
0003
,
1000
0100
0010
0100
0010
0000
1000
0000
,
0100
0000
0010
0000
0100
0000
0010
0000
0000
0100
0000
0000
,
1000
0100
0010
0002
,
1003
0000
0100
0000
0010
0000
0001
0000
0000
0000
0000
0000
,
1000
0100
1000
0000
0001
0010
0001
0000
,
1000
0010
0100
0000
0001
0100
0020
0000
,
0032
0000
0000
0000
0000
0000
0013
0100
,
2000
0000
3200
0000
,
0320
0000
0000
0000
0000
0000
0000
0000
0032
0000
0000
0000
0000
0000
0000
0003
,
0010
0000
0000
0100
0000
0000
0010
0000
0000
0100
0000
0000
2000
0000
0000
0000
,
0000
0000
0000
0000
,
0000
3000
0000
0000
0000
0000
0000
0000
,
1000
0100
0010
0001
0100
0000
0010
0000
,
1000
0100
0010
0001
,
0001
0010
0100
1000
0010
0000
0100
0000
,
0001
0100
0010
1000
,
1000
0100
0010
0001
0010
0000
0100
0000
,
1000
0000
0100
0010
0100
0000
0020
0000
,
1030
0001
0100
0010
0001
0000
0000
0000
,
1000
0100
1000
0100
0010
0000
0001
0000
,
0020
0000
0000
0000
,
0130
1000
0100
1000
0100
0000
0010
0000
,
0200
0000
0000
0000
0310
0001
0010
0001
,
0010
0100
1000
0100
,
2000
0000
3020
0000
,
0230
0000
0302
0000
,
2003
0000
3010
0100
1000
0000
0001
0010
,
0100
0000
1000
0100
0010
0000
0100
0010
,
0002
0000
0000
0000
,
0000
0000
0000
0000
,
2003
0000
0000
0000
,
0000
0000
0000
3000
,
1000
0100
1000
0000
0010
0000
0100
0000
,
1000
0010
1000
0000
0100
0000
0010
0000
,
0001
0010
0001
0000
0010
0000
1000
0000
,
0100
1000
0100
0000
1000
0000
0010
0000
,
0001
0100
0001
0000
0100
0000
0010
0000
,
0001
0010
0001
0000
0010
0000
0100
0000
,
1000
0010
1000
0000
0010
0000
0100
0000
,
0010
1000
0010
0000
0100
0000
0010
0000
,
0001
0010
0100
0000
1000
0000
0010
0000
,
0001
0100
0010
0000
1000
0000
0100
0000
,
0001
0100
1000
0000
0010
0000
0100
0000
,
1000
0010
0001
0000
0100
0000
0010
0000
,
0001
0010
0001
0000
0100
0000
1000
0000
,
0100
0010
0100
0000
0010
0000
0001
0000
,
0010
0100
0010
0000
0100
0000
1000
0000
,
0001
0100
0010
0000
0100
0001
1000
0000
,
2000
0000
0010
0000
,
3002
0000
0100
0000
,
1003
0000
1000
0100
0010
0000
0010
0001
,
0100
1000
0020
0230
,
0302
0000
2003
0000
3100
0010
0001
0000
,
0200
0000
0302
0000
0013
1000
0100
0000
,
2000
3002
1003
0100
,
0010
0100
1000
0000
0100
0000
0010
0100
,
2000
0000
3100
0000
0001
0010
0100
0000
,
0002
0000
0013
0000
1000
0100
0010
0000
,
1000
0100
0010
0000
0001
0100
1000
0000
,
0001
0010
0100
0000
1000
0010
0001
0000
,
2000
3200
0320
0032
,
1003
0100
0010
0000
0100
0000
0010
0000
,
2000
0000
3020
0000
0130
0001
1000
0000
,
0002
0000
0203
0000
0310
1000
0001
0000
,
2000
3200
0320
0032
,
2003
0000
3200
0320
,
1030
0100
0010
0000
0100
0000
0010
0000
,
0001
0010
0100
0000
0010
0000
0100
0000
,
2000
3200
0320
0032
,
0023
0230
1300
0100
,
1000
0001
0100
0000
0001
0010
0100
0000
,
1000
0100
0010
0000
0100
0010
0100
0000
,
0002
0000
0013
0100
1000
0000
0010
0100
,
2000
0000
3100
0010
0001
0000
0100
0010
,
0001
0010
0100
1000
,
0002
2003
3020
0230
,
2300
0000
3020
0000
0130
0000
0010
0100
,
0001
0000
0010
0000
0100
0000
1000
0100
,
2000
3200
0320
0032
,
1003
0100
0010
0100
0001
0000
0010
0100
,
1000
0010
1000
0000
0100
0001
0100
0000
,
0010
0100
0010
0000
0100
0010
0100
0010
,
0002
0000
0000
0000
0103
1000
0100
0000
,
0001
0010
0001
0000
0100
1000
0100
0010
,
0002
2003
3020
0230
,
2300
3002
0203
0320
,
0230
0300
0000
0000
,
2002
0000
0000
0000
,
0000
0000
0000
0000
,
0000
0000
0000
0000
,
0000
0000
0000
0000
,
0000
0000
0000
0000
,
0000
0000
0000
0000
,
0000
0000
0000
0000
,
0000
0000
0000
0000
,
0000
0000
0000
0000
,
0000
0000
0000
0000
,
0000
0000
0000
0000
,
0000
0000
0000
0000
0000
3003
0220
0000
,
0000
0000
0000
0000
,
0000
0000
0000
0000
,
0000
0000
0000
0000
,
0000
0000
0000
0000
,
0000
0000
0000
0330
0000
0000
0000
0000
;

//---------------dance-single - Leicht----------------
#NOTES:
     dance-single:
     Leicht:
     Easy:
     4:
     0.404,0.662,0.034,0.477,0.000,345.000,5.000,71.000,0.000,0.000:
0110
0000
0000
0000
,
0001
0000
0010
0000
,
0100
0000
1000
0000
,
0100
0000
0010
0000
,
0001
0000
0000
0000
,
1000
0000
0100
0000
,
0010
0000
0001
0000
,
0010
0000
0100
0000
,
1000
0000
0000
0000
,
0001
0000
0010
0000
,
0100
0000
1000
0000
,
0100
0000
0010
0000
,
0001
0000
0000
0000
,
1000
0000
0100
0000
,
0010
0000
0001
0000
,
0010
0000
0100
0000
,
1000
0000
0000
0100
,
1000
0010
0001
0100
,
2000
3000
0001
0010
,
0100
1000
0020
0000
,
1030
0010
0100
0002
,
1003
0010
0100
0010
,
0001
0010
0100
0001
,
1000
0100
0001
0010
,
1000
0100
0010
0001
,
0100
1000
0100
0000
,
0010
0000
0100
1000
0100
0000
0001
0000
,
0010
0000
2000
3000
0100
0000
0002
0003
,
1000
0100
0010
0000
0100
0000
1000
0000
,
0100
0000
0010
0000
,
1000
0100
0010
0002
,
0013
0100
1000
0000
,
1000
0100
0001
0010
,
0100
1000
0100
0020
,
0032
0000
0000
0013
,
2000
0000
3200
0000
,
0320
0000
0032
0000
,
0013
0000
0000
0100
0000
0000
2000
0000
,
0000
0000
0000
0000
,
0000
3000
0000
0000
0000
0000
0000
0000
,
1000
0100
0010
0000
,
1100
0000
0011
0000
,
0001
0010
0100
0000
,
0011
0000
1100
0000
,
1000
0100
0010
0001
,
0010
0000
0100
0000
,
0001
0010
0100
1000
,
0100
0010
0001
0000
,
0020
0000
0000
0000
,
0130
1000
0100
0000
,
0200
0000
0310
0001
,
0010
0100
1000
0100
,
2000
0000
3020
0000
,
0230
0000
0302
0000
,
2003
3010
1000
0001
,
0100
1000
0010
0100
,
0002
0000
0000
0000
,
0000
0000
0000
0000
,
2003
0000
0000
0000
,
0000
0000
0000
3000
,
1000
0001
0010
0100
,
1000
0001
0100
0010
,
0001
1000
0010
1000
,
0100
0010
1000
0010
,
0001
1000
0100
0010
,
0001
0100
0010
0100
,
1000
0001
0010
0100
,
0010
1000
0100
0010
,
0001
0010
1000
0010
,
0001
0100
1000
0100
,
0001
0100
0010
0100
,
1000
0010
0100
0010
,
0001
0010
0100
1000
,
0100
0010
1000
0001
,
0010
0100
0001
1000
,
0001
0100
1000
0010
,
2000
0000
0000
0000
,
3002
0000
0000
0000
,
1003
0100
0010
0001
,
0010
0100
0020
0230
,
0302
2003
3100
0000
,
0200
0302
0013
0000
,
2000
3002
1003
0100
,
0010
0001
0010
0100
,
2000
3000
0010
0100
,
0002
0003
1000
0100
,
0001
0100
1000
0010
,
0001
0010
1000
0100
,
2000
3200
0320
0032
,
1003
0100
0010
0000
,
2000
3020
0130
0000
,
0002
0203
0310
0000
,
2000
0000
3002
0000
,
0203
0000
0320
0000
,
1030
0010
0100
0001
,
0010
1000
0001
0100
,
2000
3002
0203
0320
,
0032
2003
3010
0100
,
1000
0100
0010
0001
,
0010
0100
1000
0100
,
0002
0013
1000
0000
,
2000
3100
0001
0000
,
0001
0010
0100
1000
,
0002
2003
3020
0230
,
2300
3020
0130
0010
,
0001
0000
0010
0100
,
2000
3200
0320
0032
,
1003
0100
0010
0001
,
1000
0100
1000
0010
,
0001
0010
0001
0100
,
0002
0000
0103
1000
,
0010
0001
0010
0100
,
2000
0000
3200
0000
,
0320
0000
0032
0000
,
1003
0000
0000
0000
,
0002
0000
0000
0000
,
0000
0000
0000
0000
,
0000
0000
0000
0000
,
0000
0000
0000
0000
,
0000
0000
0000
0000
,
0000
0000
0000
0000
,
0000
0000
0000
0000
,
0000
0000
0000
0000
,
0000
0000
0000
0000
,
0000
0000
0000
0000
,
0000
0000
0000
0000
,
0000
0000
0000
2000
,
0000
0000
0000
0000
,
0000
0000
0000
0000
,
0000
0000
0000
0000
,
0000
0000
0000
0000
,
0000
0000
3003
0000
;
