#TITLE:Drop;
#SUBTITLE:;
#ARTIST:Dr1010;
#TITLETRANSLIT:;
#SUBTITLETRANSLIT:;
#ARTISTTRANSLIT:;
#CREDIT:;
#BANNER:Dr0p-banner.png;
#BACKGROUND:Dr0p-bg.png;
#LYRICSPATH:;
#CDTITLE:!kommi-cdtitle.png;
#MUSIC:dr1010 - drop.mp3;
#OFFSET:-0.049;
#SAMPLESTART:83.820;
#SAMPLELENGTH:15.000;
#SELECTABLE:YES;
#BPMS:0.000=166.020;
#STOPS:;
#BGCHANGES:;
// cache tags:
#FIRSTBEAT:16.000;
#LASTBEAT:307.083;
#SONGFILENAME:Songs/KBU/Drop (Kommisar)/Drop.sm;
#HASMUSIC:1;
#HASBANNER:1;
#MUSICLENGTH:114.311;
// end cache tags

//---------------dance-double - Blank----------------
#NOTES:
     dance-double:
     Blank:
     Challenge:
     12:
     0.124,0.211,0.000,0.035,0.000,95.000,0.000,4.000,0.000,0.000:






































































































































00000000
00000000
00000000
00000000
,
00000000
00000000
00000000
00000000
,
00000000
00000000
00000000
00000000
,
00000000
00000000
00000000
00000000
,
00000000
00000000
00000000
00000000
,
00000000
00000000
00000000
00000000
,
00000000
00000000
00000000
00000000
,
00000000
00000000
00000000
00000000
,
00000000
00000000
00000000
00000000
,
00000000
00000000
00000000
00000000
,
00000000
00000000
00000000
00000000
,
00000000
00000000
00000000
00000000
,
00000000
00000000
00000000
00000000
,
00000000
00000000
00000000
00000000
,
00000000
00000000
00000000
00000000
,
10000000
00010000
10000000
00010000
10000000
00010000
10000000
00010000
,
10000000
00010000
10000000
00010000
10000000
00010000
20000000
30010000
,
10000000
00010000
10000000
00010000
10000000
00010000
10000000
00010000
,
01000000
00001000
01000000
00001000
01000000
00001000
01000000
00001000
,
01000000
00001000
01000000
00001000
01000000
00001000
02000000
03001000
,
01000000
00001000
01000000
00001000
01000000
00001000
01000000
00001000
,
01000000
00001000
01000000
00001000
01000000
00001000
01000000
00001000
,
00100000
00000100
00100000
00000100
00100000
00000100
00200000
00300100
,
00100000
00000100
00100000
00000100
00100000
00000100
00100000
00000100
,
00100000
00000100
00100000
00000100
00100000
00000100
00100000
00000100
,
00100000
00000100
00100000
00000100
00100000
00000100
00200000
00300100
,
00010000
00000010
00010000
00000010
00010000
00000010
00010000
00000000
;

//---------------dance-single - ----------------
#NOTES:
     dance-single:
     :
     Hard:
     12:
     1.000,1.000,1.000,0.035,0.748,706.000,204.000,4.000,0.000,0.000:
0000
0000
0000
0000
,
0000
0000
0000
0000
,
0000
0000
0000
0000
,
0000
0000
0000
0000
,
0100
0000
1000
0000
1000
0000
1000
0100
,
0100
0000
1000
0000
1000
0000
1000
0100
,
0100
0100
1000
0100
0100
1000
0100
0010
,
0001
0000
0001
0000
0010
0000
0001
0000
0001
0000
1000
0001
1000
0000
1000
0000
,
0100
0000
1000
0000
1000
0000
1000
0100
,
0100
0000
1000
0000
1000
0000
1000
0100
,
0100
0100
1000
0100
0100
1000
0100
0010
,
0001
0000
0001
0000
0010
0000
0001
0000
0001
0000
1000
0001
1000
0000
1000
0000
,
0100
0000
1000
0000
1000
0000
1000
0100
,
0100
0000
1000
0000
1000
0000
1000
0100
,
0100
0100
1000
0100
0100
1000
0100
0010
,
0001
0000
0001
0000
0010
0000
0001
0000
0001
0000
1000
0001
1000
0000
1000
0000
,
0100
0000
1000
0000
1000
0000
1000
0100
,
0100
0000
1000
0000
1000
0000
1000
0100
,
0100
0100
1000
0100
0100
1000
0100
0010
,
1000
0000
1000
0000
1000
0000
1000
0000
1000
0001
1000
0001
1000
0001
1000
0001
,
1100
0000
0100
0000
0100
0000
1000
0100
0010
0000
0010
0000
0010
0000
1001
0100
,
1001
0000
0001
0000
0001
0000
0001
0100
0001
0000
1010
0100
1010
0001
0010
0100
,
1001
0000
0100
0000
0100
0000
1000
0100
0011
0000
0010
0000
0010
0000
0100
0010
,
1001
0000
0001
0000
0001
0000
1001
0100
0011
0000
0100
1001
0110
0001
0010
0001
,
0110
0100
1001
0100
0110
1000
0110
0100
,
1001
0001
1100
0001
0011
1000
0101
0001
,
1100
0100
1010
0100
0101
1000
0110
0100
,
1010
0010
0101
0010
0011
0100
1010
1001
,
0101
0100
1001
0100
0110
1000
0101
0100
,
0011
0001
1100
0001
0011
1000
0101
0001
,
1100
0100
1010
0100
0101
1000
0110
0100
,
1010
0000
0010
0000
1100
0000
0010
0000
1010
0001
0100
0010
1100
0001
1100
0010
,
1001
0000
0010
0000
0010
0100
1001
0100
0010
0000
0010
0000
0010
0100
1000
0100
,
0011
0000
0010
0000
0010
0100
1001
0100
0010
0100
1000
0100
0010
0100
1000
0100
,
1001
0000
1000
0000
1000
0001
1010
0100
1000
0000
1000
0000
1100
0001
0010
0100
,
0010
0000
0110
0000
0010
0100
1010
0001
0010
0000
0110
0000
0011
0100
0010
0001
,
1010
0000
0010
0000
0010
0100
1001
0100
0010
0000
0010
0000
0010
0100
1000
0100
,
0011
0000
0010
0000
0010
0100
1001
0100
0010
0100
1000
0100
0010
0100
1000
0100
,
1001
0000
1000
0000
1000
0001
1010
0100
1000
0000
1001
0000
1000
0001
0010
0100
,
0010
0000
0011
0000
0010
0100
1010
0001
0010
0000
0110
0000
0011
0100
0010
0001
,
1010
0000
0010
0000
0011
0100
1000
0100
0011
0000
0010
0000
1010
0100
1000
0100
,
0011
0000
0010
0000
1010
0100
1000
0100
0011
0100
1000
0100
1001
0100
1010
0100
,
1001
0000
1000
0000
1100
0001
0010
0100
1001
0000
1000
0000
1100
0001
0010
0100
,
1010
0000
0010
0000
0011
0100
0010
0001
1010
0000
0010
1100
0011
0100
1010
0001
,
0110
0000
0010
0000
0011
0100
1000
0100
1010
0000
0010
0000
0011
0100
1000
0100
,
1010
0000
0010
0000
0011
0100
1000
0100
1010
0100
1000
0100
0011
0100
1010
0100
,
1001
0000
1000
0000
1100
0001
0010
0100
1001
0000
1000
0000
1100
0001
0010
0100
,
0011
0000
0010
0000
1010
0100
0010
0001
0110
0000
0010
0101
1010
0100
1010
0001
,
0110
0000
0010
0000
0011
0100
1000
0100
1010
0000
0010
0000
0011
0100
1000
0100
,
1010
0000
0010
0000
0011
0100
1000
0100
1010
0100
1000
0100
0011
0100
1010
0100
,
1001
0000
1000
0000
1100
0001
0010
0100
1001
0000
1000
0000
1100
0001
0010
0100
,
0011
0000
0010
0000
1010
0100
0010
0001
0110
0000
0010
0101
1010
0100
1010
0001
,
0110
0000
0010
0000
0011
0100
1000
0100
1010
0000
0010
0000
0011
0100
1000
0100
,
1010
0000
0010
0000
0011
0100
1000
0100
1010
0100
1000
0100
0011
0100
1000
0100
,
1010
0000
1000
0000
1100
0001
0010
0100
1001
0000
1000
0000
1100
0001
0010
0100
,
0011
0000
0010
0000
1010
0100
0010
0001
0110
0000
0010
0101
1010
0100
1010
0001
,
0110
0000
0000
0000
0000
0000
0000
0000
0000
0010
0000
0000
0000
0000
0000
0000
0000
0000
0010
0000
0000
0000
0000
0000
2002
3003
0000
0000
0000
0000
0000
0000
0000
0000
0000
0000
0000
0000
0000
0000
0000
0000
0000
0000
0000
0000
0000
0000
,
1000
0000
0001
0000
1000
0000
0001
0000
1000
0001
1000
0001
1000
0001
1000
0001
,
1100
0000
0000
0010
0001
0000
1100
0000
0001
0000
0000
0010
0001
0000
0010
0000
,
1100
0000
0000
0001
0010
0000
1100
0000
0010
0000
0000
0001
0010
0000
0100
0000
,
0110
0000
0000
0100
0010
0000
0110
0000
0010
0000
0000
0100
0010
0000
0001
0000
,
1010
0000
0000
0001
0100
0000
1010
0000
1010
0000
0000
0001
0010
0100
0010
0001
,
1100
0000
0000
0010
0001
0000
1100
0000
0001
0000
0000
0010
0001
0000
0010
0000
,
1100
0000
0000
0001
0010
0000
1100
0000
0010
0000
0000
0001
0010
0000
0100
0000
,
0110
0000
0000
0100
0010
0000
0110
0000
0010
0000
0000
0100
0010
0000
0100
0000
,
1010
0000
0000
0010
0100
0000
1010
0000
0100
0010
0100
0010
0100
0010
0100
0010
,
1001
0010
1001
0010
1001
0010
1001
0010
,
0101
0010
0101
1000
0101
0010
0101
1000
,
0110
1000
0110
1000
0110
1000
0101
0010
,
1100
0010
1100
0010
1001
0010
0101
1000
,
1001
0010
1001
0010
1001
0010
1001
0010
,
0101
0010
0101
1000
0101
0010
0101
1000
,
0110
1000
0110
1000
0110
1000
0110
1000
,
0110
0000
0110
0000
0110
0000
0110
0000
1100
0011
1100
0011
1100
0011
1100
0011
,
1100
0000
0100
0000
0100
0000
1000
0100
0010
0000
0010
0000
0010
0000
0100
0010
,
0001
0000
0001
0000
0001
0000
0001
0100
0001
0000
0001
0100
0010
0001
0010
0100
,
1001
0000
0000
0000
0000
0000
0000
0000
0000
0000
0000
0000
0000
0000
0000
0000
0000
0000
0020
0030
0000
0000
0000
0000
0000
0000
0000
0000
0000
0000
0000
0000
0000
0000
0000
0000
0020
0030
0000
0000
0000
0000
0000
0000
0000
0000
0000
0000
;
