#TITLE:Sounds of Life;
#SUBTITLE:;
#ARTIST:Pendulum ft. Jasmine Yee;
#TITLETRANSLIT:;
#SUBTITLETRANSLIT:;
#ARTISTTRANSLIT:;
#CREDIT:;
#BANNER:soundsoflifebn.png;
#BACKGROUND:soundsoflifebg.png;
#LYRICSPATH:;
#CDTITLE:;
#MUSIC:soundsoflife.ogg;
#OFFSET:1.385;
#SAMPLESTART:97.760;
#SAMPLELENGTH:22.070;
#SELECTABLE:YES;
#BPMS:0.000=174.000;
#STOPS:;
#BGCHANGES:;
// cache tags:
#FIRSTBEAT:4.000;
#LASTBEAT:843.000;
#SONGFILENAME:Songs/Pendulum/Sounds of Life/soundsoflife.sm;
#HASMUSIC:1;
#HASBANNER:1;
#MUSICLENGTH:292.300;
// end cache tags

//---------------dance-single - I. Pyles----------------
#NOTES:
     dance-single:
     I. Pyles:
     Beginner:
     1:
     0.026,0.036,0.000,0.000,0.000,53.000,0.000,0.000,0.000,0.000:

0000
0000
0000
0000
,
1000
0000
0000
0000
,
0000
0000
0000
0000
,
0000
0000
0000
0000
,
0000
0000
0000
0000
,
0010
0000
0000
0000
,
0000
0000
0000
0000
,
0000
0000
0000
0000
,
0000
0000
0000
0000
,
1000
0000
0000
0000
,
0000
0000
0000
0000
,
0000
0000
0000
0000
,
0000
0000
0000
0000
,
0100
0000
0000
0000
,
0000
0000
0000
0000
,
0000
0000
0000
0000
,
0000
0000
0000
0000
,
0001
0000
0000
0000
,
0000
0000
0000
0000
,
0000
0000
0000
0000
,
0000
0000
0000
0000
,
1000
0000
0000
0000
,
0000
0000
0000
0000
,
0000
0000
0000
0000
,
0000
0000
0000
0000
,
1000
0000
0000
0000
,
0000
0000
0000
0000
,
0000
0000
0000
0000
,
0000
0000
0000
0000
,
0100
0000
0000
0000
,
0000
0000
0000
0000
,
0000
0000
0000
0000
,
0000
0000
0000
0000
,
1000
0000
0000
0000
,
0000
0000
0000
0000
,
0000
0000
0000
0000
,
0000
0000
0000
0000
,
0100
0000
0000
0000
,
0000
0000
0000
0000
,
0000
0000
0000
0000
,
0000
0000
0000
0000
,
0010
0000
0000
0000
,
0000
0000
0000
0000
,
0000
0000
0000
0000
,
0000
0000
0000
0000
,
0010
0000
0000
0000
,
0000
0000
0000
0000
,
0000
0000
0000
0000
,
0000
0000
0000
0000
,
0010
0000
0000
0000
,
0000
0000
0000
0000
,
0000
0000
0000
0000
,
0000
0000
0000
0000
,
1000
0000
0000
0000
,
0000
0000
0000
0000
,
0000
0000
0000
0000
,
0000
0000
0000
0000
,
1000
0000
0000
0000
,
0000
0000
0000
0000
,
0000
0000
0000
0000
,
0000
0000
0000
0000
,
0100
0000
0000
0000
,
0000
0000
0000
0000
,
0000
0000
0000
0000
,
0000
0000
0000
0000
,
1000
0000
0000
0000
,
0000
0000
0000
0000
,
0000
0000
0000
0000
,
0000
0000
0000
0000
,
0100
0000
0000
0000
,
0000
0000
0000
0000
,
0000
0000
0000
0000
,
0000
0000
0000
0000
,
1000
0000
0000
0000
,
0000
0000
0000
0000
,
0000
0000
0000
0000
,
0000
0000
0000
0000
,
0100
0000
0000
0000
,
0000
0000
0000
0000
,
0000
0000
0000
0000
,
0000
0000
0000
0000
,
0010
0000
0000
0000
,
0000
0000
0000
0000
,
0000
0000
0000
0000
,
0000
0000
0000
0000
,
0010
0000
0000
0000
,
0000
0000
0000
0000
,
0000
0000
0000
0000
,
0000
0000
0000
0000
,
0010
0000
0000
0000
,
0000
0000
0000
0000
,
0000
0000
0000
0000
,
0000
0000
0000
0000
,
0100
0000
0000
0000
,
0000
0000
0000
0000
,
0000
0000
0000
0000
,
0000
0000
0000
0000
,
0010
0000
0000
0000
,
0000
0000
0000
0000
,
0000
0000
0000
0000
,
0000
0000
0000
0000
,
0100
0000
0000
0000
,
0000
0000
0000
0000
,
0000
0000
0000
0000
,
0000
0000
0000
0000
,
1000
0000
0000
0000
,
0000
0000
0000
0000
,
0000
0000
0000
0000
,
0000
0000
0000
0000
,
0010
0000
0000
0000
,
0000
0000
0000
0000
,
0000
0000
0000
0000
,
0000
0000
0000
0000
,
0010
0000
0000
0000
,
0000
0000
0000
0000
,
0000
0000
0000
0000
,
0000
0000
0000
0000
,
1000
0000
0000
0000
,
0000
0000
0000
0000
,
0000
0000
0000
0000
,
0000
0000
0000
0000
,
1000
0000
0000
0000
,
0000
0000
0000
0000
,
0000
0000
0000
0000
,
0000
0000
0000
0000
,
0010
0000
0000
0000
,
0000
0000
0000
0000
,
0000
0000
0000
0000
,
0000
0000
0000
0000
,
1000
0000
0000
0000
,
0000
0000
0000
0000
,
0000
0000
0000
0000
,
0000
0000
0000
0000
,
0010
0000
0000
0000
,
0000
0000
0000
0000
,
0000
0000
0000
0000
,
0000
0000
0000
0000
,
1000
0000
0000
0000
,
0000
0000
0000
0000
,
0000
0000
0000
0000
,
0000
0000
0000
0000
,
0100
0000
0000
0000
,
0000
0000
0000
0000
,
0000
0000
0000
0000
,
0000
0000
0000
0000
,
1000
0000
0000
0000
,
0000
0000
0000
0000
,
0000
0000
0000
0000
,
0000
0000
0000
0000
,
0010
0000
0000
0000
,
0000
0000
0000
0000
,
0000
0000
0000
0000
,
0000
0000
0000
0000
,
1000
0000
0000
0000
,
0000
0000
0000
0000
,
0000
0000
0000
0000
,
0000
0000
0000
0000
,
0010
0000
0000
0000
,
0000
0000
0000
0000
,
0000
0000
0000
0000
,
0000
0000
0000
0000
,
0010
0000
0000
0000
,
0000
0000
0000
0000
,
0000
0000
0000
0000
,
0000
0000
0000
0000
,
0010
0000
0000
0000
,
0000
0000
0000
0000
,
0000
0000
0000
0000
,
0000
0000
0000
0000
,
0010
0000
0000
0000
,
0000
0000
0000
0000
,
0000
0000
0000
0000
,
0000
0000
0000
0000
,
1000
0000
0000
0000
,
0000
0000
0000
0000
,
0000
0000
0000
0000
,
0000
0000
0000
0000
,
0010
0000
0000
0000
,
0000
0000
0000
0000
,
0000
0000
0000
0000
,
0000
0000
0000
0000
,
0010
0000
0000
0000
,
0000
0000
0000
0000
,
0000
0000
0000
0000
,
0000
0000
0000
0000
,
0100
0000
0000
0000
,
0000
0000
0000
0000
,
0000
0000
0000
0000
,
0000
0000
0000
0000
,
1000
0000
0000
0000
,
0000
0000
0000
0000
,
0000
0000
0000
0000
,
0000
0000
0000
0000
,
1000
0000
0000
0000
,
0000
0000
0000
0000
,
0000
0000
0000
0000
,
0000
0000
0000
0000
,
0100
0000
0000
0000
,
0000
0000
0000
0000
,
0000
0000
0000
0000
,
0000
0000
0000
0000
,
1000
0000
0000
0000
,
0000
0000
0000
0000
,
0000
0000
0000
0000
,
0000
0000
0000
0000
,
1000
0000
0000
0000
,
0000
0000
0000
0000
,
0000
0000
0000
0000
,
0000
0000
0000
0000
,
0100
0000
0000
0000
;

//---------------dance-single - I. Pyles----------------
#NOTES:
     dance-single:
     I. Pyles:
     Easy:
     10:
     0.726,0.793,0.212,0.393,0.209,1306.000,62.000,115.000,56.000,0.000:



0000
0000
0000
0000
,
1000
1000
0001
0000
0000
0100
0001
0000
,
1000
0000
1000
0000
0001
0000
1000
0001
1000
0000
0001
0000
0100
0000
0000
0000
,
0001
0001
1000
0000
0000
0100
1000
0000
,
0001
0000
0001
0000
1000
0000
0001
1000
0001
0000
1000
0000
0100
0000
0000
0000
,
1000
1000
0001
0000
0000
0010
0001
0000
,
1000
0000
1000
0000
0001
0000
1000
0001
1000
0000
0001
0000
0010
0000
0000
0000
,
0001
0001
1000
0000
0000
0010
1000
0000
,
0001
0000
0001
0000
1000
0000
0100
1000
0100
1000
0100
1000
0100
1000
0100
1000
,
0001
0001
1000
0000
0000
0010
1000
0000
,
0001
0000
0001
0000
1000
0000
0001
1000
0001
0000
1000
0000
0010
0000
0000
0000
,
1000
1000
0001
0000
0000
0010
0001
0000
,
1000
0000
1000
0000
0001
0000
1000
0001
1000
0000
0001
0000
0010
0000
0000
0000
,
0001
0001
1000
0000
0000
0100
1000
0000
,
0001
0000
0001
0000
1000
0000
0001
1000
0001
0000
1000
0000
0100
0000
0000
0000
,
1000
1000
0001
0000
0000
1000
0001
0000
,
0100
0000
0100
0000
0010
0000
1000
0001
1000
0001
1000
0001
1000
0001
1000
0001
,
1000
1000
0100
0000
0000
0010
0110
0000
,
0001
0000
0001
0000
1000
0000
0100
0010
0001
0000
0100
0000
0110
0000
0000
0000
,
0001
0001
0010
0000
0000
0100
0110
0000
,
1000
0000
1000
0000
0001
0000
0010
0100
1000
0000
0010
0000
0110
0000
0000
0000
,
1000
1000
0010
0000
0000
0100
0110
0000
,
0001
0000
0001
0000
1000
0000
0010
0100
0001
0000
0010
0000
0110
0000
0000
0000
,
0001
0001
0100
0000
0000
0010
0110
0000
,
1000
0000
1000
0000
0001
0000
0100
0010
1000
0000
0100
0000
0110
0000
0000
0000
,
1000
1000
0100
0000
0000
0010
0110
0000
,
0001
0000
0001
0000
1000
0000
0100
0010
0001
0000
0100
0000
0110
0000
0000
0000
,
0001
0001
0010
0000
0000
0100
0110
0000
,
1000
0000
1000
0000
0001
0000
0010
0100
1000
0000
0010
0000
0110
0000
0000
0000
,
1000
1000
0010
0000
0000
0100
0110
0000
,
0001
0000
0001
0000
1000
0000
0010
0100
0001
0000
0010
0000
0110
0000
0000
0000
,
0001
0001
0100
0000
0000
0010
0110
0000
,
1000
0000
1000
0000
0001
0000
0100
0001
0100
0001
0100
0001
0100
0001
0100
0001
,
1000
1000
0100
0000
0000
0010
0110
0000
,
0001
0000
0001
0000
1000
0000
0100
0010
0001
0000
0100
0000
0110
0000
0000
0000
,
0001
0001
0010
0000
0000
0100
0110
0000
,
1000
0000
1000
0000
0001
0000
0010
0100
1000
0000
0010
0000
0110
0000
0000
0000
,
1000
1000
0010
0000
0000
0100
0110
0000
,
0001
0000
0001
0000
1000
0000
0010
0100
0001
0000
0010
0000
0110
0000
0000
0000
,
0001
0001
0100
0000
0000
0010
0110
0000
,
1000
0000
1000
0000
0001
0000
0100
0010
1000
0000
0100
0000
0110
0000
0000
0000
,
0001
0100
0001
0010
0100
1000
0001
1000
,
0001
0100
0001
0100
0001
0100
0001
0100
,
0001
0100
0010
1000
0001
0010
0100
1000
,
0001
0100
0010
1000
0001
0010
0100
1000
,
0010
0100
0010
0100
0010
0100
0010
0100
,
0001
0100
0001
0100
0001
0100
0001
0010
,
0100
0010
0100
0010
0100
0010
0100
0010
,
0001
0000
0001
0000
1000
0000
0100
1000
0100
1000
0100
1000
0100
1000
0100
1000
,
0001
0001
1000
0000
0000
0010
1000
0000
,
0001
0000
0001
0000
1000
0000
0001
1000
0001
0000
1000
0000
0010
0000
0000
0000
,
1000
1000
0001
0000
0000
0010
0001
0000
,
1000
0000
1000
0000
0001
0000
1000
0001
1000
0000
0001
0000
0010
0000
0000
0000
,
0001
0001
1000
0000
0000
0100
1000
0000
,
0001
0000
0001
0000
1000
0000
0001
1000
0001
0000
1000
0000
0100
0000
0000
0000
,
1000
1000
0001
0000
0000
0100
0001
0010
,
0100
0000
0000
1000
0000
0000
0001
0000
0000
0100
0000
0000
0010
0000
1000
0000
0001
0000
0010
0000
0100
0000
1000
0000
,
0001
0001
1000
0000
0000
0010
1000
0000
,
0001
0000
0001
0000
1000
0000
0001
1000
0001
0000
1000
0000
0010
0000
0000
0000
,
1000
1000
0001
0000
0000
0010
0001
0000
,
1000
0000
1000
0000
0001
0000
1000
0001
1000
0000
0001
0000
0010
0000
0000
0000
,
0001
0001
1000
0000
0000
0100
1000
0000
,
0001
0000
0001
0000
1000
0000
0001
1000
0001
0000
1000
0000
0100
0000
0000
0000
,
1000
1000
0001
0000
0000
0100
0001
0000
,
1000
0000
1000
0000
0001
0000
1000
0001
1000
0000
0001
0000
0100
0000
0000
0000
,
0001
0001
1000
0000
0000
0010
1000
0000
,
0001
0000
0001
0000
1000
0000
0001
1000
0001
0000
1000
0000
0010
0000
0000
0000
,
1000
1000
0001
0000
0000
0010
0001
0000
,
1000
0000
1000
0000
0010
0000
0100
0001
0100
0001
0100
0001
1000
0000
0001
0000
,
M200
M000
M000
M000
M000
M000
M000
M000
,
M000
M000
M000
M000
M000
M000
M000
M000
,
M320
000M
000M
000M
000M
000M
000M
003M
,
000M
0000
000M
0000
000M
0000
1000
0001
0100
0001
0100
0001
0100
0001
0100
0001
,
1000
1000
0100
0000
0000
1000
1001
1000
,
0020
0130
0002
0013
0200
0310
0002
1003
,
0010
0010
0100
0000
0000
0010
0110
0000
,
1000
0000
1000
0000
0001
0000
0010
0100
1000
0000
0010
0000
0110
0000
0000
0000
,
1000
1000
0010
0000
0000
0100
0110
0000
,
0001
0001
2000
3001
0020
0031
0200
0310
,
1000
1000
0001
0000
0000
0010
0110
0000
,
1000
0000
1000
0000
0001
0000
0100
0010
1000
0000
0100
0000
0110
0000
0000
0000
,
1000
1000
0100
0000
0000
1000
1001
1000
,
0020
0130
0002
0013
0200
0310
0002
1003
,
0010
0010
0100
0000
0000
0010
0110
0000
,
1000
0000
1000
0000
0001
0000
0010
0100
1000
0000
0010
0000
0110
0000
0000
0000
,
1000
1000
0010
0000
0000
0100
0110
0000
,
0001
0000
0001
0000
1000
0000
0010
0100
0001
0000
0010
0000
0110
0000
0000
0000
,
0001
0001
0100
0000
0000
0010
0110
0000
,
1000
0000
1000
0000
0001
0000
0100
0001
0100
0001
0100
0001
0100
0001
0100
0001
,
1000
0100
0010
0200
0000
0000
2300
0000
,
3001
0100
0010
2000
0000
0000
0000
0000
,
3001
0010
0100
0020
0000
0000
0032
0000
,
1003
0010
0100
0002
0000
0000
0000
0000
,
1003
0100
0010
0200
0000
0000
2300
0000
,
3001
0100
0010
2000
0000
0000
0000
0000
,
3001
0010
0100
0020
0000
0000
0032
0000
,
1003
0010
0100
0002
0000
0000
0000
0000
,
1003
0100
0010
0200
0000
0000
2300
0000
,
3001
0100
0010
2000
0000
0000
0000
0000
,
3001
0010
0100
0020
0000
0000
0032
0000
,
1003
0010
0100
0002
0000
0000
0000
0000
,
1003
0100
0010
0200
0000
0000
2300
0000
,
3001
0100
0010
2000
0000
0000
0000
0000
,
3001
0010
0100
0020
0000
0000
0032
0000
,
1003
0000
1000
0000
0001
0000
0100
0001
0100
0001
0100
0001
0100
0001
0100
0001
,
1000
2000
0000
3001
0010
0100
0010
0001
,
0100
0200
0000
0310
1000
0001
0020
0030
,
0001
0002
0000
1003
0100
0010
0100
1000
,
0010
0020
0000
0130
0001
1000
0200
0300
,
1000
2000
0000
3001
0010
0100
0010
0001
,
0100
0200
0000
0310
1000
0001
0020
0030
,
0001
0002
0000
1003
0100
0010
0100
1000
,
0001
0100
0010
1000
0M01
0000
0M01
0000
,
1000
2000
0000
3001
0010
0100
0010
0001
,
0100
0200
0000
0310
1000
0001
0020
0030
,
0001
0002
0000
1003
0100
0010
0100
1000
,
0010
0020
0000
0130
0001
1000
0200
0300
,
1000
2000
0000
3001
0010
0100
0010
0001
,
0100
0200
0000
0310
1000
0001
0020
0030
,
0004
0000
0000
0000
0000
0000
0000
0003
,
0040
0000
0000
0000
0000
0000
0000
0030
,
0001
0001
1000
0000
0000
0010
1000
0000
,
0001
0000
0001
0000
1000
0000
0001
1000
0001
0000
1000
0000
0010
0000
0000
0000
,
1000
1000
0001
0000
0000
0010
0001
0000
,
1000
0000
1000
0000
0001
0000
1000
0001
1000
0000
0001
0000
0010
0000
0000
0000
,
0001
0001
1000
0000
0000
0100
1000
0000
,
0001
0000
0001
0000
1000
0000
0001
1000
0001
0000
1000
0000
0100
0000
0000
0000
,
1000
1000
0001
0000
0000
0100
0001
0010
,
0100
0000
0000
1000
0000
0000
0001
0000
0000
0100
0000
0000
0010
0000
1000
0000
0001
0000
0010
0000
0100
0000
1000
0000
,
0001
0001
1000
0000
0000
0010
1000
0000
,
0001
0000
0001
0000
1000
0000
0001
1000
0001
0000
1000
0000
0010
0000
0000
0000
,
1000
1000
0001
0000
0000
0010
0001
0000
,
1000
0000
1000
0000
0001
0000
1000
0001
1000
0000
0001
0000
0010
0000
0000
0000
,
0001
0001
1000
0000
0000
0100
1000
0000
,
0001
0000
0001
0000
1000
0000
0001
1000
0001
0000
1000
0000
0100
0000
0000
0000
,
1000
1000
0001
0000
0000
0100
0001
0000
,
1000
0000
1000
0000
0001
0000
1000
0001
1000
0000
0001
0000
0100
0000
0000
0000
,
0001
0001
1000
0000
0000
0010
1000
0000
,
0001
0000
0001
0000
1000
0000
0001
1000
0001
0000
1000
0000
0010
0000
0000
0000
,
1000
1000
0001
0000
0000
0010
0001
0000
,
1000
0000
1000
0000
0010
0000
0100
0001
0100
0001
0100
0001
1000
0000
0001
0000
,
M200
M000
M000
M000
M000
M000
M000
M000
,
M000
M000
M000
M000
M000
M000
M000
M000
,
M320
000M
000M
000M
000M
000M
000M
003M
,
000M
0000
000M
0000
000M
0000
1000
0001
0100
0001
0100
0001
0100
0001
0100
0001
,
1000
1000
0100
0000
0000
1000
1001
1000
,
0020
0130
0002
0013
0200
0310
0002
1003
,
0010
0010
0100
0000
0000
0010
0110
0000
,
1000
0000
1000
0000
0001
0000
0010
0100
1000
0000
0010
0000
0110
0000
0000
0000
,
1000
1000
0010
0000
0000
0100
0110
0000
,
0001
0001
2000
3001
0020
0031
0200
0310
,
1000
1000
0100
0000
0000
0010
0110
0000
,
1000
0000
1000
0000
0001
0000
0100
0010
1000
0000
0100
0000
0110
0000
0000
0000
,
1000
1000
0100
0000
0000
1000
1001
1000
,
0020
0130
0002
0013
0200
0310
0002
1003
,
0010
0010
0100
0000
0000
0010
0110
0000
,
1000
0000
1000
0000
0001
0000
0010
0100
1000
0000
0010
0000
0110
0000
0000
0000
,
1000
1000
0010
0000
0000
0100
0110
0000
,
0001
0000
0001
0000
1000
0000
0010
0100
0001
0000
0010
0000
0110
0000
0000
0000
,
0001
0001
0100
0000
0000
0010
0110
0000
,
1000
0000
1000
0000
0001
0000
0100
0001
0100
0001
0100
0001
0100
0001
0100
0001
,
1000
0100
0010
0200
0000
0000
2300
0000
,
3001
0100
0010
2000
0000
0000
0000
0000
,
3001
0010
0100
0020
0000
0000
0032
0000
,
1003
0010
0100
0002
0000
0000
0000
0000
,
1003
0100
0010
0200
0000
0000
2300
0000
,
3001
0100
0010
2000
0000
0000
0000
0000
,
3001
0010
0100
0020
0000
0000
0032
0000
,
1003
0010
0100
0002
0000
0000
0000
0000
,
1003
0100
0010
0200
0000
0000
2300
0000
,
3001
0100
0010
2000
0000
0000
0000
0000
,
3001
0010
0100
0020
0000
0000
0032
0000
,
1003
0010
0100
0002
0000
0000
0000
0000
,
1003
0100
0010
0200
0000
0000
2300
0000
,
3001
0100
0010
2000
0000
0000
0000
0000
,
3001
0010
0100
0020
0000
0000
0032
0000
,
1003
0000
1000
0000
0001
0000
0100
0001
0100
0001
0100
0001
0100
0001
0100
0001
,
1000
1000
0100
0000
0000
0010
0110
0000
,
0001
0000
0001
0000
0010
0000
0100
1000
0001
0000
0100
0000
0110
0000
0000
0000
,
0010
0010
0100
0000
0000
0010
0110
0000
,
1000
0000
1000
0000
0001
0000
0010
0100
1000
0000
0010
0000
0110
0000
0000
0000
,
1000
1000
0010
0000
0000
0100
0110
0000
,
0001
0000
0001
0000
0010
0000
0100
1000
0001
0000
0100
0000
0110
0000
0000
0000
,
1000
1000
0100
0000
0000
0010
0110
0000
,
1000
0000
1000
0000
0001
0000
0100
0010
1000
0000
0100
0000
0110
0000
0000
0000
,
1000
1000
0100
0000
0000
0010
0110
0000
,
0001
0000
0001
0000
0010
0000
0100
1000
0001
0000
0100
0000
0110
0000
0000
0000
,
0010
0010
0100
0000
0000
0010
0110
0000
,
1000
0000
1000
0000
0001
0000
0010
0100
1000
0000
0010
0000
0110
0000
0000
0000
,
1000
1000
0010
0000
0000
0100
0110
0000
,
0001
0000
0001
0000
0010
0000
0100
1000
0001
0000
0100
0000
0110
0000
0000
0000
,
1000
1000
0100
0000
0000
0010
0110
0000
,
1000
0000
1000
0000
0001
0000
0100
0001
0100
0001
0100
0001
0100
0001
0100
0001
,
1000
0100
0010
0200
0000
0000
2300
0000
,
3001
0100
0010
2000
0000
0000
0000
0000
,
3001
0010
0100
0020
0000
0000
0032
0000
,
1003
0010
0100
0002
0000
0000
0000
0000
,
1003
0100
0010
0200
0000
0000
2300
0000
,
3001
0100
0010
2000
0000
0000
0000
0000
,
3001
0010
0100
0020
0000
0000
0032
0000
,
1003
0010
0100
0002
0000
0000
0000
0000
,
1003
0100
0010
0200
0000
0000
2300
0000
,
3001
0100
0010
2000
0000
0000
0000
0000
,
3001
0010
0100
0020
0000
0000
0032
0000
,
1003
0010
0100
0002
0000
0000
0000
0000
,
1003
0100
0010
0200
0000
0000
2300
0000
,
3001
0100
0010
2000
0000
0000
0000
0000
,
3001
0010
0100
0020
0000
0000
0032
0000
,
1003
0000
1000
0000
0001
0000
0100
0001
0100
0001
0100
0001
0100
0001
0100
0001
,
2000
0000
0000
0000
,
0000
0000
0000
3000
;

//---------------dance-single - I. Pyles----------------
#NOTES:
     dance-single:
     I. Pyles:
     Medium:
     12:
     0.951,0.901,0.168,0.082,0.688,1871.000,49.000,24.000,56.000,0.000:










0000
0000
0000
0000
,
1000
1000
0100
0000
0000
0010
0110
0000
,
0001
0000
0001
0000
1000
0000
0100
0010
0001
0000
0100
0000
0110
0000
0000
0000
,
0001
0001
0010
0000
0000
0100
0110
0000
,
1000
0000
1000
0000
0001
0000
0010
0100
1000
0000
0010
0000
0110
0000
0000
0000
,
1000
1000
0010
0000
0000
0100
0110
0000
,
0001
0000
0001
0000
1000
0000
0010
0100
0001
0000
0010
0000
0110
0000
0000
0000
,
0001
0001
0100
0000
0000
0010
0110
0000
,
1000
0000
1000
0000
0001
0000
0010
0001
1000
0001
1000
0100
0010
0001
0100
0001
,
1000
1000
0010
0000
0000
0100
0110
0000
,
0001
0000
0001
0000
1000
0000
0010
0100
0001
0000
0010
0000
0110
0000
0000
0000
,
0001
0001
0100
0000
0000
0010
0110
0000
,
1000
0000
1000
0000
0001
0000
0100
0010
1000
0000
0100
0000
0110
0000
0000
0000
,
1000
1000
0100
0000
0000
0010
0110
0000
,
0001
0000
0001
0000
1000
0000
0100
0010
0001
0000
0100
0000
0110
0000
0000
0000
,
0001
0000
0001
0000
0010
0000
0000
0100
1000
0001
1000
0000
0010
0000
0000
0000
,
0100
0000
0100
0000
0010
0000
0100
0001
0100
0010
1000
0001
0010
0100
1000
0001
,
1000
0000
1000
0000
0010
0000
1000
0001
1000
0100
1000
0000
0010
0000
1000
0001
,
0010
0000
0010
0000
0100
0000
0010
0001
1000
0001
0010
0000
0100
0000
0010
0000
,
0001
0000
0001
0000
0010
0000
0001
1000
0001
0100
0001
0000
0010
0000
0001
1000
,
0010
0000
0010
0000
0100
0000
0010
1000
0001
1000
0010
0000
0100
0000
0010
0000
,
1000
0000
1000
0000
0100
0000
1000
0001
1000
0010
1000
0000
0100
0000
1000
0001
,
0100
0000
0100
0000
0010
0000
0100
0001
1000
0001
0100
0000
0010
0000
0100
0000
,
0001
0000
0001
0000
0100
0000
0001
1000
0001
0010
0001
0000
0100
0000
0001
1000
,
0100
0000
0100
0000
0010
0000
0100
1000
0001
1000
0100
0000
0010
0000
0100
0000
,
1000
0000
1000
0000
0010
0000
1000
0001
1000
0100
1000
0000
0010
0000
1000
0001
,
0010
0000
0010
0000
0100
0000
0010
0001
1000
0001
0010
0000
0100
0000
0010
0000
,
0001
0000
0001
0000
0010
0000
0001
1000
0001
0100
0001
0000
0010
0000
0001
1000
,
0010
0000
0010
0000
0100
0000
0010
1000
0001
1000
0010
0000
0100
0000
0010
0000
,
1000
0000
1000
0000
0100
0000
1000
0001
1000
0010
1000
0000
0100
0000
1000
0001
,
0100
0000
0100
0000
0010
0000
0100
0001
1000
0001
0100
0000
0010
0000
0100
0000
,
0001
0000
0001
0000
0100
0000
0001
1000
0001
0010
0001
0000
0100
0000
0001
1000
,
0100
0000
0100
0000
0010
0000
0100
1000
0100
0010
0001
1000
0010
0100
0001
1000
,
0100
0000
0100
0000
0010
0000
0001
1000
0100
1000
0001
0000
0010
0000
0100
1000
,
0001
0000
0001
0000
0100
0000
0010
1000
0001
1000
0010
0000
0100
0000
0001
0000
,
0010
0000
0010
0000
0100
0000
1000
0001
0010
0001
1000
0000
0100
0000
0010
0001
,
1000
0000
1000
0000
0010
0000
0100
0001
1000
0001
0100
0000
0010
0000
1000
0000
,
0100
0000
0100
0000
0010
0000
0001
1000
0100
1000
0001
0000
0010
0000
0100
1000
,
0001
0000
0001
0000
0100
0000
0010
1000
0001
1000
0010
0000
0100
0000
0001
0000
,
0010
0000
0010
0000
0100
0000
1000
0001
0010
0001
1000
0000
0100
0000
0010
0001
,
1000
0000
1000
0000
0010
0000
0100
0001
1000
0001
0100
0000
0010
0000
1000
0000
,
0001
0000
0001
0000
0100
0000
0001
1000
0001
0010
0001
0000
0100
0000
0001
1000
,
0100
0000
0100
0000
0010
0000
0100
1000
0001
1000
0100
0000
0010
0000
0100
0000
,
1000
0000
1000
0000
0100
0000
1000
0001
1000
0010
1000
0000
0100
0000
1000
0001
,
0100
0000
0100
0000
0010
0000
0100
0001
1000
0001
0100
0000
0010
0000
0100
0000
,
0001
0000
0001
0000
0010
0000
0001
1000
0001
0100
0001
0000
0010
0000
0001
1000
,
0010
0000
0010
0000
0100
0000
0010
1000
0001
1000
0010
0000
0100
0000
0010
0000
,
1000
0000
1000
0000
0010
0000
1000
0001
1000
0100
1000
0000
0010
0000
1000
0001
,
0010
0000
0010
0000
0100
0000
0010
0001
0010
0100
1000
0001
0100
0010
1000
0001
,
1000
1000
0100
0000
0000
0010
0110
0000
,
0001
0000
0001
0000
1000
0000
0100
0010
0001
0000
0100
0000
0110
0000
0000
0000
,
0001
0001
0010
0000
0000
0100
0110
0000
,
1000
0000
1000
0000
0001
0000
0010
0100
1000
0000
0010
0000
0110
0000
0000
0000
,
0001
0001
0010
0000
0000
0100
0110
0000
,
1000
0000
1000
0000
0001
0000
0010
0100
1000
0000
0010
0000
0110
0000
0000
0000
,
1000
1000
0100
0000
0000
0010
0110
0000
,
0010
0000
0000
0010
0000
0000
0100
0000
0000
1000
0000
0000
0001
0000
0100
0000
0010
0000
0100
0000
0001
0000
1000
0000
,
0001
0001
0010
0000
0000
0100
0110
0000
,
1000
0000
1000
0000
0001
0000
0010
0100
1000
0000
0010
0000
0110
0000
0000
0000
,
1000
1000
0100
0000
0000
0010
0110
0000
,
0001
0000
0001
0000
1000
0000
0100
0010
0001
0000
0100
0000
0110
0000
0000
0000
,
0001
0001
0100
0000
0000
0010
0110
0000
,
1000
0000
1000
0000
0001
0000
0100
0010
1000
0000
0100
0000
0110
0000
0000
0000
,
1000
1000
0010
0000
0000
0100
0110
0000
,
0001
0000
0001
0000
1000
0000
0010
0100
0001
0000
0010
0000
0110
0000
0000
0000
,
1000
1000
0100
0000
0000
0010
0110
0000
,
0001
0000
0001
0000
1000
0000
0100
0010
0001
0000
0100
0000
0110
0000
0000
0000
,
0001
0001
0010
0000
0000
0100
0110
0000
,
1000
0000
1000
0000
0010
0000
0100
0001
1000
0001
0100
0010
1000
0000
0001
0000
,
M200
M000
M000
M000
M000
M000
M000
M000
,
M000
M000
M000
M000
M000
M000
M000
M000
,
M320
000M
000M
000M
000M
000M
000M
003M
,
000M
0000
000M
0000
000M
0000
1000
0001
0100
0010
1000
0100
0010
0001
0100
0010
,
1000
0000
1000
0000
0010
0000
1000
0001
1000
0100
1000
0000
0010
0000
1000
0001
,
0010
0000
0010
0000
0100
0000
0010
0001
1000
0001
0010
0000
0100
0000
0010
0000
,
0001
0000
0001
0000
0010
0000
0001
1000
0001
0100
0001
0000
0010
0000
0001
1000
,
0010
0000
0010
0000
0100
0000
0010
1000
0001
1000
0010
0000
0100
0000
0010
0000
,
1000
0000
1000
0000
0100
0000
1000
0001
1000
0010
1000
0000
0100
0000
1000
0001
,
0100
0000
0100
0000
0010
0000
0100
0001
1000
0001
0100
0000
0010
0000
0100
0000
,
0001
0000
0001
0000
0100
0000
0001
1000
0001
0010
0001
0000
0100
0000
0001
1000
,
0100
0000
0100
0000
0010
0000
0100
1000
0001
1000
0100
0000
0010
0000
0100
0000
,
1000
0000
1000
0000
0010
0000
1000
0001
1000
0100
1000
0000
0010
0000
1000
0001
,
0010
0000
0010
0000
0100
0000
0010
0001
1000
0001
0010
0000
0100
0000
0010
0000
,
0001
0000
0001
0000
0010
0000
0001
1000
0001
0100
0001
0000
0010
0000
0001
1000
,
0010
0000
0010
0000
0100
0000
0010
1000
0001
1000
0010
0000
0100
0000
0010
0000
,
1000
0000
1000
0000
0010
0000
1000
0001
1000
0100
1000
0000
0010
0000
1000
0001
,
0010
0000
0010
0000
0100
0000
0010
0001
1000
0001
0010
0000
0100
0000
0010
0000
,
0001
0000
0001
0000
0010
0000
0001
1000
0001
0100
0001
0000
0010
0000
0001
1000
,
0010
0000
0010
0000
0100
0000
0010
1000
0010
0100
0001
1000
0100
0010
0001
1000
,
0100
0000
0100
0000
0010
0000
0001
1000
0100
1000
0001
0000
0010
0000
0100
1000
,
0001
0000
0001
0000
0100
0000
0010
1000
0001
1000
0010
0000
0100
0000
0001
0000
,
0010
0000
0010
0000
0100
0000
1000
0001
0010
0001
1000
0000
0100
0000
0010
0001
,
1000
0000
1000
0000
0010
0000
0100
0001
1000
0001
0100
0000
0010
0000
1000
0000
,
0100
0000
0100
0000
0010
0000
0001
1000
0100
1000
0001
0000
0010
0000
0100
1000
,
0001
0000
0001
0000
0100
0000
0010
1000
0001
1000
0010
0000
0100
0000
0001
0000
,
0010
0000
0010
0000
0100
0000
1000
0001
0010
0001
1000
0000
0100
0000
0010
0001
,
1000
0000
1000
0000
0010
0000
0100
0001
1000
0001
0100
0000
0010
0000
1000
0000
,
0100
0000
0100
0000
0010
0000
0001
1000
0100
1000
0001
0000
0010
0000
0100
1000
,
0001
0000
0001
0000
0100
0000
0010
1000
0001
1000
0010
0000
0100
0000
0001
0000
,
0010
0000
0010
0000
0100
0000
1000
0001
0010
0001
1000
0000
0100
0000
0010
0001
,
1000
0000
1000
0000
0010
0000
0100
0001
1000
0001
0100
0000
0010
0000
1000
0000
,
0100
0000
0100
0000
0010
0000
0001
1000
0100
1000
0001
0000
0010
0000
0100
1000
,
0001
0000
0001
0000
0100
0000
0010
1000
0001
1000
0010
0000
0100
0000
0001
0000
,
1000
0000
1000
0000
0100
0000
1000
0001
1000
0010
1000
0000
0100
0000
1000
0001
,
0100
0000
0100
0000
0010
0000
0100
0001
0100
0010
1000
0001
0010
0100
1000
0001
,
1000
2000
0000
3001
0010
0100
0010
0001
,
0100
0200
0000
0310
1000
0001
0020
0030
,
0001
0002
0000
1003
0100
0010
0100
1000
,
0010
0020
0000
0130
0001
1000
0200
0300
,
1000
2000
0000
3001
0010
0100
0010
0001
,
0100
0200
0000
0310
1000
0001
0020
0030
,
0001
0002
0000
1003
0100
0010
0100
1000
,
0001
0100
0010
1000
0M01
0000
0M01
0000
,
1000
2000
0000
3001
0010
0100
0010
0001
,
0100
0200
0000
0310
1000
0001
0020
0030
,
0001
0002
0000
1003
0100
0010
0100
1000
,
0010
0020
0000
0130
0001
1000
0200
0300
,
1000
2000
0000
3001
0010
0100
0010
0001
,
0100
0200
0000
0310
1000
0001
0020
0030
,
0004
0000
0000
0000
0000
0000
0000
0003
,
0040
0000
0000
0000
0000
0000
0000
0030
,
0001
0001
0010
0000
0000
0100
0110
0000
,
1000
0000
1000
0000
0001
0000
0010
0100
1000
0000
0010
0000
0110
0000
0000
0000
,
1000
1000
0100
0000
0000
0010
0110
0000
,
0001
0000
0001
0000
1000
0000
0100
0010
0001
0000
0100
0000
0110
0000
0000
0000
,
1000
1000
0100
0000
0000
0010
0110
0000
,
0001
0000
0001
0000
1000
0000
0100
0010
0001
0000
0100
0000
0110
0000
0000
0000
,
0001
0001
0010
0000
0000
0100
0110
0000
,
0100
0000
0000
0100
0000
0000
0010
0000
0000
0001
0000
0000
1000
0000
0010
0000
0100
0000
0010
0000
1000
0000
0001
0000
,
1000
1000
0100
0000
0000
0010
0110
0000
,
0001
0000
0001
0000
1000
0000
0100
0010
0001
0000
0100
0000
0110
0000
0000
0000
,
0001
0001
0010
0000
0000
0100
0110
0000
,
1000
0000
1000
0000
0001
0000
0010
0100
1000
0000
0010
0000
0110
0000
0000
0000
,
1000
1000
0010
0000
0000
0100
0110
0000
,
0001
0000
0001
0000
1000
0000
0010
0100
0001
0000
0010
0000
0110
0000
0000
0000
,
0001
0001
0100
0000
0000
0010
0110
0000
,
1000
0000
1000
0000
0001
0000
0100
0010
1000
0000
0100
0000
0110
0000
0000
0000
,
0001
0001
0010
0000
0000
0100
0110
0000
,
1000
0000
1000
0000
0001
0000
0010
0100
1000
0000
0010
0000
0110
0000
0000
0000
,
1000
1000
0100
0000
0000
0010
0110
0000
,
0001
0000
0001
0000
0100
0000
0010
1000
0001
1000
0010
0100
0001
0000
1000
0000
,
020M
000M
000M
000M
000M
000M
000M
000M
,
000M
000M
000M
000M
000M
000M
000M
000M
,
032M
M000
M000
M000
M000
M000
M000
M000
,
M000
0000
M000
0000
M030
0000
0001
1000
0010
0100
0001
0010
0100
1000
0010
0100
,
0001
0000
0001
0000
0100
0000
0001
1000
0001
0010
0001
0000
0100
0000
0001
1000
,
0100
0000
0100
0000
0010
0000
0100
1000
0001
1000
0100
0000
0010
0000
0100
0000
,
1000
0000
1000
0000
0100
0000
1000
0001
1000
0010
1000
0000
0100
0000
1000
0001
,
0100
0000
0100
0000
0010
0000
0100
0001
1000
0001
0100
0000
0010
0000
0100
0000
,
0001
0000
0001
0000
0010
0000
0001
1000
0001
0100
0001
0000
0010
0000
0001
1000
,
0010
0000
0010
0000
0100
0000
0010
1000
0001
1000
0010
0000
0100
0000
0010
0000
,
1000
0000
1000
0000
0010
0000
1000
0001
1000
0100
1000
0000
0010
0000
1000
0001
,
0010
0000
0010
0000
0100
0000
0010
0001
1000
0001
0010
0000
0100
0000
0010
0000
,
0001
0000
0001
0000
0100
0000
0001
1000
0001
0010
0001
0000
0100
0000
0001
1000
,
0100
0000
0100
0000
0010
0000
0100
1000
0001
1000
0100
0000
0010
0000
0100
0000
,
1000
0000
1000
0000
0100
0000
1000
0001
1000
0010
1000
0000
0100
0000
1000
0001
,
0100
0000
0100
0000
0010
0000
0100
0001
1000
0001
0100
0000
0010
0000
0100
0000
,
0001
0000
0001
0000
0100
0000
0001
1000
0001
0010
0001
0000
0100
0000
0001
1000
,
0100
0000
0100
0000
0010
0000
0100
1000
0001
1000
0100
0000
0010
0000
0100
0000
,
1000
0000
1000
0000
0100
0000
1000
0001
1000
0010
1000
0000
0100
0000
1000
0001
,
0100
0000
0100
0000
0010
0000
0100
0001
0100
0010
1000
0001
0010
0100
1000
0001
,
1000
0000
1000
0000
0010
0000
1000
0001
1000
0100
1000
0000
0010
0000
1000
0001
,
0010
0000
0010
0000
0100
0000
0010
0001
1000
0001
0010
0000
0100
0000
0010
0000
,
0001
0000
0001
0000
0010
0000
0001
1000
0001
0100
0001
0000
0010
0000
0001
1000
,
0010
0000
0010
0000
0100
0000
0010
1000
0001
1000
0010
0000
0100
0000
0010
0000
,
1000
0000
1000
0000
0100
0000
1000
0001
1000
0010
1000
0000
0100
0000
1000
0001
,
0100
0000
0100
0000
0010
0000
0100
0001
1000
0001
0100
0000
0010
0000
0100
0000
,
0001
0000
0001
0000
0100
0000
0001
1000
0001
0010
0001
0000
0100
0000
0001
1000
,
0100
0000
0100
0000
0010
0000
0100
1000
0001
1000
0100
0000
0010
0000
0100
0000
,
1000
0000
1000
0000
0010
0000
1000
0001
1000
0100
1000
0000
0010
0000
1000
0001
,
0010
0000
0010
0000
0100
0000
0010
0001
1000
0001
0010
0000
0100
0000
0010
0000
,
0001
0000
0001
0000
0010
0000
0001
1000
0001
0100
0001
0000
0010
0000
0001
1000
,
0010
0000
0010
0000
0100
0000
0010
1000
0001
1000
0010
0000
0100
0000
0010
0000
,
1000
0000
1000
0000
0010
0000
1000
0001
1000
0100
1000
0000
0010
0000
1000
0001
,
0010
0000
0010
0000
0100
0000
0010
0001
1000
0001
0010
0000
0100
0000
0010
0000
,
0001
0000
0001
0000
0010
0000
0001
1000
0001
0100
0001
0000
0010
0000
0001
1000
,
0010
0000
0010
0000
0100
0000
0010
1000
0010
0100
0001
1000
0100
0010
0001
1000
,
0001
0000
0001
0000
0100
0000
0001
1000
0001
0010
0001
0000
0100
0000
0001
1000
,
0100
0000
0100
0000
0010
0000
0100
1000
0001
1000
0100
0000
0010
0000
0100
0000
,
1000
0000
1000
0000
0100
0000
1000
0001
1000
0010
1000
0000
0100
0000
1000
0001
,
0100
0000
0100
0000
0010
0000
0100
0001
1000
0001
0100
0000
0010
0000
0100
0000
,
0001
0000
0001
0000
0010
0000
0001
1000
0001
0100
0001
0000
0010
0000
0001
1000
,
0010
0000
0010
0000
0100
0000
0010
1000
0001
1000
0010
0000
0100
0000
0010
0000
,
1000
0000
1000
0000
0010
0000
1000
0001
1000
0100
1000
0000
0010
0000
1000
0001
,
0010
0000
0010
0000
0100
0000
0010
0001
1000
0001
0010
0000
0100
0000
0010
0000
,
0001
0000
0001
0000
0100
0000
0001
1000
0001
0010
0001
0000
0100
0000
0001
1000
,
0100
0000
0100
0000
0010
0000
0100
1000
0001
1000
0100
0000
0010
0000
0100
0000
,
1000
0000
1000
0000
0100
0000
1000
0001
1000
0010
1000
0000
0100
0000
1000
0001
,
0100
0000
0100
0000
0010
0000
0100
0001
1000
0001
0100
0000
0010
0000
0100
0000
,
0001
0000
0001
0000
0100
0000
0001
1000
0001
0010
0001
0000
0100
0000
0001
1000
,
0100
0000
0100
0000
0010
0000
0100
1000
0001
1000
0100
0000
0010
0000
0100
0000
,
1000
0000
1000
0000
0100
0000
1000
0001
1000
0010
1000
0000
0100
0000
1000
0001
,
0100
0000
0100
0000
0010
0000
0100
0001
0100
0010
1000
0001
0010
0100
1000
0001
,
1000
0000
1000
0000
0010
0000
1000
0001
1000
0100
1000
0000
0010
0000
1000
0001
,
0010
0000
0010
0000
0100
0000
0010
0001
1000
0001
0010
0000
0100
0000
0010
0000
,
0001
0000
0001
0000
0010
0000
0001
1000
0001
0100
0001
0000
0010
0000
0001
1000
,
0010
0000
0010
0000
0100
0000
0010
1000
0001
1000
0010
0000
0100
0000
0010
0000
,
1000
0000
1000
0000
0100
0000
1000
0001
1000
0010
1000
0000
0100
0000
1000
0001
,
0100
0000
0100
0000
0010
0000
0100
0001
1000
0001
0100
0000
0010
0000
0100
0000
,
0001
0000
0001
0000
0100
0000
0001
1000
0001
0010
0001
0000
0100
0000
0001
1000
,
0100
0000
0100
0000
0010
0000
0100
1000
0001
1000
0100
0000
0010
0000
0100
0000
,
1000
0000
1000
0000
0010
0000
1000
0001
1000
0100
1000
0000
0010
0000
1000
0001
,
0010
0000
0010
0000
0100
0000
0010
0001
1000
0001
0010
0000
0100
0000
0010
0000
,
0001
0000
0001
0000
0010
0000
0001
1000
0001
0100
0001
0000
0010
0000
0001
1000
,
0010
0000
0010
0000
0100
0000
0010
1000
0001
1000
0010
0000
0100
0000
0010
0000
,
1000
0000
1000
0000
0010
0000
1000
0001
1000
0100
1000
0000
0010
0000
1000
0001
,
0010
0000
0010
0000
0100
0000
0010
0001
1000
0001
0010
0000
0100
0000
0010
0000
,
0001
0000
0001
0000
0010
0000
0001
1000
0001
0100
0001
0000
0010
0000
0001
1000
,
0010
0000
0010
0000
0100
0000
0010
1000
0010
0100
0001
1000
0100
0010
0001
1000
,
0002
0000
0000
0000
,
0000
0000
0000
0003
;

//---------------dance-single - I. Pyles----------------
#NOTES:
     dance-single:
     I. Pyles:
     Hard:
     13:
     1.000,1.000,0.000,0.017,1.000,2318.000,0.000,5.000,56.000,0.000:













0000
0000
0000
0000
,
0001
0000
0001
0000
0100
0000
0001
1000
0001
0010
0001
0000
0100
0000
0001
1000
,
0100
0000
0100
0000
0010
0000
0100
1000
0001
1000
0100
0000
0010
0000
0100
0000
,
1000
0000
1000
0000
0100
0000
1000
0001
1000
0010
1000
0000
0100
0000
1000
0001
,
0100
0000
0100
0000
0010
0000
0100
0001
1000
0001
0100
0000
0010
0000
0100
0000
,
0001
0000
0001
0000
0010
0000
0001
1000
0001
0100
0001
0000
0010
0000
0001
1000
,
0010
0000
0010
0000
0100
0000
0010
1000
0001
1000
0010
0000
0100
0000
0010
0000
,
1000
0000
1000
0000
0010
0000
1000
0001
1000
0100
1000
0000
0010
0000
1000
0001
,
0010
0000
0010
0000
0100
0000
0010
0001
0010
0100
1000
0001
0100
0010
1000
0001
,
0010
0000
0010
0000
0100
0000
1000
0001
0010
0001
1000
0000
0100
0000
0010
0001
,
1000
0000
1000
0000
0010
0000
0100
0001
1000
0001
0100
0000
0010
0000
1000
0000
,
0100
0000
0100
0000
0010
0000
0001
1000
0100
1000
0001
0000
0010
0000
0100
1000
,
0001
0000
0001
0000
0100
0000
0010
1000
0001
1000
0010
0000
0100
0000
0001
0000
,
0010
0000
0010
0000
0100
0000
1000
0001
0010
0001
1000
0000
0100
0000
0010
0001
,
1000
0000
1000
0000
0010
0000
0100
0001
1000
0001
0100
0000
0010
0000
1000
0000
,
0100
0000
0100
0000
0010
0000
0000
0001
0100
0001
1000
0000
0100
0000
0000
0000
,
1000
0000
1000
0000
0010
0000
0100
0001
0100
0010
1000
0100
0010
0001
0100
0010
,
1000
0000
1000
0000
0010
0000
1000
0001
1000
0100
1000
0000
0010
0000
1000
0001
,
0010
0000
0010
0000
0100
0000
0010
0001
1000
0001
0010
0000
0100
0000
0010
0000
,
0001
0000
0001
0000
0010
0000
0001
1000
0001
0100
0001
0000
0010
0000
0001
1000
,
0010
0000
0010
0000
0100
0000
0010
1000
0001
1000
0010
0000
0100
0000
0010
0000
,
1000
0000
1000
0000
0100
0000
1000
0001
1000
0010
1000
0000
0100
0000
1000
0001
,
0100
0000
0100
0000
0010
0000
0100
0001
1000
0001
0100
0000
0010
0000
0100
0000
,
0001
0000
0001
0000
0100
0000
0001
1000
0001
0010
0001
0000
0100
0000
0001
1000
,
0100
0000
0100
0000
0010
0000
0100
1000
0001
1000
0100
0000
0010
0000
0100
0000
,
1000
0000
1000
0000
0010
0000
1000
0001
1000
0100
1000
0000
0010
0000
1000
0001
,
0010
0000
0010
0000
0100
0000
0010
0001
1000
0001
0010
0000
0100
0000
0010
0000
,
0001
0000
0001
0000
0010
0000
0001
1000
0001
0100
0001
0000
0010
0000
0001
1000
,
0010
0000
0010
0000
0100
0000
0010
1000
0001
1000
0010
0000
0100
0000
0010
0000
,
1000
0000
1000
0000
0100
0000
1000
0001
1000
0010
1000
0000
0100
0000
1000
0001
,
0100
0000
0100
0000
0010
0000
0100
0001
1000
0001
0100
0000
0010
0000
0100
0000
,
0001
0000
0001
0000
0100
0000
0001
1000
0001
0010
0001
0000
0100
0000
0001
1000
,
0100
0000
0100
0000
0010
0000
0100
1000
0100
0010
0001
1000
0010
0100
0001
1000
,
0100
0000
0100
0000
0010
0000
0001
1000
0100
1000
0001
0000
0010
0000
0100
1000
,
0001
0000
0001
0000
0100
0000
0010
1000
0001
1000
0010
0000
0100
0000
0001
0000
,
0010
0000
0010
0000
0100
0000
1000
0001
0010
0001
1000
0000
0100
0000
0010
0001
,
1000
0000
1000
0000
0010
0000
0100
0001
1000
0001
0100
0000
0010
0000
1000
0000
,
0100
0000
0100
0000
0010
0000
0001
1000
0100
1000
0001
0000
0010
0000
0100
1000
,
0001
0000
0001
0000
0100
0000
0010
1000
0001
1000
0010
0000
0100
0000
0001
0000
,
0010
0000
0010
0000
0100
0000
1000
0001
0010
0001
1000
0000
0100
0000
0010
0001
,
1000
0000
1000
0000
0010
0000
0100
0001
1000
0001
0100
0000
0010
0000
1000
0000
,
0001
0010
0001
1000
0001
0010
0100
1000
0010
0100
0010
1000
0010
0100
0001
1000
,
0100
0010
0100
1000
0100
0010
0100
1000
0100
0010
0100
1000
0100
0010
0100
1000
,
0100
0010
0100
1000
0100
0010
0001
1000
0010
0100
0010
1000
0001
0100
0001
1000
,
0100
0010
0100
1000
0010
0100
0010
1000
0001
0010
0001
1000
0010
0100
0010
1000
,
0100
0010
0100
1000
0100
0010
0100
1000
0100
0010
0100
1000
0100
0010
0100
1000
,
0010
0100
0010
1000
0010
0100
0010
1000
0010
0100
0010
1000
0010
0100
0010
1000
,
0001
0010
0001
1000
0001
0100
0001
1000
0001
0010
0001
1000
0001
0100
0001
1000
,
0001
0010
0001
1000
0001
0100
0010
1000
0010
0100
0001
0010
0100
1000
0010
0100
,
0001
0000
0001
0000
0100
0000
0001
1000
0001
0010
0001
0000
0100
0000
0001
1000
,
0100
0000
0100
0000
0010
0000
0100
1000
0001
1000
0100
0000
0010
0000
0100
0000
,
1000
0000
1000
0000
0100
0000
1000
0001
1000
0010
1000
0000
0100
0000
1000
0001
,
0100
0000
0100
0000
0010
0000
0100
0001
1000
0001
0100
0000
0010
0000
0100
0000
,
0001
0000
0001
0000
0010
0000
0001
1000
0001
0100
0001
0000
0010
0000
0001
1000
,
0010
0000
0010
0000
0100
0000
0010
1000
0001
1000
0010
0000
0100
0000
0010
0000
,
1000
0000
1000
0000
0010
0000
1000
0001
1000
0100
1000
0000
0010
0000
1000
0001
,
0010
0000
0000
0010
0000
0000
0100
0000
0000
1000
0000
0000
0001
0000
0100
0000
0010
0000
0100
0000
0001
0000
1000
0000
,
0100
0000
0100
0000
0010
0000
0001
1000
0100
1000
0001
0000
0010
0000
0100
1000
,
0001
0000
0001
0000
0100
0000
0010
1000
0001
1000
0010
0000
0100
0000
0001
0000
,
0010
0000
0010
0000
0100
0000
1000
0001
0010
0001
1000
0000
0100
0000
0010
0001
,
1000
0000
1000
0000
0010
0000
0100
0001
1000
0001
0100
0000
0010
0000
1000
0000
,
0100
0000
0100
0000
0010
0000
0001
1000
0100
1000
0001
0000
0010
0000
0100
1000
,
0001
0000
0001
0000
0100
0000
0010
1000
0001
1000
0010
0000
0100
0000
0001
0000
,
0010
0000
0010
0000
0100
0000
1000
0001
0010
0001
1000
0000
0100
0000
0010
0001
,
1000
0000
1000
0000
0010
0000
0100
0001
1000
0001
0100
0000
0010
0000
1000
0000
,
0100
0000
0100
0000
0010
0000
0001
1000
0100
1000
0001
0000
0010
0000
0100
1000
,
0001
0000
0001
0000
0100
0000
0010
1000
0001
1000
0010
0000
0100
0000
0001
0000
,
0010
0000
0010
0000
0100
0000
1000
0001
0010
0001
1000
0000
0100
0000
0010
0001
,
1000
0000
1000
0000
0010
0000
0100
0001
1000
0001
0100
0010
1000
0000
0001
0000
,
M200
M000
M000
M000
M000
M000
M000
M000
,
M000
M000
M000
M000
M000
M000
M000
M000
,
M320
000M
000M
000M
000M
000M
000M
003M
,
000M
0000
000M
0000
000M
0000
1000
0001
0100
0010
1000
0100
0010
0001
0100
0010
,
1000
0000
1000
0000
0010
0000
1000
0001
1000
0100
1000
0000
0010
0000
1000
0001
,
0010
0000
0010
0000
0100
0000
0010
0001
1000
0001
0010
0000
0100
0000
0010
0000
,
0001
0000
0001
0000
0010
0000
0001
1000
0001
0100
0001
0000
0010
0000
0001
1000
,
0010
0000
0010
0000
0100
0000
0010
1000
0001
1000
0010
0000
0100
0000
0010
0000
,
1000
0000
1000
0000
0100
0000
1000
0001
1000
0010
1000
0000
0100
0000
1000
0001
,
0100
0000
0100
0000
0010
0000
0100
0001
1000
0001
0100
0000
0010
0000
0100
0000
,
0001
0000
0001
0000
0100
0000
0001
1000
0001
0010
0001
0000
0100
0000
0001
1000
,
0100
0000
0100
0000
0010
0000
0100
1000
0001
1000
0100
0000
0010
0000
0100
0000
,
1000
0000
1000
0000
0010
0000
1000
0001
1000
0100
1000
0000
0010
0000
1000
0001
,
0010
0000
0010
0000
0100
0000
0010
0001
1000
0001
0010
0000
0100
0000
0010
0000
,
0001
0000
0001
0000
0010
0000
0001
1000
0001
0100
0001
0000
0010
0000
0001
1000
,
0010
0000
0010
0000
0100
0000
0010
1000
0001
1000
0010
0000
0100
0000
0010
0000
,
1000
0010
0100
0001
0100
0010
1000
0001
1000
0010
0100
0001
0100
0010
1000
0001
,
1000
0100
0010
0001
0010
0100
1000
0001
1000
0100
0010
0001
0010
0100
1000
0001
,
1000
0010
0100
0001
0100
0010
1000
0001
1000
0010
0100
0001
0100
0010
1000
0001
,
1000
0100
0010
0001
0010
0100
0010
0001
0010
0100
1000
0001
0100
0010
1000
0001
,
0010
0000
0010
0000
0100
0000
1000
0001
0010
0001
1000
0000
0100
0000
0010
0001
,
1000
0000
1000
0000
0010
0000
0100
0001
1000
0001
0100
0000
0010
0000
1000
0000
,
0100
0000
0100
0000
0010
0000
0001
1000
0100
1000
0001
0000
0010
0000
0100
1000
,
0001
0000
0001
0000
0100
0000
0010
1000
0001
1000
0010
0000
0100
0000
0001
0000
,
0010
0000
0010
0000
0100
0000
1000
0001
0010
0001
1000
0000
0100
0000
0010
0001
,
1000
0000
1000
0000
0010
0000
0100
0001
1000
0001
0100
0000
0010
0000
1000
0000
,
0100
0000
0100
0000
0010
0000
0001
1000
0100
1000
0001
0000
0010
0000
0100
1000
,
0001
0000
0001
0000
0100
0000
0010
1000
0001
1000
0010
0000
0100
0000
0001
0000
,
0010
0000
0010
0000
0100
0000
1000
0001
0010
0001
1000
0000
0100
0000
0010
0001
,
1000
0000
1000
0000
0010
0000
0100
0001
1000
0001
0100
0000
0010
0000
1000
0000
,
0100
0000
0100
0000
0010
0000
0001
1000
0100
1000
0001
0000
0010
0000
0100
1000
,
0001
0000
0001
0000
0100
0000
0010
1000
0001
1000
0010
0000
0100
0000
0001
0000
,
0010
0000
0010
0000
0100
0000
1000
0001
0010
0001
1000
0000
0100
0000
0010
0001
,
1000
0000
1000
0000
0010
0000
0100
0001
1000
0001
0100
0000
0010
0000
1000
0000
,
0001
0100
0010
1000
0010
0100
0001
1000
0001
0100
0010
1000
0010
0100
0001
1000
,
0001
0010
0100
1000
0100
0010
0100
1000
0100
0010
0001
0100
0010
1000
0100
0010
,
0001
1000
0001
0010
0001
0010
0100
1000
0001
0100
0001
1000
0100
1000
0001
1000
,
0010
0100
0010
1000
0001
0010
0001
1000
0100
1000
0001
0100
0010
1000
0100
0010
,
0001
1000
0001
0010
0001
0010
0100
1000
0001
0100
0001
1000
0100
1000
0001
1000
,
0010
0100
0010
1000
0010
0100
0001
1000
0010
1000
0001
0010
0100
1000
0010
0100
,
0001
1000
0001
0100
0001
0100
0010
1000
0001
0010
0001
1000
0010
1000
0001
1000
,
0100
0010
0100
1000
0001
0100
0001
1000
0010
1000
0001
0010
0100
1000
0010
0100
,
0001
1000
0001
0100
0001
0100
0010
1000
0001
0010
0001
1000
0010
1000
0001
1000
,
0100
0010
0100
1000
0010
0100
0001
1000
010M
0000
0000
0000
010M
0000
0000
0000
,
1000
0001
1000
0100
1000
0100
0010
0001
1000
0010
1000
0001
0010
0001
1000
0001
,
0100
0010
0100
0001
1000
0100
1000
0001
0010
0001
1000
0010
0100
0001
0010
0100
,
1000
0001
1000
0100
1000
0100
0010
0001
1000
0010
1000
0001
0010
0001
1000
0001
,
0100
0010
0100
0001
0100
0010
1000
0001
0100
0001
1000
0100
0010
0001
1000
0001
,
0100
0010
0100
0001
0100
0010
0100
0001
0100
0010
0100
0001
0100
0010
0100
0001
,
0010
0100
0010
0001
0010
0100
0010
0001
0010
0100
0010
0001
0010
0100
0010
0001
,
4000
0000
0000
0000
0000
0000
0000
3000
,
0400
0000
0000
0000
0000
0000
0000
0300
,
1000
0000
1000
0000
0100
0000
1000
0001
1000
0010
1000
0000
0100
0000
1000
0001
,
0100
0000
0100
0000
0010
0000
0100
0001
1000
0001
0100
0000
0010
0000
0100
0000
,
0001
0000
0001
0000
0100
0000
0001
1000
0001
0010
0001
0000
0100
0000
0001
1000
,
0100
0000
0100
0000
0010
0000
0100
1000
0001
1000
0100
0000
0010
0000
0100
0000
,
1000
0000
1000
0000
0010
0000
1000
0001
1000
0100
1000
0000
0010
0000
1000
0001
,
0010
0000
0010
0000
0100
0000
0010
0001
1000
0001
0010
0000
0100
0000
0010
0000
,
0001
0000
0001
0000
0010
0000
0001
1000
0001
0100
0001
0000
0010
0000
0001
1000
,
0010
0000
0000
0010
0000
0000
0100
0000
0000
0001
0000
0000
1000
0000
0100
0000
0010
0000
0100
0000
1000
0000
0001
0000
,
0100
0000
0100
0000
0010
0000
1000
0001
0100
0001
1000
0000
0010
0000
0100
0001
,
1000
0000
1000
0000
0100
0000
0010
0001
1000
0001
0010
0000
0100
0000
1000
0000
,
0010
0000
0010
0000
0100
0000
0001
1000
0010
1000
0001
0000
0100
0000
0010
1000
,
0001
0000
0001
0000
0010
0000
0100
1000
0001
1000
0100
0000
0010
0000
0001
0000
,
0100
0000
0100
0000
0010
0000
1000
0001
0100
0001
1000
0000
0010
0000
0100
0001
,
1000
0000
1000
0000
0100
0000
0010
0001
1000
0001
0010
0000
0100
0000
1000
0000
,
0010
0000
0010
0000
0100
0000
0001
1000
0010
1000
0001
0000
0100
0000
0010
1000
,
0001
0000
0001
0000
0010
0000
0100
1000
0001
1000
0100
0000
0010
0000
0001
0000
,
0100
0000
0100
0000
0010
0000
1000
0001
0100
0001
1000
0000
0010
0000
0100
0001
,
1000
0000
1000
0000
0100
0000
0010
0001
1000
0001
0010
0000
0100
0000
1000
0000
,
0010
0000
0010
0000
0100
0000
0001
1000
0010
1000
0001
0000
0100
0000
0010
1000
,
0001
0000
0001
0000
0010
0000
0100
1000
0001
1000
0100
0010
0001
0000
1000
0000
,
020M
000M
000M
000M
000M
000M
000M
000M
,
000M
000M
000M
000M
000M
000M
000M
000M
,
032M
M000
M000
M000
M000
M000
M000
M000
,
M000
0000
M000
0000
M030
0000
0001
1000
0100
0010
0001
0100
0010
1000
0100
0010
,
0001
0000
0001
0000
0100
0000
0001
1000
0001
0010
0001
0000
0100
0000
0001
1000
,
0100
0000
0100
0000
0010
0000
0100
1000
0001
1000
0100
0000
0010
0000
0100
0000
,
1000
0000
1000
0000
0100
0000
1000
0001
1000
0010
1000
0000
0100
0000
1000
0001
,
0100
0000
0100
0000
0010
0000
0100
0001
1000
0001
0100
0000
0010
0000
0100
0000
,
0001
0000
0001
0000
0010
0000
0001
1000
0001
0100
0001
0000
0010
0000
0001
1000
,
0010
0000
0010
0000
0100
0000
0010
1000
0001
1000
0010
0000
0100
0000
0010
0000
,
1000
0000
1000
0000
0010
0000
1000
0001
1000
0100
1000
0000
0010
0000
1000
0001
,
0010
0000
0010
0000
0100
0000
0010
0001
1000
0001
0010
0000
0100
0000
0010
0000
,
0001
0000
0001
0000
0100
0000
0001
1000
0001
0010
0001
0000
0100
0000
0001
1000
,
0100
0000
0100
0000
0010
0000
0100
1000
0001
1000
0100
0000
0010
0000
0100
0000
,
1000
0000
1000
0000
0100
0000
1000
0001
1000
0010
1000
0000
0100
0000
1000
0001
,
0100
0000
0100
0000
0010
0000
0100
0001
1000
0001
0100
0000
0010
0000
0100
0000
,
0001
0100
0010
1000
0010
0100
0001
1000
0001
0100
0010
1000
0010
0100
0001
1000
,
0001
0010
0100
1000
0100
0010
0001
1000
0001
0010
0100
1000
0100
0010
0001
1000
,
0001
0100
0010
1000
0010
0100
0001
1000
0001
0100
0010
1000
0010
0100
0001
1000
,
0001
0010
0100
1000
0100
0010
0100
1000
0100
0010
0001
1000
0010
0100
0001
1000
,
0100
0000
0100
0000
0010
0000
0001
1000
0100
1000
0001
0000
0010
0000
0100
1000
,
0001
0000
0001
0000
0100
0000
0010
1000
0001
1000
0010
0000
0100
0000
0001
0000
,
0010
0000
0010
0000
0100
0000
1000
0001
0010
0001
1000
0000
0100
0000
0010
0001
,
1000
0000
1000
0000
0010
0000
0100
0001
1000
0001
0100
0000
0010
0000
1000
0000
,
0100
0000
0100
0000
0010
0000
0001
1000
0100
1000
0001
0000
0010
0000
0100
1000
,
0001
0000
0001
0000
0100
0000
0010
1000
0001
1000
0010
0000
0100
0000
0001
0000
,
0010
0000
0010
0000
0100
0000
1000
0001
0010
0001
1000
0000
0100
0000
0010
0001
,
1000
0000
1000
0000
0010
0000
0100
0001
1000
0001
0100
0000
0010
0000
1000
0000
,
0100
0000
0100
0000
0010
0000
0001
1000
0100
1000
0001
0000
0010
0000
0100
1000
,
0001
0000
0001
0000
0100
0000
0010
1000
0001
1000
0010
0000
0100
0000
0001
0000
,
0010
0000
0010
0000
0100
0000
1000
0001
0010
0001
1000
0000
0100
0000
0010
0001
,
1000
0000
1000
0000
0010
0000
0100
0001
1000
0001
0100
0000
0010
0000
1000
0000
,
0100
0000
0100
0000
0010
0000
0001
1000
0100
1000
0001
0000
0010
0000
0100
1000
,
0001
0000
0001
0000
0100
0000
0010
1000
0001
1000
0010
0000
0100
0000
0001
0000
,
0010
0000
0010
0000
0100
0000
1000
0001
0010
0001
1000
0000
0100
0000
0010
0001
,
1000
0000
1000
0000
0010
0000
0100
0001
0100
0010
1000
0100
0010
0001
0100
0010
,
1000
0000
1000
0000
0010
0000
1000
0001
1000
0100
1000
0000
0010
0000
1000
0001
,
0010
0000
0010
0000
0100
0000
0010
0001
1000
0001
0010
0000
0100
0000
0010
0000
,
0001
0000
0001
0000
0010
0000
0001
1000
0001
0100
0001
0000
0010
0000
0001
1000
,
0010
0000
0010
0000
0100
0000
0010
1000
0001
1000
0010
0000
0100
0000
0010
0000
,
1000
0000
1000
0000
0100
0000
1000
0001
1000
0010
1000
0000
0100
0000
1000
0001
,
0100
0000
0100
0000
0010
0000
0100
0001
1000
0001
0100
0000
0010
0000
0100
0000
,
0001
0000
0001
0000
0100
0000
0001
1000
0001
0010
0001
0000
0100
0000
0001
1000
,
0100
0000
0100
0000
0010
0000
0100
1000
0001
1000
0100
0000
0010
0000
0100
0000
,
1000
0000
1000
0000
0010
0000
1000
0001
1000
0100
1000
0000
0010
0000
1000
0001
,
0010
0000
0010
0000
0100
0000
0010
0001
1000
0001
0010
0000
0100
0000
0010
0000
,
0001
0000
0001
0000
0010
0000
0001
1000
0001
0100
0001
0000
0010
0000
0001
1000
,
0010
0000
0010
0000
0100
0000
0010
1000
0001
1000
0010
0000
0100
0000
0010
0000
,
1000
0010
0100
0001
0100
0010
1000
0001
1000
0010
0100
0001
0100
0010
1000
0001
,
1000
0100
0010
0001
0010
0100
1000
0001
1000
0100
0010
0001
0010
0100
1000
0001
,
1000
0010
0100
0001
0100
0010
1000
0001
1000
0010
0100
0001
0100
0010
1000
0001
,
1000
0100
0010
0001
0010
0100
0010
0001
0010
0100
1000
0001
0100
0010
1000
0001
,
0100
0000
0100
0000
0010
0000
1000
0001
0010
0001
1000
0000
0010
0000
0100
0001
,
1000
0000
1000
0000
0100
0000
0010
0001
1000
0001
0010
0000
0100
0000
1000
0000
,
0010
0000
0010
0000
0100
0000
0001
1000
0010
1000
0001
0000
0100
0000
0010
1000
,
0001
0000
0001
0000
0010
0000
0100
1000
0001
1000
0100
0000
0010
0000
0001
0000
,
0100
0000
0100
0000
0010
0000
1000
0001
0100
0001
1000
0000
0010
0000
0100
0001
,
1000
0000
1000
0000
0100
0000
0010
0001
1000
0001
0010
0000
0100
0000
1000
0000
,
0010
0000
0010
0000
0100
0000
0001
1000
0010
1000
0001
0000
0100
0000
0010
1000
,
0001
0000
0001
0000
0010
0000
0100
1000
0001
1000
0100
0000
0010
0000
0001
0000
,
0100
0000
0100
0000
0010
0000
1000
0001
0100
0001
1000
0000
0010
0000
0100
0001
,
1000
0000
1000
0000
0100
0000
0010
0001
1000
0001
0010
0000
0100
0000
1000
0000
,
0010
0000
0010
0000
0100
0000
0001
1000
0010
1000
0001
0000
0100
0000
0010
1000
,
0001
0000
0001
0000
0010
0000
0100
1000
0001
1000
0100
0000
0010
0000
0001
0000
,
0100
0000
0100
0000
0010
0000
1000
0001
0100
0001
1000
0000
0010
0000
0100
0001
,
1000
0000
1000
0000
0100
0000
0010
0001
1000
0001
0010
0000
0100
0000
1000
0000
,
0001
0100
0010
1000
0010
0100
0001
1000
0001
0100
0010
1000
0010
0100
0001
1000
,
0001
0010
0100
1000
0100
0010
0100
1000
0100
0010
0001
0100
0010
1000
0100
0010
,
0002
0000
0000
0000
,
0000
0000
0000
0003
;

//---------------dance-single - I. Pyles----------------
#NOTES:
     dance-single:
     I. Pyles:
     Challenge:
     15:
     1.000,1.000,0.000,0.017,1.000,2884.000,0.000,5.000,56.000,0.000:






0000
0000
0000
0000
,
1000
0000
1000
0000
0010
0000
1000
0001
1000
0100
1000
0000
0010
0000
1000
0001
,
0010
0000
0010
0000
0100
0000
0010
0001
1000
0001
0010
0000
0100
0000
0010
0000
,
0001
0000
0001
0000
0010
0000
0001
1000
0001
0100
0001
0000
0010
0000
0001
1000
,
0010
0000
0010
0000
0100
0000
0010
1000
0001
1000
0010
0000
0100
0000
0010
0000
,
1000
0000
1000
0000
0100
0000
1000
0001
1000
0010
1000
0000
0100
0000
1000
0001
,
0100
0000
0100
0000
0010
0000
0100
0001
1000
0001
0100
0000
0010
0000
0100
0000
,
0001
0000
0001
0000
0100
0000
0001
1000
0001
0010
0001
0000
0100
0000
0001
1000
,
0100
0000
0100
0000
0010
0000
0100
1000
0100
0010
0001
1000
0010
0100
0001
1000
,
0100
0000
0100
0000
0010
0000
0001
1000
0100
1000
0001
0000
0010
0000
0100
1000
,
0001
0000
0001
0000
0100
0000
0010
1000
0001
1000
0010
0000
0100
0000
0001
0000
,
0010
0000
0010
0000
0100
0000
1000
0001
0010
0001
1000
0000
0100
0000
0010
0001
,
1000
0000
1000
0000
0010
0000
0100
0001
1000
0001
0100
0000
0010
0000
1000
0000
,
0100
0000
0100
0000
0010
0000
0001
1000
0100
1000
0001
0000
0010
0000
0100
1000
,
0001
0000
0001
0000
0100
0000
0010
1000
0001
1000
0010
0000
0100
0000
0001
0000
,
0010
0000
0010
0000
0100
0000
0000
1000
0010
1000
0001
0000
0010
0000
0000
0000
,
0001
0000
0001
0000
0100
0000
0010
1000
0010
0100
0001
0010
0100
1000
0010
0100
,
0001
1000
0001
0100
0010
1000
0001
0100
0001
0100
0001
1000
0010
1000
0001
0010
,
0100
1000
0100
0010
0001
1000
0010
0100
0010
0100
0010
1000
0001
0010
0100
1000
,
0001
1000
0001
0010
0100
1000
0001
0010
0001
0010
0001
1000
0100
1000
0001
0100
,
0010
1000
0010
0100
0001
1000
0100
0010
0100
0010
0100
1000
0001
0100
0010
1000
,
0001
1000
0001
0100
0010
1000
0001
0100
0001
0100
0001
1000
0010
1000
0001
0010
,
0100
1000
0100
0010
0001
1000
0010
0100
0010
0100
0010
1000
0001
0010
0100
1000
,
0001
1000
0001
0010
0100
1000
0001
0010
0001
0010
0001
1000
0100
1000
0001
0100
,
0010
1000
0010
0100
0001
1000
0100
0010
0100
0010
0100
1000
0001
0100
0010
1000
,
0001
1000
0001
0100
0010
1000
0001
0100
0001
0100
0001
1000
0010
1000
0001
0010
,
0100
1000
0100
0010
0001
1000
0010
0100
0010
0100
0010
1000
0001
0010
0100
1000
,
0001
1000
0001
0100
0010
1000
0001
0100
0001
0100
0001
1000
0010
1000
0001
0010
,
0100
1000
0100
0010
0001
1000
0010
0100
0010
0100
0010
1000
0001
0010
0100
1000
,
0001
1000
0001
0010
0100
1000
0001
0010
0001
0010
0001
1000
0100
1000
0001
0100
,
0010
1000
0010
0100
0001
1000
0100
0010
0100
0010
0100
1000
0001
0100
0010
1000
,
0001
1000
0001
0100
0010
1000
0001
0100
0001
0100
0001
1000
0010
1000
0001
0010
,
0100
1000
0100
0010
0001
1000
0010
1000
0010
0100
0001
0010
0100
1000
0010
0100
,
0001
1000
0001
0010
0100
1000
0001
0010
0001
0010
0001
1000
0100
1000
0001
0100
,
0010
1000
0010
0100
0001
1000
0100
0010
0100
0010
0100
1000
0001
0100
0010
1000
,
0001
1000
0001
0100
0010
1000
0001
0100
0001
0100
0001
1000
0010
1000
0001
0010
,
0100
1000
0100
0010
0001
1000
0010
0100
0010
0100
0010
1000
0001
0010
0100
1000
,
0001
1000
0001
0010
0100
1000
0001
0010
0001
0010
0001
1000
0100
1000
0001
0100
,
0010
1000
0010
0100
0001
1000
0100
0010
0100
0010
0100
1000
0001
0100
0010
1000
,
0001
1000
0001
0100
0010
1000
0001
0100
0001
0100
0001
1000
0010
1000
0001
0010
,
0100
1000
0100
0010
0001
1000
0010
0100
0010
0100
0010
1000
0001
0010
0100
1000
,
0001
0010
0001
1000
0001
0010
0100
1000
0010
0100
0010
1000
0010
0100
0001
1000
,
0100
0010
0100
1000
0100
0010
0100
1000
0100
0010
0100
1000
0100
0010
0100
1000
,
0100
0010
0100
1000
0100
0010
0001
1000
0010
0100
0010
1000
0001
0100
0001
1000
,
0100
0010
0100
1000
0010
0100
0010
1000
0001
0010
0001
1000
0010
0100
0010
1000
,
0100
0010
0100
1000
0100
0010
0100
1000
0100
0010
0100
1000
0100
0010
0100
1000
,
0010
0100
0010
1000
0010
0100
0010
1000
0010
0100
0010
1000
0010
0100
0010
1000
,
0001
0010
0001
1000
0001
0100
0001
1000
0001
0010
0001
1000
0001
0100
0001
1000
,
0001
0010
0001
1000
0001
0100
0010
1000
0010
0100
0001
0010
0100
1000
0010
0100
,
0001
0000
0001
0000
0100
0000
0001
1000
0001
0010
0001
0000
0100
0000
0001
1000
,
0100
0000
0100
0000
0010
0000
0100
1000
0001
1000
0100
0000
0010
0000
0100
0000
,
1000
0000
1000
0000
0100
0000
1000
0001
1000
0010
1000
0000
0100
0000
1000
0001
,
0100
0000
0100
0000
0010
0000
0100
0001
1000
0001
0100
0000
0010
0000
0100
0000
,
0001
0000
0001
0000
0010
0000
0001
1000
0001
0100
0001
0000
0010
0000
0001
1000
,
0010
0000
0010
0000
0100
0000
0010
1000
0001
1000
0010
0000
0100
0000
0010
0000
,
1000
0000
1000
0000
0010
0000
1000
0001
1000
0100
1000
0000
0010
0000
1000
0001
,
0010
0000
0000
0010
0000
0000
0100
0000
0000
1000
0000
0000
0001
0000
0100
0000
0010
0000
0100
0000
0001
0000
1000
0000
,
0100
0000
0100
0000
0010
0000
0001
1000
0100
1000
0001
0000
0010
0000
0100
1000
,
0001
0000
0001
0000
0100
0000
0010
1000
0001
1000
0010
0000
0100
0000
0001
0000
,
0010
0000
0010
0000
0100
0000
1000
0001
0010
0001
1000
0000
0100
0000
0010
0001
,
1000
0000
1000
0000
0010
0000
0100
0001
1000
0001
0100
0000
0010
0000
1000
0000
,
0100
0000
0100
0000
0010
0000
0001
1000
0100
1000
0001
0000
0010
0000
0100
1000
,
0001
0000
0001
0000
0100
0000
0010
1000
0001
1000
0010
0000
0100
0000
0001
0000
,
0010
0000
0010
0000
0100
0000
1000
0001
0010
0001
1000
0000
0100
0000
0010
0001
,
1000
0000
1000
0000
0010
0000
0100
0001
1000
0001
0100
0000
0010
0000
1000
0000
,
0100
0000
0100
0000
0010
0000
0001
1000
0100
1000
0001
0000
0010
0000
0100
1000
,
0001
0000
0001
0000
0100
0000
0010
1000
0001
1000
0010
0000
0100
0000
0001
0000
,
0010
0000
0010
0000
0100
0000
1000
0001
0010
0001
1000
0000
0100
0000
0010
0001
,
1000
0000
1000
0000
0010
0000
0100
0001
1000
0001
0100
0010
1000
0000
0001
0000
,
M200
M000
M000
M000
M000
M000
M000
M000
,
M000
M000
M000
M000
M000
M000
M000
M000
,
M320
000M
000M
000M
000M
000M
000M
003M
,
000M
0000
000M
0000
000M
0000
1000
0001
0100
0010
1000
0100
0010
0001
0100
0010
,
1000
0001
0010
0100
1000
0001
0010
0100
1000
0001
0010
0100
1000
0001
0010
0001
,
1000
0100
1000
0001
0100
0010
0100
0001
1000
0100
1000
0001
0010
0100
0010
0001
,
0100
0010
0100
0001
0100
0010
0100
0001
0100
0010
0100
0001
1000
0100
0010
0001
,
0100
0010
1000
0001
0010
0100
0010
0001
1000
0010
0100
0010
1000
0100
0010
0001
,
1000
0010
1000
0001
0100
0010
1000
0001
0100
0010
1000
0001
0100
0010
1000
0001
,
0100
0010
1000
0001
0010
0100
0010
0001
1000
0100
1000
0001
0100
0010
0100
0001
,
1000
0100
0010
0100
1000
0100
0010
0100
1000
0100
0010
0100
1000
0100
0010
0100
,
1000
0010
0100
0001
1000
0100
1000
0001
0010
0100
1000
0001
0100
0010
1000
0001
,
0010
0100
1000
0001
0010
0100
1000
0001
0010
0100
1000
0001
0010
0100
1000
0010
,
0100
0001
1000
0001
0100
0010
0100
0001
1000
0100
0010
0100
1000
0001
0100
0001
,
1000
0010
0100
0010
1000
0010
0100
0010
1000
0010
0100
0010
1000
0010
0100
0010
,
1000
0001
1000
0010
0100
0001
1000
0010
1000
0010
1000
0001
0100
0001
1000
0100
,
0010
0001
1000
0100
0010
0001
1000
0010
1000
0001
1000
0100
0010
0001
1000
0010
,
0100
0001
1000
0010
0100
0001
1000
0100
1000
0001
1000
0010
0100
0001
1000
0100
,
0010
0001
1000
0100
0010
0001
1000
0010
1000
0001
1000
0100
0010
0001
1000
0010
,
0100
0001
1000
0010
0100
0001
1000
0001
0100
0010
1000
0100
0010
0001
0100
0010
,
1000
0001
0010
0100
0010
0001
1000
0010
0100
0001
1000
0001
0010
0100
1000
0001
,
0100
0010
0100
0001
1000
0100
0010
0001
1000
0100
0010
0001
1000
0100
0010
0001
,
1000
0001
0100
0010
0100
0001
1000
0100
0010
0001
1000
0001
0100
0010
1000
0001
,
1000
0100
0010
0001
1000
0010
0100
0010
1000
0001
0100
0010
0100
0001
1000
0100
,
0010
0100
1000
0010
0100
0010
1000
0001
0100
0010
1000
0001
0100
0010
1000
0001
,
0100
0001
0100
0010
1000
0001
0010
0100
0010
0100
0010
0001
1000
0010
0100
0001
,
1000
0001
1000
0100
0010
0001
1000
0010
0100
0001
1000
0100
1000
0001
0010
0001
,
1000
0001
0100
0010
1000
0001
0010
0001
1000
0001
0100
0010
1000
0001
0010
0001
,
1000
0001
0100
0010
1000
0001
0010
0001
1000
0001
0010
0100
1000
0001
0100
0001
,
1000
0001
0010
0100
1000
0001
0100
0001
1000
0001
0010
0100
1000
0001
0100
0001
,
1000
0001
1000
0100
0010
0001
1000
0100
1000
0100
1000
0001
0010
0001
1000
0010
,
0100
0001
0100
0010
1000
0001
0010
0100
0010
0001
1000
0010
1000
0001
0100
0001
,
1000
0001
0010
0100
1000
0001
0100
0001
1000
0001
0010
0100
1000
0001
0100
0001
,
1000
0001
0010
0100
1000
0001
0100
0001
1000
0001
0100
0010
1000
0001
0010
0100
,
0010
0001
1000
0100
0010
0001
1000
0010
1000
0001
1000
0100
0010
0001
1000
0010
,
0100
0001
1000
0010
0100
0001
1000
0001
0010
0100
1000
0010
0100
0001
0010
0100
,
1000
0001
1000
0100
1000
0100
0010
0001
1000
0010
1000
0001
0010
0001
1000
0001
,
0100
0010
0100
0001
1000
0100
1000
0001
0010
0001
1000
0010
0100
0001
0010
0100
,
1000
0001
1000
0100
1000
0100
0010
0001
1000
0010
1000
0001
0010
0001
1000
0001
,
0100
0010
0100
0001
0100
0010
1000
0001
0100
0001
1000
0100
0010
0001
0100
0010
,
1000
0001
1000
0010
1000
0010
0100
0001
1000
0100
1000
0001
0100
0001
1000
0001
,
0010
0100
0010
0001
1000
0010
1000
0001
0100
0001
1000
0100
0010
0001
0100
0010
,
1000
0001
1000
0010
1000
0010
0100
0001
1000
0100
1000
0001
0100
0001
1000
0001
,
0010
0100
0010
0001
0100
0010
1000
0001
M010
0000
0000
0000
M010
0000
0000
0000
,
0001
1000
0001
0010
0001
0010
0100
1000
0001
0100
0001
1000
0100
1000
0001
1000
,
0010
0100
0010
1000
0001
0010
0001
1000
0100
1000
0001
0100
0010
1000
0100
0010
,
0001
1000
0001
0010
0001
0010
0100
1000
0001
0100
0001
1000
0100
1000
0001
1000
,
0010
0100
0010
1000
0010
0100
0001
1000
0010
1000
0001
0010
0100
1000
0001
1000
,
0010
0100
0010
1000
0010
0100
0010
1000
0010
0100
0010
1000
0010
0100
0010
1000
,
0100
0010
0100
1000
0100
0010
0100
1000
0100
0010
0100
1000
0100
0010
0100
1000
,
0004
0000
0000
0000
0000
0000
0000
0003
,
0040
0000
0000
0000
0000
0000
0000
0030
,
0001
0000
0001
0000
0010
0000
0001
1000
0001
0100
0001
0000
0010
0000
0001
1000
,
0010
0000
0010
0000
0100
0000
0010
1000
0001
1000
0010
0000
0100
0000
0010
0000
,
1000
0000
1000
0000
0010
0000
1000
0001
1000
0100
1000
0000
0010
0000
1000
0001
,
0010
0000
0010
0000
0100
0000
0010
0001
1000
0001
0010
0000
0100
0000
0010
0000
,
0001
0000
0001
0000
0100
0000
0001
1000
0001
0010
0001
0000
0100
0000
0001
1000
,
0100
0000
0100
0000
0010
0000
0100
1000
0001
1000
0100
0000
0010
0000
0100
0000
,
1000
0000
1000
0000
0100
0000
1000
0001
1000
0010
1000
0000
0100
0000
1000
0001
,
0100
0000
0000
0100
0000
0000
0010
0000
0000
1000
0000
0000
0001
0000
0010
0000
0100
0000
0010
0000
0001
0000
1000
0000
,
0010
0000
0010
0000
0100
0000
0001
1000
0010
1000
0001
0000
0100
0000
0010
1000
,
0001
0000
0001
0000
0010
0000
0100
1000
0001
1000
0100
0000
0010
0000
0001
0000
,
0100
0000
0100
0000
0010
0000
1000
0001
0100
0001
1000
0000
0010
0000
0100
0001
,
1000
0000
1000
0000
0100
0000
0010
0001
1000
0001
0010
0000
0100
0000
1000
0000
,
0010
0000
0010
0000
0100
0000
0001
1000
0010
1000
0001
0000
0100
0000
0010
1000
,
0001
0000
0001
0000
0010
0000
0100
1000
0001
1000
0100
0000
0010
0000
0001
0000
,
0100
0000
0100
0000
0010
0000
1000
0001
0100
0001
1000
0000
0010
0000
0100
0001
,
1000
0000
1000
0000
0100
0000
0010
0001
1000
0001
0010
0000
0100
0000
1000
0000
,
0010
0000
0010
0000
0100
0000
0001
1000
0010
1000
0001
0000
0100
0000
0010
1000
,
0001
0000
0001
0000
0010
0000
0100
1000
0001
1000
0100
0000
0010
0000
0001
0000
,
0100
0000
0100
0000
0010
0000
1000
0001
0100
0001
1000
0000
0010
0000
0100
0001
,
1000
0000
1000
0000
0100
0000
0010
0001
1000
0001
0010
0100
1000
0000
0001
0000
,
M020
M000
M000
M000
M000
M000
M000
M000
,
M000
M000
M000
M000
M000
M000
M000
M000
,
M230
000M
000M
000M
000M
000M
000M
000M
,
000M
0000
000M
0000
030M
0000
1000
0001
0010
0100
1000
0010
0100
0001
0010
0100
,
1000
0001
0100
0010
1000
0001
0100
0010
1000
0001
0100
0010
1000
0001
0100
0001
,
1000
0010
1000
0001
0010
0100
0010
0001
1000
0010
1000
0001
0100
0010
0100
0001
,
0010
0100
0010
0001
0010
0100
0010
0001
0010
0100
0010
0001
1000
0010
0100
0001
,
0010
0100
1000
0001
0100
0010
0100
0001
1000
0100
0010
0100
1000
0010
0100
0001
,
1000
0100
1000
0001
0010
0100
1000
0001
0010
0100
1000
0001
0010
0100
1000
0001
,
0010
0100
1000
0001
0100
0010
0100
0001
1000
0010
1000
0001
0010
0100
0010
0001
,
1000
0010
0100
0010
1000
0010
0100
0010
1000
0010
0100
0010
1000
0010
0100
0010
,
1000
0100
0010
0001
1000
0010
1000
0001
0100
0010
1000
0001
0010
0100
1000
0001
,
0100
0010
1000
0001
0100
0010
1000
0001
0100
0010
1000
0001
0100
0010
1000
0100
,
0010
0001
1000
0001
0010
0100
0010
0001
1000
0010
0100
0010
1000
0001
0010
0001
,
1000
0100
0010
0100
1000
0100
0010
0100
1000
0100
0010
0100
1000
0100
0010
0100
,
1000
0001
1000
0100
0010
0001
1000
0100
1000
0100
1000
0001
0010
0001
1000
0010
,
0100
0001
1000
0010
0100
0001
1000
0100
1000
0001
1000
0010
0100
0001
1000
0100
,
0010
0001
1000
0100
0010
0001
1000
0010
1000
0001
1000
0100
0010
0001
1000
0010
,
0100
0001
1000
0010
0100
0001
1000
0100
1000
0001
1000
0010
0100
0001
1000
0100
,
0010
0001
1000
0100
0010
0001
1000
0001
0010
0100
1000
0010
0100
0001
0010
0100
,
1000
0001
0100
0010
0100
0001
1000
0100
0010
0001
1000
0001
0100
0010
1000
0001
,
0010
0100
0010
0001
1000
0010
0100
0001
1000
0010
0100
0001
1000
0010
0100
0001
,
1000
0001
0010
0100
0010
0001
1000
0010
0100
0001
1000
0001
0010
0100
1000
0001
,
1000
0010
0100
0001
1000
0100
0010
0100
1000
0001
0010
0100
0010
0001
1000
0010
,
0100
0010
1000
0100
0010
0100
1000
0001
0010
0100
1000
0001
0010
0100
1000
0001
,
0010
0001
0010
0100
1000
0001
0100
0010
0100
0010
0100
0001
1000
0100
0010
0001
,
1000
0001
1000
0010
0100
0001
1000
0100
0010
0001
1000
0010
1000
0001
0100
0001
,
1000
0001
0010
0100
1000
0001
0100
0001
1000
0001
0010
0100
1000
0001
0100
0001
,
1000
0001
0010
0100
1000
0001
0100
0001
1000
0001
0100
0010
1000
0001
0010
0001
,
1000
0001
0100
0010
1000
0001
0010
0001
1000
0001
0100
0010
1000
0001
0010
0001
,
1000
0001
1000
0010
0100
0001
1000
0010
1000
0010
1000
0001
0100
0001
1000
0100
,
0010
0001
0010
0100
1000
0001
0100
0010
0100
0001
1000
0100
1000
0001
0010
0001
,
1000
0001
0100
0010
1000
0001
0010
0001
1000
0001
0100
0010
1000
0001
0010
0001
,
1000
0001
0100
0010
1000
0001
0010
0001
1000
0001
0010
0100
1000
0001
0100
0010
,
0100
0001
1000
0010
0100
0001
1000
0100
1000
0001
1000
0010
0100
0001
1000
0100
,
0010
0001
0010
0100
1000
0001
0010
0001
0100
0010
1000
0100
0010
0001
0100
0010
,
1000
0001
0010
0100
1000
0001
0010
0100
1000
0001
0010
0100
1000
0001
0010
0100
,
1000
0001
1000
0100
0010
0001
1000
0100
1000
0100
1000
0001
0010
0001
1000
0010
,
0100
0001
0100
0010
1000
0001
0010
0100
0010
0100
0010
0001
1000
0100
0010
0001
,
0100
0010
1000
0001
0010
0100
0010
0001
1000
0010
0100
0010
1000
0100
0010
0001
,
1000
0010
1000
0001
0100
0010
1000
0001
0100
0010
1000
0001
0100
0010
1000
0001
,
1000
0001
1000
0010
0100
0001
1000
0010
1000
0010
1000
0001
0100
0001
1000
0100
,
0010
0001
0010
0100
1000
0001
0100
0010
0100
0010
0100
0001
1000
0100
0010
0001
,
1000
0010
0100
0001
1000
0100
1000
0001
0010
0100
1000
0001
0100
0010
1000
0001
,
0010
0100
1000
0001
0010
0100
1000
0001
0010
0100
1000
0001
0010
0100
1000
0010
,
1000
0001
1000
0100
0010
0001
1000
0100
1000
0100
1000
0001
0010
0001
1000
0010
,
0100
0001
0100
0010
1000
0001
0010
0100
0010
0100
0010
0001
1000
0010
0100
0001
,
1000
0001
1000
0010
0100
0001
1000
0010
1000
0010
1000
0001
0100
0001
1000
0100
,
0010
0001
1000
0100
0010
0001
1000
0010
1000
0001
1000
0100
0010
0001
1000
0010
,
0100
0001
1000
0010
0100
0001
1000
0100
1000
0001
1000
0010
0100
0001
1000
0100
,
0010
0001
1000
0100
0010
0001
1000
0010
1000
0001
1000
0100
0010
0001
1000
0010
,
0100
0001
1000
0010
0100
0001
1000
0001
0100
0010
1000
0100
0010
0001
0100
0010
,
1000
0001
0010
0100
0010
0001
1000
0010
0100
0001
1000
0001
0010
0100
1000
0001
,
0100
0010
0100
0001
1000
0100
0010
0001
1000
0100
0010
0001
1000
0100
0010
0001
,
1000
0001
0100
0010
0100
0001
1000
0100
0010
0001
1000
0001
0100
0010
1000
0001
,
1000
0100
0010
0001
1000
0010
0100
0010
1000
0001
0100
0010
0100
0001
1000
0100
,
0010
0100
1000
0010
0100
0010
1000
0001
0100
0010
1000
0001
0100
0010
1000
0001
,
0100
0001
0100
0010
1000
0001
0010
0100
0010
0100
0010
0001
1000
0010
0100
0001
,
1000
0001
1000
0100
0010
0001
1000
0010
0100
0001
1000
0100
1000
0001
0010
0001
,
1000
0001
0100
0010
1000
0001
0010
0001
1000
0001
0100
0010
1000
0001
0010
0001
,
1000
0001
0100
0010
1000
0001
0010
0001
1000
0001
0010
0100
1000
0001
0100
0001
,
1000
0001
0010
0100
1000
0001
0100
0001
1000
0001
0010
0100
1000
0001
0100
0001
,
1000
0001
1000
0100
0010
0001
1000
0100
1000
0100
1000
0001
0010
0001
1000
0010
,
0100
0001
0100
0010
1000
0001
0010
0100
0010
0001
1000
0010
1000
0001
0100
0001
,
1000
0001
0010
0100
1000
0001
0100
0001
1000
0001
0010
0100
1000
0001
0100
0001
,
1000
0001
0010
0100
1000
0001
0100
0001
1000
0001
0100
0010
1000
0001
0010
0100
,
0010
0001
1000
0100
0010
0001
1000
0010
1000
0001
1000
0100
0010
0001
1000
0010
,
0100
0001
1000
0010
0100
0001
1000
0001
0010
0100
1000
0010
0100
0001
0010
0100
,
2000
0000
0000
0000
,
0000
0000
0000
3000
;
