#TITLE:In For More;
#SUBTITLE:Ft. Renard;
#ARTIST:The Quick Brown Fox;
#TITLETRANSLIT:;
#SUBTITLETRANSLIT:;
#ARTISTTRANSLIT:;
#CREDIT:;
#BANNER:../fallback - bn.png;
#BACKGROUND:../fallback - bg.png;
#LYRICSPATH:;
#CDTITLE:;
#MUSIC:In For More.ogg;
#OFFSET:-0.027;
#SAMPLESTART:34.450;
#SAMPLELENGTH:12.000;
#SELECTABLE:YES;
#BPMS:0.000=200.000;
#STOPS:;
#BGCHANGES:;
// cache tags:
#FIRSTBEAT:0.000;
#LASTBEAT:513.000;
#SONGFILENAME:Songs/Beast Aoreo BEAST!/In For More - [Aoreo]/In For More.sm;
#HASMUSIC:1;
#HASBANNER:1;
#MUSICLENGTH:158.549;
// end cache tags

//---------------dance-single - J. Nero----------------
#NOTES:
     dance-single:
     J. Nero:
     Challenge:
     12:
     0.967,1.000,0.378,0.050,0.590,989.000,60.000,8.000,0.000,10.000:
1000
0000
0001
0100
0000
0010
1000
1000
,
0100
0000
0010
0010
0100
0000
1000
0000
,
0010
0100
0100
0001
1000
1000
0010
0100
,
0001
0001
0010
0100
0100
0010
0001
0001
,
0100
0000
0010
0100
0000
0010
1000
1000
,
0100
0000
0010
0010
0001
0000
0101
0000
,
0100
0010
0010
1000
0100
0100
1000
0001
,
0100
0000
0100
0000
0010
0000
1000
0000
1000
0000
0100
0000
0010
0001
0100
0010
,
0100
0001
0000
0100
0010
0000
0100
0100
,
0001
1000
0000
0100
1000
0000
1010
0000
,
0010
0100
0100
0001
0010
0010
0100
0010
,
0001
0001
0100
0010
0010
1000
0100
0100
,
1000
0010
0000
0100
0001
0000
1000
1000
,
0010
0100
0000
0001
0011
0000
0110
0000
,
0100
1000
1000
0010
0100
0100
0001
1000
,
0010
0000
0010
0000
0100
0000
0001
0000
0001
0000
1000
0000
0001
0100
0010
0000
,
0100
0001
1000
0100
1000
0010
0100
0001
,
0010
0000
0000
0100
0000
0000
1000
0000
0000
0010
0000
0000
0100
0000
0000
0001
0000
0000
1000
0000
0000
0001
0100
0001
,
0100
0010
1000
0100
0010
0100
1000
0001
,
0010
0000
0000
0000
0000
0000
0100
0000
0000
0000
0000
0000
0010
0000
0000
0000
0000
0000
0100
0000
0000
0000
0000
0000
1000
0000
0000
0000
0000
0000
0010
0000
0000
0000
0000
0000
0100
0000
0000
0001
0000
0000
1000
0000
0100
0000
1000
0000
,
0100
1000
0010
0100
0010
1000
0001
0010
,
0100
0000
1000
0000
0001
0000
1000
0000
0100
1000
0010
0100
0010
0000
0100
0001
,
0100
0001
0010
0100
1000
0001
1000
0010
,
0100
0000
0000
0000
0000
0000
0001
0000
0000
0000
0000
0000
1000
0000
0000
0000
0000
0000
0100
0000
0000
0000
0000
0000
1000
0000
0000
0000
0000
0000
0010
0000
0000
0000
0000
0000
1000
0000
0001
0000
1000
0000
0001
0000
0000
1000
0000
0000
,
0001
0100
0010
1000
0100
0001
0100
1000
,
0010
0000
0000
0100
0000
0000
0001
0000
0000
0100
0000
0000
1000
0000
0000
0100
0000
0000
0001
0000
0000
1000
0100
1000
,
0100
1000
0010
0100
0001
1000
0100
1000
,
0010
0000
0000
0000
0000
0000
0100
0000
0000
0000
0000
0000
0001
0000
0000
0000
0000
0000
0010
0000
0000
0000
0000
0000
0100
0000
0000
0000
0000
0000
1000
0000
0000
0000
0000
0000
0010
0000
0000
0100
0000
0000
0001
0000
0100
0000
0001
0000
,
0100
0010
1000
0100
1000
0010
0100
0001
,
0010
0000
0100
0000
1000
0000
0010
0000
0100
0001
1000
0100
1000
0000
0010
0100
,
0001
0010
0100
1000
0010
0100
0001
1000
,
0100
0000
1000
0000
0010
0000
0100
0000
0001
0000
1000
0000
0100
1000
0100
0000
,
1100
0000
0000
1010
0000
0000
0110
0000
0000
0100
0000
0001
,
1000
0000
0010
0100
0000
0001
0010
0000
0100
1000
0000
0010
,
0100
0001
0010
0100
0000
0000
1100
0000
0000
1000
0000
0010
,
0100
0000
0001
0000
0000
0101
0000
0000
0000
0000
0000
0000
,
0100
0000
0100
0001
0000
0010
0100
0000
0100
1000
0000
0010
,
0100
0000
0001
0100
0000
0001
1000
0000
0010
0100
0000
0001
,
0010
0100
1000
0010
0000
0000
0110
0000
0000
0000
0000
0100
,
0010
0000
0000
0000
1000
0000
0000
0000
0000
0000
1010
0000
0000
0000
0000
0000
0000
0000
0002
0000
0000
0003
0000
0000
,
0101
0000
0011
0000
0110
0100
1000
0010
,
1000
0001
1000
0000
0000
0000
0001
0000
1000
0000
0001
0000
0100
0000
0010
0000
,
0010
0000
0100
0000
0001
0000
1000
0100
1000
0000
0100
0000
0110
0000
0000
0000
,
0010
0000
0001
0010
0000
0010
0100
1000
,
0010
0100
0001
0000
0010
0000
0100
0000
0010
0000
0001
0000
1000
0000
0010
0000
,
0100
0000
0000
0000
0001
0000
0100
0000
0000
0000
0010
0000
1000
0100
1000
0000
,
0010
0000
0100
0000
0001
0010
0100
0000
1000
0000
0010
0000
0100
0000
0000
0000
,
0101
0000
0001
1000
0000
0000
4004
3003
,
0001
0010
0100
1000
0010
0100
0001
1000
,
0100
0000
0000
1000
0000
0000
0010
0000
0000
0100
0000
0000
0001
0000
0000
0010
0000
0000
0100
0000
0000
1000
0001
1000
,
0001
1000
0010
0100
0001
0010
0100
1000
,
0010
0000
0000
0000
0000
0000
0100
0000
0000
0000
0000
0000
0001
0000
0000
0000
0000
0000
1000
0000
0000
0000
0000
0000
0100
0000
0000
0000
0000
0000
1000
0000
0000
0001
0000
0000
1000
0000
0000
0001
0000
0000
1000
0000
0100
0000
0010
0000
,
0001
0010
0001
0100
0010
1000
0100
1000
,
0001
0000
0100
0000
0010
0000
0100
0000
0001
0010
0100
1000
0020
0000
0130
0000
,
0001
0100
0010
1000
0100
1000
0001
0010
,
0100
0000
0000
0000
0000
0000
1000
0000
0000
0000
0000
0000
0010
0000
0000
0000
0000
0000
1000
0000
0000
0000
0000
0000
0001
0000
0000
0000
0000
0000
4000
0000
0000
0000
0000
0000
0000
0000
0000
3000
0000
0000
0001
0000
1000
0000
0001
0000
,
1000
0001
0010
0100
0010
0001
0100
0010
,
1000
0000
0000
0100
0000
0000
1000
0000
0000
0001
0000
0000
0100
0000
0000
0010
0000
0000
0100
0000
0000
0001
0100
0001
,
0100
0001
1000
0100
1000
0010
0100
0001
,
0010
0000
0100
0000
1000
0000
0001
0000
0100
0000
0001
1000
0010
0100
0010
1000
,
0001
0010
0100
1000
0001
0010
0100
1000
,
0010
0000
0100
0000
0001
0000
1000
0000
0001
0100
0010
1000
0002
0000
0013
0000
,
0100
1000
0010
0100
0001
1000
0100
1000
,
0010
0000
0100
0000
0001
0000
1000
0000
0001
0000
1000
0000
0010
0100
0010
0100
,
0010
0100
0001
1000
1000
0001
0011
0010
,
0100
0100
1000
0010
0010
0100
0101
0001
,
0010
0010
0100
1000
1000
0010
0110
0100
,
0001
0001
0010
0100
0100
1000
1010
0010
,
0100
0100
0001
0010
0010
0100
1100
1000
,
0001
0001
0100
0010
0010
0100
0101
0001
,
0010
0010
0100
1000
1000
0010
0110
0100
,
0001
0001
0010
0100
2000
0000
0000
3000
,
1111
0000
0000
1101
0000
0000
0000
0000
,
1101
0000
0000
1111
0000
0000
0000
0000
,
0101
0101
0000
1010
1010
0000
1000
0001
,
1000
0000
0000
1111
0000
0000
0000
0000
,
0111
0000
0000
1110
0000
0000
0000
0000
,
0111
0000
0000
1110
0000
0000
0000
0000
,
1010
1010
0000
0101
0101
0000
0001
1000
,
0010
0000
0000
0000
0000
0000
1111
0000
0000
0000
0000
0000
1000
0100
0010
0001
,
0100
0000
0000
0101
0000
0000
1001
0000
0000
0000
0000
0001
,
1000
0000
0010
0100
0000
0000
0001
0000
0010
0100
0000
1000
,
0010
0100
0001
0100
0000
0000
0110
0000
0000
0000
0000
0100
,
0001
0000
1000
0000
0000
0010
0000
0000
0000
0000
0000
0000
,
1000
0000
0100
0010
0000
0010
0001
0000
0100
0010
0000
0010
,
1000
0000
0100
1000
0000
0010
0100
0000
0001
0100
0000
0010
,
1000
0100
1000
0010
0000
0000
0000
0000
0000
0000
0000
0100
,
0010
0000
0100
0000
0000
0001
0000
0000
0000
0000
0000
0000
,
1001
0000
1000
0000
0100
0000
0001
0000
1000
0000
0010
0000
,
0001
0000
1000
0000
0100
0000
0001
0000
1000
0000
0010
0000
,
0001
0000
0000
0010
0010
0000
0110
0000
,
1100
0000
0000
0000
0000
0000
0100
1000
0010
0000
0100
0000
0000
0000
0000
0000
,
1001
0000
0001
0000
0100
0000
1000
0000
0001
0000
0010
0000
,
1000
0000
0001
0000
0100
0000
1000
0000
0001
0000
0010
0000
,
1000
0000
0000
0100
0100
0000
1100
0000
,
1001
0000
0000
0000
0000
0000
0000
0000
0000
0000
0000
0000
0000
0000
0000
0002
0000
0000
0003
2000
0000
0000
3000
0000
,
1010
0010
0100
0001
0010
0100
1000
0001
,
0100
0000
0000
0001
0000
0000
0010
0000
0000
0100
0000
0000
1000
0000
0000
0010
0000
0000
0100
0000
0000
0001
1000
0001
,
1000
0100
0010
0001
0100
0010
1000
0100
,
1000
0000
0000
0000
0000
0000
0010
0000
0000
0000
0000
0000
0100
0000
0000
0000
0000
0000
0001
0000
0000
0000
0000
0000
0010
0000
0000
0000
0000
0000
0100
0000
0000
1000
0000
0000
0100
0000
0000
1000
0000
0000
0001
0000
1000
0000
0001
0000
,
1000
0001
0100
0010
1000
0001
0010
0100
,
1000
0000
0000
0000
0000
0000
0010
0000
0000
0000
0000
0000
0100
0000
0000
0000
0000
0000
0001
0000
0000
0000
0000
0000
1000
0000
0000
0100
0000
0000
1000
0000
0000
0010
0000
0000
0100
0000
0000
0000
0000
0000
0001
0000
0100
0000
0001
0000
,
0100
0001
0010
0100
1000
0010
0100
0001
,
1000
0000
0000
0000
0000
0000
0001
0000
0000
0000
0000
0000
0010
0000
0000
0000
0000
0000
0100
0000
0000
0000
0000
0000
1000
0000
0000
0000
0000
0000
0001
0000
0000
0000
0000
0000
1000
0000
0001
0000
1000
0000
0001
0000
0000
1000
0000
0000
,
0001
1000
0001
0010
0100
1000
0100
1000
0010
0100
0010
0100
0001
0100
0001
1000
,
0100
1000
0100
0010
0001
0010
0001
1000
0100
1000
0010
0100
0001
0100
0001
0100
,
0010
0100
0010
1000
0001
1000
0001
1000
0100
1000
0100
0010
0001
1000
0010
0100
,
0001
0010
0001
0100
0001
0100
0010
1000
0100
1000
0010
0100
0001
0010
0100
1000
,
0100
1000
0010
0100
0010
0100
0001
0100
0001
0010
0100
1000
0010
1000
0010
0100
,
0010
0100
0001
1000
0001
0010
0100
1000
0100
1000
0001
0100
0001
0100
0001
0010
,
0100
1000
0100
1000
0010
0100
0001
0010
0100
1000
0010
0100
0001
0010
0100
1000
,
1100
0000
0000
0000
0110
0000
0000
0000
0011
0000
0000
0000
0001
0010
0001
0010
,
0100
0000
1000
0010
0000
0100
0001
0001
,
0010
0000
0100
0100
0010
0000
0001
0000
,
0100
0010
0010
1000
0001
0001
0100
0010
,
1000
1000
0100
0010
0010
0100
1000
1000
,
0010
0000
0100
0010
0000
0100
0001
0001
,
0010
0000
0100
0100
1000
0000
1010
0000
,
0010
0100
0100
0001
0010
0010
0001
1000
,
0010
0000
0010
0000
0100
0000
0001
0000
0001
0000
0010
0000
0100
1000
0010
0100
,
0010
1000
0000
0010
0100
0000
0010
0010
,
1000
0001
0000
0010
0001
0000
0011
0000
,
0010
0100
0100
1000
0100
0100
0010
0100
,
1000
1000
0010
0100
0100
0001
0010
0010
,
0001
0100
0000
0010
1000
0000
0001
0001
,
0100
0010
0000
1000
1100
0000
0110
0000
,
0010
0001
0001
0100
0010
0010
1000
0001
,
0100
0000
0100
0000
0010
0000
1000
0000
1000
0000
0001
0000
1000
0010
0100
0000
,
2002
3003
0000
0000
;
