#TITLE:Lava Reef Zone - Act 1;
#SUBTITLE:- Sonic & Knuckles;
#ARTIST:Sonic Team;
#TITLETRANSLIT:;
#SUBTITLETRANSLIT:;
#ARTISTTRANSLIT:;
#CREDIT:;
#BANNER:LRZ1 - Banner.PNG;
#BACKGROUND:LRZ1 - Background.PNG;
#LYRICSPATH:;
#CDTITLE:;
#MUSIC:Sonic & Knuckles - Lava Reef Zone Act 1.mp3;
#OFFSET:-0.170;
#SAMPLESTART:47.037;
#SAMPLELENGTH:12.000;
#SELECTABLE:YES;
#BPMS:0.000=127.560;
#STOPS:;
#BGCHANGES:;
// cache tags:
#FIRSTBEAT:15.500;
#LASTBEAT:178.000;
#SONGFILENAME:Songs/new cc/Sonic & Knuckles - Lava Reef Zone - Act 1 (Crazylegz Edit)/Lava Reef - Act 1.sm;
#HASMUSIC:1;
#HASBANNER:1;
#MUSICLENGTH:93.675;
// end cache tags

//---------------dance-single - ----------------
#NOTES:
     dance-single:
     :
     Challenge:
     9:
     0.517,0.523,0.288,0.149,0.523,298.000,27.000,14.000,0.000,0.000:
0000
0000
0000
0000
,
0000
0000
0000
0000
,
0000
0000
0000
0000
,
0000
0000
0000
0000
0000
0000
0000
0000
0000
0000
0000
0000
0000
0000
0010
1000
,
0002
0000
0000
0100
0000
0000
0103
0000
0000
0000
0000
0000
0010
0000
1000
0000
,
0000
0100
0010
0000
0000
0000
0010
0001
0010
0001
0010
0000
0001
0000
0001
0010
,
0100
0000
0000
2000
0000
0000
0020
0000
0000
0000
3030
0000
0100
0000
0001
0000
,
0000
0010
0200
0000
0000
0000
1000
0000
1000
0000
1300
0000
0001
0000
1000
0010
,
1000
0000
0000
0001
0000
0000
0100
0000
0000
0000
0000
0000
0001
0000
0100
0000
,
0000
0010
1000
0000
0000
0000
0001
1000
0010
1000
0001
0000
0010
0000
0001
0010
,
0001
0000
0000
1000
0000
0000
0100
0000
0000
0000
0000
0000
1000
0000
0100
0000
,
0000
0010
0001
0000
0000
0000
0000
0000
0000
0000
0000
0000
0000
0000
0001
1000
,
0200
0000
0000
1300
0001
0100
0001
1000
,
1010
0000
0001
0101
0002
0000
2000
0000
,
3003
0000
0001
0000
0010
0000
1000
0000
0010
0000
0010
0001
0000
0001
0100
0000
,
1000
0000
1000
0100
0000
0100
0001
0000
1000
0000
0000
0000
1010
0000
0000
0000
,
1000
0000
0001
0100
0000
0001
0100
0000
0001
0000
1000
0000
1001
0000
0000
0000
,
0001
0000
0010
0100
0000
0010
0100
0000
1000
0000
0100
0000
1100
0000
0000
0000
,
0010
0000
0100
0001
0000
0100
0001
0000
0020
0000
0030
0000
0101
0000
0000
0000
,
0001
0000
1000
0100
0000
1000
0100
0000
1000
0000
0001
0000
1001
0000
0000
0000
,
0001
0000
0010
0100
0000
1000
0000
0100
0000
0010
0000
0001
0010
0000
0011
0000
,
0100
0000
0010
1000
0000
0010
0000
0100
0000
0010
0000
1000
0001
0000
1001
0000
,
1000
0000
0001
0100
0000
0001
0000
1000
0000
0100
0000
1000
0010
0000
1010
0000
,
1000
0000
0001
0100
0000
0001
0000
1000
0000
0100
0000
1000
0001
0000
0100
0001
,
1000
0000
0000
1010
0000
0000
0110
0000
0000
0000
0000
0000
0101
0000
0001
0000
,
0000
0100
0001
0000
0000
0000
0001
0100
0010
1000
0010
0000
1000
0000
1000
0010
,
0100
0000
0000
0101
0000
0000
1001
0000
0000
0000
0000
0000
0001
0000
0010
0000
,
0000
0100
2000
0000
0000
0000
0001
0000
0001
0000
0001
0000
3001
0000
1000
0001
,
1000
0000
0000
0011
0000
0000
1100
0000
0000
0000
0000
0000
1000
0000
0010
0000
,
0000
0100
0001
0000
0000
0000
1000
0010
0100
0001
0100
0000
0001
0000
0010
0100
,
1000
0000
0000
1010
0000
0000
0101
0000
0000
0000
0000
0000
0100
0000
0001
0000
,
0000
0010
0001
0000
0000
0000
0000
0000
0000
0000
0000
0000
0000
0000
0010
1000
,
0002
0000
0000
1003
0010
1000
0001
0010
,
0011
0000
0100
1100
2000
0000
0002
0000
,
3003
0000
0001
0000
0010
0000
0100
0000
0010
0000
0010
0001
0000
0001
0100
0000
,
1000
0000
1000
0010
0000
0010
0001
0000
0100
0000
0100
0000
1000
0000
0000
0000
,
0100
0000
0001
0100
0000
0001
0100
0000
0001
0000
0010
0000
0100
0000
1000
0000
,
0100
0000
1000
0100
0000
1000
0100
0000
1000
0000
0100
0000
0010
0000
0000
0000
,
0001
0000
1000
0010
0000
1000
0010
0000
0100
0000
0010
0000
1000
0000
0001
0000
,
0010
0000
0001
0010
0000
0001
0010
0000
0001
0000
0010
0000
0110
0000
0000
0000
,
1000
0000
0100
0010
0000
0001
0000
0010
0000
0100
0000
1000
0100
0000
1100
0000
,
1000
0000
0010
0100
0000
0001
0000
0100
0000
0010
0000
1000
0010
0000
1010
0000
,
0010
0000
0100
1000
0000
0100
0000
0001
0000
0010
0000
0100
0010
0000
0110
0000
,
0001
0000
1000
0010
0000
0001
0000
0010
0000
1000
0000
0100
1000
0000
1100
0000
,
2002
0000
3003
0000
;

//---------------dance-single - ----------------
#NOTES:
     dance-single:
     :
     Medium:
     6:
     0.380,0.380,0.214,0.085,0.075,221.000,20.000,8.000,0.000,0.000:
0000
0000
0000
0000
,
0000
0000
0000
0000
,
0000
0000
0000
0000
,
0000
0000
0000
0000
0000
0000
0000
0010
,
1000
0000
0000
0001
0000
0000
0100
0000
0000
0000
0000
0000
0001
0000
0010
0000
,
0000
1000
0001
0000
0100
0000
0100
0000
,
0100
0000
0000
0001
0000
0000
0010
0000
0000
0000
0000
0000
0001
0000
0100
0000
,
0000
0010
1000
0000
0100
0000
0100
1000
,
0100
0000
0000
0010
0000
0000
0001
0000
0000
0000
0000
0000
0100
0000
0001
0000
,
0000
0100
0001
0000
0100
0000
0101
0000
,
0100
0000
0000
0010
0000
0000
1000
0000
0000
0000
0000
0000
0010
0000
1000
0000
,
0000
0010
2000
0000
0001
0000
3001
1000
,
0001
0000
0000
0101
0000
0001
1000
0001
,
1001
0000
0001
1000
0002
0000
2000
0000
,
3003
0000
0001
0000
1000
0000
0100
0000
1000
0000
0000
0100
0000
0000
1000
0000
,
0100
0000
0000
0010
0000
0000
0100
0000
1000
0000
0000
0000
1001
0000
0000
0000
,
0001
0000
0010
0100
1000
0000
0001
0000
,
0101
0000
0100
0010
1000
0000
1010
0000
,
1001
0000
0001
1000
0100
0000
1100
0000
,
0110
0000
0010
0001
0010
0000
0011
0000
,
0001
0010
0100
1000
0100
1000
0100
0000
,
1000
0010
0100
0001
0100
0001
0100
0000
,
0001
0100
0010
1000
0010
1000
0010
0000
,
1000
0100
0010
0001
0010
0001
0010
0001
,
1000
0000
0000
0100
0000
0000
1000
0000
0000
0000
0000
0000
0010
0000
0100
0000
,
0000
0100
0010
0000
1000
0000
1000
0000
,
1000
0000
0000
0010
0000
0000
0100
0000
0000
0000
0000
0000
0001
0000
0010
0000
,
0000
0100
1000
0000
0001
0000
0010
0001
,
0011
0000
0000
0010
0000
0000
0100
0000
0000
0000
0000
0000
1000
0000
0100
0000
,
0000
0100
0100
0000
1000
0000
1000
0000
,
1010
0000
0000
0010
0000
0000
0100
0000
0000
0000
0000
0000
0001
0000
0100
0000
,
0000
0001
0100
0001
1000
0000
1000
0000
,
1001
0000
0000
1100
0000
0001
1000
0100
,
1100
0000
0001
0010
0002
0000
0020
0000
,
0033
0000
0001
0000
0010
0000
0100
0000
0010
0000
0000
0001
0000
0000
0100
0000
,
1000
0000
0000
0010
0000
0000
0001
0000
0100
0000
0000
0000
1000
0000
0000
0000
,
0101
0000
0001
0100
0010
0000
1010
0000
,
1001
0000
1000
0100
0010
0000
0011
0000
,
0001
0010
0100
1000
0100
1000
0100
0010
,
0100
0000
0010
0001
0000
0010
0002
0000
0000
0000
0000
0000
1003
0000
0000
0000
,
0001
0100
0010
1000
0010
0100
0001
0000
,
1000
0010
0100
0001
0010
0100
1000
0000
,
0100
0010
0001
1000
0010
0100
0001
0000
,
1000
0001
0100
0001
1000
0001
0100
0000
,
0202
0000
0303
0000
;

//---------------dance-single - ----------------
#NOTES:
     dance-single:
     :
     Easy:
     3:
     0.271,0.305,0.192,0.085,0.000,152.000,18.000,8.000,0.000,0.000:
0000
0000
0000
0000
,
0000
0000
0000
0000
,
0000
0000
0000
0000
,
0000
0000
0000
0000
,
1000
0100
0010
0001
,
0010
0001
0010
0000
0001
0000
0000
0000
,
0100
0010
1000
0010
,
0100
0001
0100
0000
0001
0000
0000
0000
,
1000
0100
1000
0010
,
1000
0010
1000
0000
0100
0000
0100
0000
,
0010
0001
0100
0001
,
1000
0001
1000
0000
1001
0000
0000
0000
,
0020
0000
0000
0002
0000
0000
0033
0000
,
1000
0000
0010
1000
0000
0000
0000
0000
,
0010
0100
0001
0100
,
1000
1000
0001
0001
,
1000
0100
0001
0100
,
0010
0000
1000
0000
0010
1000
0010
0000
,
1000
0100
0010
0001
,
0010
0000
0100
0000
0010
0001
0010
0000
,
0011
0001
1000
0010
,
1010
1000
0100
0010
,
0110
0100
1000
0001
,
0101
0001
1000
0100
,
2100
0100
3100
0000
,
2010
0010
3010
0000
,
0102
0100
0103
0000
,
0012
0000
0010
0000
0013
0000
0010
0001
,
1000
0100
1100
0000
,
0001
0100
0101
0000
,
0010
1000
1010
0000
,
0010
0100
0110
0010
,
2000
0000
0000
0002
0000
0000
3003
0000
,
1000
0000
0001
1000
0000
0000
0000
0000
,
0001
0100
1000
0010
,
1000
0100
0001
0010
,
1000
0100
1000
0010
,
0001
0000
0100
0000
0001
0100
0001
0000
,
0100
0010
1000
0100
,
0001
0000
0100
0000
1000
0001
1000
0000
,
1001
0000
0100
0001
,
0101
0100
0010
1000
,
1010
0000
0001
0010
,
0011
0000
0100
1000
,
1100
0000
0000
0000
;

//---------------dance-single - ----------------
#NOTES:
     dance-single:
     :
     Hard:
     9:
     0.451,0.428,0.139,0.299,0.358,255.000,13.000,28.000,0.000,2.000:
0000
0000
0000
0000
,
0000
0000
0000
0000
,
0000
0000
0000
0000
,
0000
0000
0000
0000
,
1000
0000
0001
0200
0000
0000
0000
0000
0000
0000
0000
0000
0000
0300
0000
0000
,
0001
0000
0010
0100
0000
1000
0000
2000
0000
0000
0000
0000
3001
0000
0000
0000
,
1000
0000
0010
2000
0000
0000
0000
0000
0000
0000
0000
0000
0001
3000
0000
0000
,
1000
0000
0100
0010
0000
0001
0000
0002
0000
0000
0000
0000
0013
0000
0000
0000
,
0100
0000
1000
0200
0000
0000
0000
0000
0000
0000
0300
0000
1001
0000
0000
0000
,
0100
0000
0001
0100
0000
0010
0000
1000
0000
0010
0000
0100
0001
0000
1001
0000
,
1000
0000
0100
2000
0000
0000
0000
0000
0000
0000
0000
0000
3001
0000
0000
0000
,
0100
0000
0001
0100
0000
0001
0000
0010
0000
0100
0000
1000
0100
0000
1100
0000
,
2002
0000
0003
0020
0000
0000
0000
3030
,
1010
0000
0200
0002
0320
0000
2030
0003
,
3000
0000
0010
0000
0100
0000
1000
0000
0010
0000
0000
0100
0000
0000
0001
0000
,
0010
0000
0000
1000
0000
0000
0010
0000
0001
0000
0000
0000
0100
0000
0000
0000
,
0010
0000
1000
0001
0000
0000
0010
0000
0001
1000
0000
0000
0010
0100
0001
0000
,
0010
0000
0001
0010
0000
0001
0020
0000
0000
0000
0000
0000
1030
0000
0000
0000
,
0010
0000
0001
0100
0000
0000
0010
0000
1000
0100
0000
0000
1000
0001
0100
0000
,
0010
0000
1000
0010
0000
0100
0002
0000
0000
0000
0000
0000
1003
0000
0000
0000
,
1000
0010
0100
0001
0010
0001
0100
0010
,
1000
0100
1000
0001
0010
0100
1000
0100
,
0010
0100
1000
0001
0100
0001
1000
0100
,
0001
1000
0001
1000
0010
0001
0100
0001
,
0101
0000
0010
2000
0000
0000
0000
0000
0000
0000
0000
0000
3010
0000
0000
0000
,
1000
0100
0010
0001
0000
1000
0000
0002
0000
0000
0003
0000
0101
0000
0000
0000
,
0100
0000
0001
0200
0000
0000
0000
0000
0000
0000
0000
0000
0301
0000
0000
0000
,
0001
0010
0100
1000
0000
0001
0000
2000
0000
0000
3000
0000
1100
0000
0000
0000
,
1000
0000
0100
0020
0000
0000
0000
0000
0000
0000
0030
0000
0011
0000
0000
0000
,
0001
0000
0100
0010
0000
1000
0000
0010
0000
0100
0000
0001
0010
0000
0011
0000
,
0100
0000
1000
0200
0000
0000
0000
0000
0000
0000
0000
0000
1300
0000
0000
0000
,
0010
0000
1000
0001
0000
0100
0000
0010
0000
1000
0000
0001
0100
0000
0001
1000
,
0020
0000
0000
2000
0000
0000
3030
0000
,
2001
0000
0010
0001
0010
0000
3010
0000
,
0000
0000
1000
0000
0100
0000
0010
0000
0001
0000
0000
0010
0000
0000
0100
0000
,
1000
0000
0000
0010
0000
0000
0100
0000
0001
0000
0000
0000
0101
0000
0000
0000
,
0100
0000
0001
0010
0000
0000
0100
0000
1000
0010
0000
0000
1000
0010
0100
0000
,
0001
0000
0010
0100
0000
0010
0200
0000
0000
0000
0000
0000
1300
0000
0000
0000
,
0010
0000
0100
0001
0000
0000
0010
0000
0100
1000
0000
0000
0001
1000
0001
0000
,
1000
0000
0100
0010
0000
0100
0020
0000
0000
0000
0000
0000
0031
0000
0000
0000
,
0010
0100
1000
0001
1000
0100
0010
0010
,
0001
0100
0010
1000
0010
0100
0001
0001
,
0010
0100
1000
0001
1000
0100
0010
0010
,
0001
0100
0010
1000
0010
0100
0001
0001
,
2002
0000
3003
0000
;
