#TITLE:Megaman X5;
#SUBTITLE:- OPENING THEME -;
#ARTIST:CAPCOM;
#TITLETRANSLIT:;
#SUBTITLETRANSLIT:;
#ARTISTTRANSLIT:;
#CREDIT:;
#BANNER:;
#BACKGROUND:;
#LYRICSPATH:;
#CDTITLE:;
#MUSIC:01 - X5 - OPENING THEME.mp3;
#OFFSET:-1.000;
#SAMPLESTART:18.040;
#SAMPLELENGTH:12.000;
#SELECTABLE:YES;
#BPMS:0.000=90.000,21.000=130.000,23.000=150.000,25.000=180.000,132.500=90.000;
#STOPS:;
#BGCHANGES:;
// cache tags:
#FIRSTBEAT:0.000;
#LASTBEAT:134.000;
#SONGFILENAME:Songs/keyboard/Megaman X52/01 - X5 - OPENING THEME.sm;
#HASMUSIC:1;
#HASBANNER:0;
#MUSICLENGTH:56.058;
// end cache tags

//---------------dance-single - ----------------
#NOTES:
     dance-single:
     :
     Hard:
     8:
     0.477,0.478,0.303,0.161,0.178,161.000,17.000,9.000,7.000,0.000:
0200
0000
0000
0000
0000
0000
0301
1000
0001
0100
0000
0010
,
0000
0100
0000
0000
0000
0000
0000
0000
0000
0000
1000
0001
1000
0000
0000
0000
0000
0000
0000
0000
0000
0000
0000
0100
,
0000
1000
0000
0002
0000
0000
0000
0000
0000
0000
0000
0000
0000
0000
0000
0000
0000
0000
0000
0000
0000
0003
0000
0000
,
0200
0000
0000
0000
0000
0000
0301
1000
0001
0010
0000
0001
,
0000
1000
0000
0000
0000
0000
0000
0000
0000
0000
1000
0001
1000
0000
0000
0000
0000
0000
0000
0000
0000
0000
0000
0000
,
0001
0100
0010
1010
0000
0000
0000
0000
0000
0101
0000
0000
,
0000
1001
1001
1001
,
1001
0000
0000
0000
0110
0000
0000
0000
0000
0000
0100
0010
0100
0000
0000
0000
,
0000
0000
0001
1000
0001
0000
0000
0000
0000
0000
0000
0000
0010
0000
0001
0000
,
1000
0100
0000
0000
0010
0000
0110
0000
,
0010
0000
1000
0110
,
0001
0000
0000
0000
0110
0000
0000
0000
0000
0000
0001
0010
0001
0000
0000
0000
,
0000
0000
1000
0100
1000
0000
0000
0000
0000
0000
0000
0000
0010
0000
1000
0000
,
0001
0100
0000
0000
0001
0000
0101
0000
,
0100
0000
1000
1100
,
0100
0000
0010
0010
0000
0001
0001
0000
,
0010
0010
0000
0001
1000
0100
1000
0010
,
0100
0001
0010
0010
0000
1000
1000
0000
,
0010
0010
0000
1000
0010
0100
0001
0010
,
0100
0010
0001
0001
0000
1000
1000
0000
,
0001
0001
0000
0010
0100
0010
1000
0001
,
0100
0010
1000
1001
0000
0001
1001
0000
,
1000
1001
0000
0100
0001
0010
0001
1000
,
0100
1000
0001
0000
0110
0000
1000
0100
,
1000
0020
0000
0000
0000
0200
0000
0000
,
0000
0330
0000
0010
1000
0001
0100
0010
,
1000
0001
0100
0010
0100
0001
1000
0100
,
0020
0000
0000
0030
1001
0000
0001
0010
,
0001
0200
0000
0000
0000
0020
0000
0000
,
0000
0330
0000
0100
0001
1000
0010
0100
,
0001
1000
0010
0100
0010
1000
0001
0010
,
0100
0200
0000
0000
0000
0000
0000
0000
,
0000
0000
0000
0000
,
0000
0010
M0MM
M3MM
0M00
0000
0000
0000
:

a=note=20.000000,
;
