#TITLE:SNOW v2;
#SUBTITLE:;
#ARTIST:RAM;
#TITLETRANSLIT:;
#SUBTITLETRANSLIT:;
#ARTISTTRANSLIT:;
#CREDIT:;
#BANNER:snow2-banner.png;
#BACKGROUND:snow2-bg.png;
#LYRICSPATH:;
#CDTITLE:cynic.png;
#MUSIC:SNOW.mp3;
#OFFSET:-0.426;
#SAMPLESTART:33.444;
#SAMPLELENGTH:12.000;
#SELECTABLE:YES;
#BPMS:0.000=180.005;
#STOPS:;
#BGCHANGES:;
// cache tags:
#FIRSTBEAT:8.000;
#LASTBEAT:319.000;
#SONGFILENAME:Songs/Community Keyboard Megapack - Volume 2/(Cynic) Snow v2/snow.sm;
#HASMUSIC:1;
#HASBANNER:1;
#MUSICLENGTH:107.859;
// end cache tags

//---------------dance-single - ----------------
#NOTES:
     dance-single:
     :
     Hard:
     10:
     0.877,0.813,0.204,0.250,0.501,613.000,22.000,27.000,0.000,0.000:  // measure 1
0000
0000
0000
0000
,  // measure 2
0000
0000
0000
0000
,  // measure 3
0000
0000
0000
0000
,  // measure 4
0000
0000
0000
0000
,  // measure 5
0001
0000
0000
0001
0000
0000
0100
0000
0010
0000
1000
0000
0001
0000
0010
0000
,  // measure 6
0100
0000
0000
0100
0000
0000
1000
0000
0100
0000
0010
0000
0100
0000
0000
0000
,  // measure 7
0010
0000
0000
0001
0000
0000
0001
0000
0100
0000
0010
0000
1000
0000
0001
0000
,  // measure 8
0010
0000
0000
0100
0000
0000
1000
0000
0001
0000
0100
0000
0010
0000
1000
0000
,  // measure 9
0001
0000
0100
0001
0000
0000
0100
0000
0010
0000
1000
0000
0001
0000
1000
0000
,  // measure 10
0100
0000
0010
0100
0000
0000
0010
0000
0001
0000
0100
0000
0010
0000
0000
0000
,  // measure 11
1000
0000
0010
1000
0000
0000
0010
0000
0100
0000
0001
0000
1000
0000
0001
0000
,  // measure 12
0010
0000
0100
0010
0000
0000
0100
0000
1000
0000
0001
0000
0100
0000
0010
0000
,  // measure 13
1000
0010
1000
0010
0000
0100
0001
0100
,  // measure 14
0001
1000
0000
0001
0010
0100
0010
0001
,  // measure 15
1000
0100
0010
0001
0100
0010
1000
0001
,  // measure 16
1000
0000
0010
1000
0000
0010
0100
0000
0001
0000
1000
0000
0100
0010
0000
0100
,  // measure 17
1000
0000
0100
0000
1000
0000
0010
0000
0100
0000
0001
0000
1000
0000
0010
1000
,  // measure 18
0001
1000
0100
0010
0001
0001
1000
1000
,  // measure 19
0010
0000
0100
0000
0001
0000
1000
0000
0100
0000
0010
0000
0001
0000
0100
0010
,  // measure 20
1000
0001
0010
0100
1000
1000
0001
0001
,  // measure 21
0100
0000
0010
0000
1000
0000
0001
0000
0010
0000
0100
0000
0010
0000
0100
1000
,  // measure 22
0001
0100
0010
1000
0001
0001
0010
0010
,  // measure 23
0100
0000
1000
0000
0001
0000
0100
0000
0010
0000
1000
0000
0001
0000
0010
0100
,  // measure 24
1000
0000
0010
0000
0100
0000
0001
0000
0010
0100
0000
1000
0100
0000
1000
0000
,  // measure 25
0001
0000
0100
0010
0000
0000
1000
0000
0001
0000
0010
0000
0001
0000
1000
0001
,  // measure 26
0100
0000
0010
1000
0000
0000
0010
0000
0100
0000
0100
0000
0001
0000
0001
0000
,  // measure 27
0010
0000
0001
1000
0000
0000
0001
0000
1000
0000
0010
0000
0100
0000
0001
1000
,  // measure 28
0100
0000
0010
0001
0000
0000
0010
0000
0100
0000
0100
0000
1000
0000
1000
0000
,  // measure 29
0010
0000
0100
0001
0000
0000
1000
0000
0010
0000
0100
0001
0000
0000
1000
0000
,  // measure 30
0001
0000
0010
0100
0000
0000
1000
0000
0010
0000
0100
0001
0000
0000
1000
0000
,  // measure 31
0001
0000
0010
0100
0000
1000
0001
0000
0100
0000
0010
1000
0000
0001
0100
0000
,  // measure 32
0010
0000
1000
0000
0001
0000
0100
0000
0010
0000
1000
0000
0001
0000
0010
0100
,  // measure 33
1000
0001
0000
0000
1020
0000
0100
0000
0000
0030
1000
0000
0001
0000
0010
0000
,  // measure 34
0100
1000
0000
0000
0021
0000
0100
0000
0000
0030
0001
0000
1000
0000
0010
0100
,  // measure 35
0001
1000
0000
0000
0201
0000
0010
0000
0000
0300
0001
0000
1000
0000
0100
0000
,  // measure 36
0010
0001
0000
0000
1200
0000
0010
0000
0000
0300
1000
0000
0001
0000
0100
0010
,  // measure 37
1000
0001
0000
0000
0201
0000
0010
0000
0000
0300
0001
0000
1000
0000
0001
0010
,  // measure 38
0100
0000
1000
0000
0100
0000
1000
0000
0010
0000
0100
0000
0001
0000
1000
0001
,  // measure 39
1000
0001
0000
0000
1020
0000
0100
0000
0000
0030
1000
0000
0001
0000
0010
0000
,  // measure 40
0100
1000
0000
0000
0021
0000
0100
0000
0000
0030
0001
0000
1000
0000
0010
0100
,  // measure 41
0001
1000
0000
0000
1020
0000
0100
0000
0000
0030
1000
0000
0001
0000
1000
0100
,  // measure 42
0010
0000
0001
0000
0010
0000
0001
0000
0100
0000
0010
0000
1000
0000
0001
1000
,  // measure 43
0100
0010
0000
0000
0021
0000
0100
0000
0000
0030
0001
0000
1000
0000
0010
0000
,  // measure 44
0100
0001
1000
0000
0001
0000
0010
0000
0100
0000
1000
0000
0001
0000
0100
0010
,  // measure 45
1000
0000
0000
0010
0000
0000
0100
0000
0000
0001
0000
0000
1000
0000
0000
0001
,  // measure 46
0000
0000
0010
0000
0000
0100
0000
0000
1000
0000
0000
0001
0000
0000
0100
0000
,  // measure 47
0000
0010
0000
0000
1000
0000
0000
0001
0000
0000
0010
0000
0000
0100
0000
0000
,  // measure 48
1000
0100
0010
0001
1000
0100
0010
0001
,  // measure 49
0100
0010
0000
0010
1000
0000
0001
0000
0010
0000
0100
0000
1000
0000
0001
0000
,  // measure 50
0100
0000
0010
0000
1000
0000
0001
0000
0100
0000
0001
0000
0010
0000
0000
0010
,  // measure 51
0100
1000
0000
1000
0010
0000
0100
0000
0001
0000
1000
0000
0001
0000
0010
0000
,  // measure 52
0100
0000
1000
0000
0001
0000
0100
0000
0010
0000
1000
0000
0010
0100
0000
0100
,  // measure 53
0010
0100
0000
0100
0001
0000
1000
0000
0100
0000
0010
0000
0001
0000
1000
0000
,  // measure 54
0010
0000
0100
0000
0001
0000
1000
0000
0010
0000
1000
0000
0100
0000
0000
0100
,  // measure 55
0010
0001
0000
0001
0100
0000
0010
0000
1000
0000
0001
0000
1000
0000
0100
0000
,  // measure 56
0010
0000
0001
0000
1000
0000
0010
0000
0100
0000
0001
0000
1000
0000
0100
0010
,  // measure 57
0002
0100
0103
2000
0010
3010
0002
0010
,  // measure 58
0013
0000
0100
0000
1000
0000
0001
0000
0100
0010
1000
0000
0001
0000
1000
0000
,  // measure 59
0002
0010
0013
2000
0100
3100
0002
0100
,  // measure 60
0103
0000
0010
0000
1000
0000
0001
0000
0010
0100
1000
0000
0001
0000
0010
0100
,  // measure 61
2000
0010
3010
0002
0100
0103
2000
0100
,  // measure 62
3100
0000
0010
0000
0001
0000
1000
0000
0010
0100
0001
0000
1000
0000
0001
0000
,  // measure 63
2000
0100
3100
0002
0010
0013
2000
0010
,  // measure 64
3010
0000
0100
0000
0001
0000
1000
0000
0100
0010
0001
0000
1000
0000
0100
0010
,  // measure 65
0001
0000
0100
0010
0000
1000
0010
0000
0100
0000
0001
0000
1000
0100
1000
0000
,  // measure 66
0100
0000
0010
0000
0001
1000
0001
0000
0010
0000
0010
0000
0100
0000
0100
0000
,  // measure 67
1000
0000
0010
0100
0000
0001
0100
0000
0010
0000
1000
0000
0001
0010
0001
0000
,  // measure 68
0010
0000
0100
0000
1000
0000
0001
0100
0000
0100
0001
0000
0010
0000
0100
0010
,  // measure 69
0001
0000
0010
0100
0000
1000
0100
0000
0010
0000
0001
0000
1000
0010
1000
0000
,  // measure 70
0010
0000
0100
0000
0001
1000
0001
0000
0100
0000
0100
0000
0010
0000
0010
0000
,  // measure 71
1000
0000
0100
0010
0000
0001
0010
0000
0100
0000
1000
0000
0001
0100
0001
0000
,  // measure 72
0100
0000
0010
0000
1000
0000
0001
0010
0000
0010
0001
0000
0100
0000
0010
0100
,  // measure 73
0001
0100
0010
2010
0000
3100
0010
0001
,  // measure 74
0012
1000
0000
0103
0010
1000
2010
0010
,  // measure 75
0000
3010
0100
0001
0010
2100
0000
3100
,  // measure 76
0010
0001
0010
0000
0100
0000
1000
0000
0010
1000
0010
0000
0100
0000
0001
0000
,  // measure 77
1000
0000
0000
1010
0000
0000
0001
0000
0000
0101
0000
0000
0100
0000
0000
0110
,  // measure 78
0000
0000
0010
0000
0000
1010
0000
0000
1000
0000
0000
1100
0000
0000
0010
0000
,  // measure 79
0000
0011
0000
0000
0001
0000
0000
0101
0000
0000
0100
0000
0000
0110
0000
0000
,  // measure 80
2002
0000
0000
3003
;

//---------------dance-single - ----------------
#NOTES:
     dance-single:
     :
     Challenge:
     12:
     1.000,1.000,0.621,0.148,1.000,961.000,67.000,16.000,0.000,0.000:  // measure 1
0000
0000
0000
0000
,  // measure 2
0000
0000
0000
0000
,  // measure 3
0001
0000
0000
0001
0000
0000
0001
0000
0001
0000
0100
0000
0010
0100
0010
0000
,  // measure 4
1000
0000
0000
1000
0000
0000
1000
0000
1000
0000
0100
0000
0010
0001
0010
0100
,  // measure 5
1000
0000
0001
1000
0000
0000
1000
0000
1000
0000
0010
0000
0100
0010
0100
0000
,  // measure 6
0001
0000
1000
0001
0000
0000
0001
0000
0001
0000
0010
0000
0100
1000
0010
0100
,  // measure 7
0001
0000
1000
0001
0000
0010
0001
0000
0001
0000
1000
0000
0010
0100
0001
0000
,  // measure 8
1000
0000
0010
1000
0000
0100
1000
0000
1000
0000
0001
0000
0010
0100
1000
0010
,  // measure 9
0100
0000
1000
0100
0000
0001
0100
0000
0100
0010
1000
0010
0100
0000
0001
0010
,  // measure 10
0100
0000
0001
0100
0000
1000
0100
0000
0100
0010
0001
1000
0010
0000
0100
0001
,  // measure 11
0010
0000
1000
0010
0000
0001
0010
0000
0010
0100
1000
0100
0010
0000
0001
0100
,  // measure 12
0010
0000
0001
0010
0000
1000
0010
0000
0010
0100
0001
1000
0100
0000
0010
0001
,  // measure 13
1000
0010
1000
0000
0010
0000
0100
0000
0001
0100
0001
0000
1000
0000
0001
0000
,  // measure 14
0010
0001
0010
0000
0100
0000
1000
0000
0010
1000
0010
0000
0100
0000
0001
0000
,  // measure 15
1000
0100
1000
0000
0001
0000
0100
0010
0100
0000
0010
0000
1000
0010
1000
0000
,  // measure 16
0001
0010
0100
1000
0001
0010
0100
1000
0001
0100
0010
1000
0001
0100
0010
1000
,  // measure 17
0001
0010
0200
0001
0300
0100
1000
0010
0100
0001
1000
0000
0010
0100
0001
1000
,  // measure 18
0010
0100
0001
1000
0100
0000
1000
0010
0100
0001
1000
0001
1010
0000
0101
0000
,  // measure 19
0001
0010
0200
0001
0300
0100
1000
0001
1000
0010
0100
0000
0001
0100
0010
0100
,  // measure 20
1000
0100
0001
1000
0001
0000
0010
0100
0010
0001
0010
0001
1100
0000
0011
0000
,  // measure 21
0010
0100
0020
1000
0030
0010
0001
0100
0010
1000
0001
0000
0010
0100
1000
0001
,  // measure 22
0100
0001
1000
0001
0010
0000
0100
1000
0001
0100
0010
1000
0101
0000
1010
0000
,  // measure 23
0010
0100
0020
0001
0030
0010
1000
0001
0010
0100
0010
0000
0001
1000
0010
0100
,  // measure 24
0001
1000
0100
1000
0010
0000
0100
0001
0010
0100
0010
0001
1100
0000
1010
0000
,  // measure 25
1000
0100
0020
1000
0030
0010
0001
0100
0010
1000
0001
0000
0100
0010
1000
0001
,  // measure 26
0100
0010
1000
0001
0010
0000
0001
0100
0010
1000
0001
1000
0101
0000
1010
0000
,  // measure 27
1000
0100
0020
1000
0030
0010
0001
1000
0001
0100
0010
0000
1000
0010
0100
0010
,  // measure 28
0001
0010
1000
0001
1000
0000
0100
0010
0100
1000
0100
1000
0011
0000
1100
0000
,  // measure 29
0100
1000
0100
0011
0000
0001
0100
0010
1000
0001
0010
0000
0100
1000
0100
1000
,  // measure 30
0010
0000
0010
0101
0000
0001
0100
0010
1000
0010
1000
0100
0010
0000
0011
0000
,  // measure 31
0001
0100
0001
1010
0000
1000
0010
0100
0001
1000
0100
0000
0010
0001
0100
0000
,  // measure 32
0110
0000
0010
0101
0000
0100
0001
1000
0010
1000
0001
0010
0100
1000
0010
0100
,  // measure 33
0001
1000
0000
1000
0001
0100
0010
1000
0001
0010
0000
0100
1000
0001
0100
0000
,  // measure 34
0010
0000
1000
0000
0010
0000
1000
0000
0000
0010
0000
0000
0100
0000
0001
0000
1000
0000
0100
0000
1000
0000
0100
0000
0010
0000
0000
0000
0010
0000
0100
0000
,  // measure 35
1000
0001
0000
0001
1000
0100
0010
0001
1000
0010
0000
0100
0001
1000
0100
0000
,  // measure 36
0010
0000
0001
0000
0010
0000
0001
0000
0000
0010
0000
0000
0100
0000
1000
0000
0001
0000
0100
0000
0001
0000
0100
0000
0010
0000
0000
0000
0100
0000
0010
0000
,  // measure 37
1000
0001
0000
0001
1000
0010
0100
0001
1000
0100
0000
0010
0001
1000
0010
0000
,  // measure 38
0100
0000
0001
0000
0100
0000
0001
0000
0000
0100
0000
0000
0010
0000
1000
0000
0001
0000
0010
0000
0001
0000
0010
0000
0100
0000
0000
0000
0100
0000
0010
0000
,  // measure 39
0001
1000
0000
1000
0001
0010
0100
1000
0001
0100
0000
0010
1000
0001
0010
0000
,  // measure 40
0100
0000
1000
0000
0100
0000
1000
0000
0000
0100
0000
0000
0010
0000
0001
0000
1000
0000
0010
0000
1000
0000
0010
0000
0100
0000
0000
0000
0100
0000
0010
0000
,  // measure 41
1000
0001
0010
0100
0010
0001
1000
0010
0100
0001
0000
1000
0010
0100
0001
0000
,  // measure 42
0010
0000
0100
0000
1000
0000
0001
0000
0000
0100
0000
0000
0010
0000
0100
0000
0001
0000
1000
0000
0001
0000
0010
0000
0100
0000
0000
0000
1000
0000
0001
0000
,  // measure 43
0100
0010
0100
0010
1000
0001
0010
0100
0010
0100
0000
1000
0001
0100
0010
0000
,  // measure 44
1000
0000
0010
0000
0100
0000
0001
0000
0000
1000
0000
0000
0100
0000
0001
0000
0100
0000
1000
0000
0001
0000
0100
0000
0010
0000
1000
0000
0001
0000
0000
0000
,  // measure 45
0210
0000
0000
0301
0000
0000
0021
0000
0000
0130
0000
0000
2100
0000
0000
3010
,  // measure 46
0000
0000
0201
0000
0000
0310
0000
0000
1020
0000
0000
0031
0000
0000
1200
0000
,  // measure 47
0000
0301
0000
0000
0021
0000
0000
1030
0000
0000
0201
0000
0000
1300
0000
0000
,  // measure 48
0010
1000
0001
0100
0010
1000
0001
0100
0001
0010
0100
1000
0001
0010
0100
1000
,  // measure 49
0010
1000
0010
1000
0001
0000
0010
0001
0010
0001
1000
0000
0010
1000
0010
1000
,  // measure 50
0001
0010
0100
1000
0001
0010
0100
1000
0000
0010
0100
0000
0101
0000
0100
0001
,  // measure 51
1000
0100
1000
0100
0010
0000
0001
0010
0001
0010
0100
0000
1000
0100
1000
0100
,  // measure 52
0010
0001
0100
0010
1000
0001
0010
0100
0010
0001
0100
0010
1000
0001
0010
0100
,  // measure 53
1000
0010
1000
0010
0100
0000
0001
0100
0001
0100
0010
0000
1000
0010
1000
0010
,  // measure 54
0100
0001
1000
0010
0100
0001
1000
0010
0100
0010
1000
0000
0101
0000
1000
0010
,  // measure 55
0100
0001
0100
0001
1000
0000
0100
1000
0100
1000
0001
0000
0100
0001
0100
0001
,  // measure 56
1000
0100
0010
0001
1000
0100
0010
0001
0100
0010
1000
0001
0100
0010
1000
0001
,  // measure 57
1000
0100
1000
0000
1010
0000
0010
0100
0001
0000
0101
0000
0100
0001
1010
0000
,  // measure 58
0101
0000
0001
0010
0100
1000
0100
1000
0010
0100
0001
0000
0011
0000
0100
0010
,  // measure 59
0001
0010
0001
0000
0101
0000
0100
0010
1000
0000
1010
0000
0010
1000
0101
0000
,  // measure 60
1010
0000
1000
0100
0010
0001
0010
0001
0100
0010
1000
0001
0100
0010
1000
0001
,  // measure 61
0010
1000
0010
0000
0011
0000
0001
1000
0100
0000
1100
0000
1000
0100
0011
0000
,  // measure 62
1100
0000
0100
1000
0001
0010
0001
0010
0001
1000
0010
0000
0101
0000
1000
0001
,  // measure 63
0100
0001
0100
0000
1010
0000
1000
0001
0010
0000
0011
0000
0001
0010
1100
0000
,  // measure 64
1000
0100
0010
0001
1000
0100
0010
0001
0100
0010
1000
0001
0100
0010
1000
0001
,  // measure 65
1000
0010
0100
0001
0000
0100
0001
1000
0100
0010
0001
0000
1000
0010
0100
0001
,  // measure 66
1000
0001
0010
0100
1000
0000
0010
0100
0001
1000
0001
0010
1100
0000
0011
0000
,  // measure 67
0001
0100
0010
1000
0000
0010
1000
0001
0010
0100
1000
0000
0001
0100
0010
1000
,  // measure 68
0001
0000
1000
0000
0100
0000
0000
0000
0011
0000
0000
0000
0001
0000
0100
0000
0010
0000
1000
0000
0100
0000
0000
0010
0000
0000
0001
0000
0100
0000
0010
0000
,  // measure 69
1000
0010
0100
0001
0000
0100
0001
1000
0100
0010
0001
0000
1000
0010
0100
0001
,  // measure 70
1000
0100
1000
0001
0000
0100
0010
1000
0001
0010
0100
0000
1000
0001
0100
0010
,  // measure 71
1000
0000
0001
0000
0010
0000
0000
0000
1100
0000
0000
0000
1000
0000
0010
0000
0100
0000
0001
0000
0010
0000
0000
0100
0000
0000
1000
0000
0010
0000
0100
0000
,  // measure 72
0001
0000
1000
0000
0100
0000
0000
0000
0011
0000
0000
0000
0001
0000
0100
0000
0010
0000
1000
0000
0100
0000
0000
0010
0000
0000
0001
0000
0100
0000
0010
0000
,  // measure 73
1000
0010
1000
0001
0000
0010
0100
1000
0100
1000
0001
0000
0100
0010
1000
0001
,  // measure 74
0010
0000
0100
1000
0001
0100
0010
0000
1000
0001
0010
0100
1000
0000
0001
0100
,  // measure 75
0010
0100
0001
1000
0100
0000
0010
0001
0010
0001
1000
0000
0010
0100
0001
1000
,  // measure 76
0001
0010
0100
1000
0001
0010
0100
1000
0001
0100
0010
1000
0001
0100
0010
1000
,  // measure 77
0101
0000
0000
0011
0000
0000
1100
0000
0000
1010
0000
0000
0101
0000
0000
0110
,  // measure 78
0000
0000
1001
0000
0000
0011
0000
0000
1100
0000
0000
1010
0000
0000
0101
0000
,  // measure 79
0000
0110
0000
0000
1001
0000
0000
1010
0000
0000
0101
0000
0000
1010
0000
0000
,  // measure 80
2002
0000
0000
3003
;
