#TITLE:Say A Vengeance;
#SUBTITLE:;
#ARTIST:ETIA. feat. Jenga;
#TITLETRANSLIT:;
#SUBTITLETRANSLIT:;
#ARTISTTRANSLIT:;
#CREDIT:;
#BANNER:../Banner.png;
#BACKGROUND:../BG.png;
#LYRICSPATH:;
#CDTITLE:../CDTitleKIRBY.png;
#MUSIC:Say A Vengeance.ogg;
#OFFSET:-0.093;
#SAMPLESTART:22.147;
#SAMPLELENGTH:22.000;
#SELECTABLE:YES;
#BPMS:0.000=185.000;
#STOPS:;
#BGCHANGES:;
// cache tags:
#FIRSTBEAT:4.000;
#LASTBEAT:427.000;
#SONGFILENAME:Songs/Index Tesseract/Say A Vengeance - [Kirby5464]/Say A Vengeance.sm;
#HASMUSIC:1;
#HASBANNER:1;
#MUSICLENGTH:138.893;
// end cache tags

//---------------dance-single - ----------------
#NOTES:
     dance-single:
     :
     Challenge:
     15:
     1.000,1.000,0.418,0.338,1.000,1145.000,58.000,47.000,29.000,0.000:
0000
0000
0000
0000
,
1000
0010
1000
0000
0001
0100
0001
0000
,
1000
0100
1000
0000
0001
0010
0001
0000
,
1000
0001
1000
0000
0001
1000
0001
0000
,
1000
0010
0100
0000
0001
1000
0010
0000
,
1000
0100
1000
0000
0001
0010
0001
0000
,
1000
0100
0010
0001
,
1000
0010
0100
0001
,
1000
0011
0110
1001
,
1000
0001
0100
0010
,
1000
0100
0010
0001
,
1000
0100
1000
0001
,
0100
0000
0001
0000
1000
0040
0130
0000
,
0001
0010
0100
1000
0001
0010
0001
1000
,
0010
1000
0001
0010
0100
0010
0001
1000
,
0010
0100
0001
0010
0100
1000
0001
0010
0001
1000
0010
1000
0001
0100
0010
1000
,
0002
00M0
0M00
M000
00M0
0M00
M000
00M0
0M00
M000
00M0
0M00
M000
00M0
0M00
00M0
,
1003
0100
1000
0010
0100
0001
0010
0100
0010
0001
1000
0010
1000
0100
0010
0001
,
1000
0010
1000
0001
0010
0001
1000
0100
0010
0100
1000
0001
0100
0010
1000
0100
,
0010
0001
1000
0010
0100
0001
1000
0001
0010
0100
1000
0010
0100
0010
1000
0100
,
1000
0001
0010
0001
1000
0100
0010
0100
1000
0001
0100
0010
1000
0100
0010
0001
,
1000
0010
0100
0001
1000
0001
0010
0100
1000
0010
0100
0010
1000
0100
1000
0001
,
0010
0001
1000
0100
0010
0001
1000
0010
1000
0001
0010
0001
1000
0100
0010
0100
,
1000
0001
0100
0010
1000
0100
0010
0001
1000
0010
0100
0001
1000
0001
0010
0100
,
1000
0010
0100
0010
1000
0100
1000
0001
0010
0001
1000
0100
0010
0100
1000
0001
,
0100
0010
1000
0100
0010
0001
1000
0010
0100
0001
1000
0001
0010
0100
1000
0010
,
0100
0010
1000
0100
1000
0001
0010
0001
1000
0100
0010
0001
0100
0010
0100
0001
,
0010
0001
1000
0100
1000
0001
0010
0100
0010
0001
1000
0010
0100
0001
0010
0100
,
1000
0001
0100
0010
1000
0001
1000
0100
0010
0001
0100
0010
0100
0001
0010
0001
,
1000
0100
1000
0001
0010
0100
1000
0001
0100
0001
1000
0100
1000
0001
0010
0100
,
0010
0001
1000
0010
0100
0001
0010
0100
1000
0001
0100
0010
1000
0001
1000
0100
,
0010
0001
0100
0010
0100
0001
0010
0001
1000
0100
1000
0001
0010
0100
0010
0001
,
2000
3020
0230
0302
0023
0230
2300
3002
,
0203
0300
0000
0000
0010
0100
0001
1000
0100
1000
0001
0010
0100
0010
0001
1000
,
0010
0100
0001
0010
0100
1000
0001
0100
0010
1000
0001
1000
0010
0000
0000
0000
,
0100
0001
1000
0001
0100
0010
1000
0100
0010
0100
1000
0001
0100
0010
1000
0100
,
0010
0001
1000
0010
0100
0001
1000
0001
0010
0100
1000
0010
0100
0000
0000
0000
,
1000
0001
0010
0001
1000
0100
0010
0001
1000
0010
1000
0001
0010
0001
1000
0100
,
0010
0100
1000
0001
0100
0010
1000
0100
0010
0001
1000
0010
0100
0000
0000
0000
,
0001
0010
0001
1000
0010
0100
0001
0010
0001
1000
0100
1000
0001
0010
0100
0010
,
0001
1000
0010
0100
0001
0010
0100
1000
0001
0100
0010
1000
0001
1000
0100
0010
,
0001
0100
0010
0100
0001
0010
0001
1000
0100
1000
0001
0010
0100
1000
0010
0100
,
0010
1000
0100
1000
0001
0010
0001
1000
0100
0010
0100
1000
0001
0100
0010
1000
,
0100
0010
0001
1000
0010
0100
0001
1000
0001
0010
0100
1000
0010
0100
0010
1000
,
0100
1000
0001
0010
0001
1000
0100
0010
0001
1000
0010
1000
0001
0010
0001
1000
,
0100
0010
0100
1000
0001
0100
0010
1000
0100
0010
0001
1000
0010
0100
0001
1000
,
0001
0010
0100
1000
0010
0100
0010
1000
0100
1000
0001
0010
0001
1000
0100
0010
,
0100
1000
0001
0100
0010
1000
0100
0010
0001
1000
0010
0100
0001
0010
0100
0010
,
0001
1000
0010
1000
0100
0010
0001
1000
0100
1000
0001
0010
0001
1000
0010
0100
,
0002
0000
0000
0023
0000
0000
0230
0000
,
0000
2300
0000
0000
3020
0000
0030
0000
,
0200
0000
0000
0302
0000
0000
2003
0000
,
0000
3200
0000
0000
0320
0000
0030
0000
,
0002
0000
0000
0203
0000
0000
0320
2030
,
0000
3002
0203
0302
,
2003
0000
0000
0000
0000
3002
2003
0000
,
0000
0000
3000
0000
0020
0230
0302
0023
,
0230
0300
1000
0000
0001
0000
0010
0000
0001
0000
1000
0000
0100
0000
0010
0000
,
0100
1000
0001
0100
0001
0010
0100
1000
,
0010
0100
0010
1000
0100
1000
0001
0010
,
0001
1000
0100
0010
0001
1000
0010
0100
,
0001
1000
1010
0000
0110
0000
0101
0000
,
0011
1100
1001
0110
,
1010
0000
0101
0000
1001
0000
0110
1010
,
0000
0000
0011
0000
0000
0000
0110
0000
0010
1000
0002
0000
0000
0000
0000
0000
,
1003
0010
0100
0010
1000
1010
0010
0100
,
0110
1000
0001
0010
0100
1100
0001
1000
,
0011
0001
1000
0010
1000
1001
0001
1000
,
0101
0001
0100
1100
0001
0011
1000
0001
,
0011
1000
0010
0100
0010
0110
1000
0001
,
0011
1000
0010
0100
0001
1001
0100
0010
,
0011
1000
0010
0100
0001
0101
1000
0010
,
0110
0000
0001
0000
1000
0000
0010
0000
2020
3030
0000
0000
2002
3003
0000
0000
,
0110
1100
0011
1010
,
0101
1001
0011
1010
,
1100
0101
0110
1001
,
1100
0000
0011
0000
0110
0000
1000
0001
,
1001
0100
0010
1000
0100
0010
0001
1000
,
1010
0010
0100
0001
1000
0001
0100
0010
,
1000
0100
0010
0001
1000
0100
0010
0100
1000
0001
0100
0001
0010
0100
1000
0010
,
0200
000M
00M0
0000
M000
000M
00M0
M000
000M
00M0
M000
000M
00M0
M000
000M
M000
,
0302
0003
0000
0000
2000
0000
3000
0000
0000
0000
0020
0000
0030
0000
0000
0000
,
0200
0300
0000
0002
0003
0000
2001
0000
,
3001
0100
0010
1000
0001
0100
0001
0010
0100
1000
0001
0100
0001
0010
0100
1000
,
0001
0100
0001
1000
0100
1000
0001
0010
0100
0010
0001
1000
0010
0100
0001
0010
,
0100
1000
0001
0100
0010
1000
0001
1000
0100
0010
0001
0100
0010
0100
0001
0010
,
0001
1000
0100
1000
0001
0010
0100
0010
0001
1000
0010
0100
0001
0010
0100
1000
,
0001
0100
0010
1000
0001
1000
0100
0010
0001
0100
0010
0100
0001
0010
0001
1000
,
0100
1000
0001
0010
0100
1000
0001
0100
0001
1000
0100
1000
0001
0010
0100
0010
,
0001
1000
0010
0100
0001
0010
0100
1000
0001
0100
0010
1000
0001
1000
0100
0010
,
0001
0100
0010
0100
0001
0010
0001
1000
0100
1000
0001
0010
0100
0010
0001
1000
,
0010
0100
0001
0010
0100
1000
0001
0100
0010
1000
0001
1000
0100
0010
0001
0100
,
0010
0100
0001
0010
0001
1000
0100
1000
0001
0010
0100
1000
0010
0100
0010
1000
,
0100
1000
0001
0010
0001
1000
0100
0010
0100
1000
0001
0100
0010
1000
0100
0010
,
0001
1000
0010
0100
0001
1000
0001
0010
0100
1000
0010
0100
0010
1000
0100
1000
,
0001
0010
0001
1000
0100
0010
0001
1000
0010
1000
0001
0010
0001
1000
0100
0010
,
0100
1000
0001
0100
0010
1000
0100
0010
0001
1000
0010
0100
0001
1000
0001
0010
,
0100
1000
0010
0100
0010
1000
0100
1000
0001
0010
0001
1000
0100
0010
0001
1000
,
0001
0000
1001
0000
0000
1010
0000
0000
0011
0000
0000
0101
0000
0000
0110
0000
,
0010
0000
1000
0000
0001
0010
0100
1000
0001
0100
0001
0010
0100
1000
0001
0100
,
0001
1000
0100
1000
0001
0010
0100
0010
0001
1000
0010
0100
0001
0010
0100
1000
,
0001
0100
0010
1000
0001
1000
0100
0010
0001
0100
0010
0100
0001
0010
0001
1000
,
0100
1000
0001
0010
0100
0010
0001
1000
0010
0100
0001
0010
0100
1000
0001
0100
,
0010
1000
0001
1000
0100
0010
0001
0100
0010
0100
0001
0010
0001
1000
0100
1000
,
0001
0010
0100
1000
0001
0100
0001
1000
0100
1000
0001
0010
0100
0010
0001
1000
,
0010
0100
0001
0010
0100
1000
0001
0100
0010
1000
0001
1000
0100
0010
0001
0100
,
0010
0100
0001
0010
0001
1000
0100
1000
0001
0010
0001
1000
0010
0000
0000
0000
;
