#TITLE:Beautiful Loli Thing;
#SUBTITLE:;
#ARTIST:goreshit;
#TITLETRANSLIT:;
#SUBTITLETRANSLIT:;
#ARTISTTRANSLIT:;
#CREDIT:;
#BANNER:../Jawn - ban.png;
#BACKGROUND:../Jawn - bg.png;
#LYRICSPATH:;
#CDTITLE:;
#MUSIC:Beautiful Loli Thing.ogg;
#OFFSET:0.009;
#SAMPLESTART:48.580;
#SAMPLELENGTH:12.000;
#SELECTABLE:YES;
#BPMS:0.000=201.000;
#STOPS:;
#BGCHANGES:;
// cache tags:
#FIRSTBEAT:4.000;
#LASTBEAT:580.000;
#SONGFILENAME:Songs/Jimmy Jawns/Beautiful Loli Thing - [Aoreo]/Beautiful Loli Thing.sm;
#HASMUSIC:1;
#HASBANNER:1;
#MUSICLENGTH:177.119;
// end cache tags

//---------------dance-single - T. Moore & J. Nero----------------
#NOTES:
     dance-single:
     T. Moore & J. Nero:
     Challenge:
     17:
     1.000,1.000,0.006,0.034,1.000,2231.000,1.000,6.000,0.000,0.000:
0000
0000
0000
0000
,
1001
1000
0001
0010
0100
1000
0010
0100
,
0010
0000
0000
0000
1000
0000
0000
0000
0100
0000
0000
0000
0010
0000
0000
0000
0001
0000
0000
0000
1000
0000
0000
0000
0001
0000
0000
0000
0020
0030
0000
0000
,
0001
0000
0000
0000
1000
0000
0000
0000
0010
0000
0000
0000
0100
0000
0000
0000
0010
0000
0000
0000
1000
0000
0000
0000
0001
0000
0000
0000
0200
0300
0000
0000
,
0010
1000
0100
0010
0001
1000
0010
0100
,
0002
0003
0000
0000
1000
0000
0000
0000
0100
0000
0000
0000
0010
0000
0000
0000
0100
0000
0000
0000
1000
0000
0000
0000
0010
0000
0000
0000
2000
3000
0000
0000
,
0001
0000
0000
0000
0100
0000
0000
0000
0001
0000
0000
0000
0010
0000
0000
0000
0100
0000
0000
0000
1000
0000
0000
0000
0010
0000
0000
0000
0200
0300
0000
0000
,
0010
0000
0000
0000
1000
0000
0000
0000
0100
0000
0000
0000
0010
0000
0000
0000
0001
0000
0000
0000
0100
0000
0000
0000
0001
0000
0000
0000
0020
0030
0000
0000
,
0100
1000
0010
0100
0010
1000
0001
1000
,
0001
0100
0001
1000
0010
0100
0010
1000
0001
0100
0001
1000
0100
0010
0100
1000
,
0001
0010
0100
1000
0001
0010
0001
1000
0001
0100
0010
0100
0001
1000
0001
0100
,
0010
0100
0001
1000
0010
1000
0001
0100
0001
1000
0100
0010
0100
1000
0001
0010
,
0001
1000
0010
0100
0010
1000
0001
0100
0001
1000
0001
0100
0010
0100
0001
1000
,
0100
0010
0001
1000
0100
1000
0001
0100
0001
1000
0100
1000
0001
1000
0010
0100
,
0001
0100
0001
1000
0010
0100
0010
1000
0001
0100
0001
1000
0100
0010
0100
1000
,
0001
0010
0100
0010
0001
1000
0001
0100
0010
1000
0010
1000
0001
0100
0010
0100
,
0001
0010
0001
0100
0010
1000
0100
0010
0001
0000
1000
0000
0010
0000
0010
0000
,
1000
0001
0010
0001
1000
0001
0010
0100
1000
0001
0100
0010
1000
0001
1000
0100
,
1000
0001
0100
0010
0100
0001
0010
0100
1000
0001
0010
0001
1000
0001
0100
0001
,
1000
0100
0010
0001
1000
0001
1000
0001
0100
0010
1000
0010
0100
0001
1000
0100
,
0010
0001
1000
0001
0010
0100
1000
0001
0100
0001
1000
0100
0010
0001
0010
0001
,
1000
0010
0100
0001
1000
0001
0100
0010
1000
0001
1000
0100
0010
0001
0100
0001
,
1000
0100
0010
0100
1000
0001
1000
0001
0100
0010
1000
0001
0010
0100
1000
0001
,
0100
0010
1000
0001
0010
0100
1000
0001
0100
0001
1000
0001
0100
0010
1000
0010
,
0100
0001
0010
0100
1000
0001
0100
0010
1000
0010
0100
0001
1000
0100
1000
0100
,
0010
0100
1000
0001
0010
0001
1000
0001
0100
0010
1000
0010
0100
0001
1000
0100
,
1000
0001
0100
0010
0100
0001
0010
0100
1000
0001
0010
0001
1000
0001
0100
0001
,
1000
0100
0010
0001
1000
0001
1000
0001
0100
0010
1000
0010
0100
0001
1000
0100
,
0010
0001
1000
0001
0010
0100
1000
0001
0100
0001
1000
0100
0010
0001
0010
0001
,
1000
0010
0100
0001
1000
0001
0100
0010
1000
0001
1000
0100
0010
0001
0100
0001
,
1000
0100
0010
0100
1000
0001
1000
0001
0100
0010
1000
0001
0010
0100
1000
0001
,
0100
0010
1000
0001
0010
0100
1000
0001
0100
0001
1000
0001
0100
0010
1000
0010
,
0100
0001
0010
0100
1000
0001
0100
0010
1000
0010
0100
0001
1000
0100
1000
0100
,
0010
0001
1000
0001
0100
0010
1000
0010
1000
0001
0100
0001
0010
0100
1000
0001
,
0100
0001
1000
0100
0010
0001
1000
0001
1000
0010
0100
0010
0100
0001
1000
0001
,
0010
0100
1000
0001
0010
0001
0100
0010
0100
0001
1000
0100
0010
0001
1000
0100
,
1000
0001
0100
0001
0100
0010
1000
0010
1000
0001
0100
0001
1000
0100
0010
0001
,
1000
0001
0100
0010
0100
0001
1000
0010
1000
0010
0100
0001
0100
0010
1000
0001
,
0100
0001
1000
0100
0010
0001
1000
0010
1000
0010
0100
0001
1000
0001
0010
0100
,
1000
0001
0100
0001
0010
0100
1000
0001
1000
0001
0010
0100
1000
0001
1000
0001
,
0100
0010
0100
0001
1000
0100
0010
0001
1000
0001
0100
0010
1000
0001
1000
0001
,
1000
0100
0010
0100
1000
0001
0100
0001
1000
0001
0100
0010
1000
0010
0100
0001
,
1000
0001
0010
0100
1000
0001
0100
0001
1000
0001
0010
0100
1000
0100
1000
0001
,
0100
0010
0100
0001
1000
0100
0010
0100
0010
0001
1000
0010
0100
0001
1000
0001
,
1000
0100
0010
0001
1000
0001
0100
0010
0100
0001
1000
0100
0010
0001
1000
0001
,
0100
0010
1000
0010
0100
0001
1000
0010
1000
0010
0100
0001
1000
0001
0010
0100
,
1000
0001
0100
0001
1000
0100
0010
0100
0010
0001
1000
0001
0100
0001
1000
0100
,
1000
0100
0010
0001
1000
0001
0100
0010
0100
0001
1000
0010
0100
0001
0100
0001
,
1000
0100
0010
0001
1000
0100
0010
0100
1000
0001
0100
0010
0100
0001
1000
0010
,
1000
0001
0010
0001
0100
0001
1000
0100
1000
0001
0100
0010
1000
0100
1000
0001
,
1000
0001
0100
0010
0100
0001
0010
0100
1000
0001
0010
0001
1000
0010
1000
0100
,
0010
0001
1000
0010
1000
0100
0010
0001
0100
0010
1000
0010
0100
0001
1000
0100
,
0010
0100
1000
0001
0100
0010
0100
0001
1000
0100
0010
0100
1000
0010
0100
0010
,
1000
0100
0010
0001
1000
0001
0100
0010
1000
0001
1000
0100
0010
0001
0100
0010
,
1000
0100
1000
0010
0100
0001
0010
0001
0100
0010
1000
0001
0010
0100
1000
0001
,
0100
0010
1000
0001
0010
0100
1000
0001
0100
0001
1000
0001
0100
0010
1000
0010
,
0100
0001
0010
0100
0010
0001
0100
0010
0100
0001
0010
0100
1000
0010
0100
0010
,
1000
0100
1000
0001
0010
0100
1000
0010
1000
0001
0100
0001
0010
0100
1000
0010
,
1000
0001
0100
0010
0100
0001
0010
0100
1000
0001
1000
0100
0010
0100
1000
0010
,
0100
0010
1000
0001
0010
0001
0100
0001
0100
0010
1000
0010
0100
0001
1000
0100
,
0010
0001
1000
0001
0010
0100
1000
0001
0100
0001
1000
0100
0010
0001
0100
0010
,
1000
0100
0010
0001
1000
0001
0100
0010
1000
0001
1000
0100
0010
0001
0100
0001
,
1000
0100
0010
0100
1000
0001
1000
0001
0100
0010
1000
0001
0010
0100
1000
0001
,
0100
0010
1000
0001
0010
0100
1000
0001
0100
0001
1000
0001
0100
0010
1000
0010
,
0100
0001
0010
0100
0010
0001
0100
0010
1000
0010
0100
0001
1000
0100
1000
0100
,
0010
0001
1000
0001
0100
0010
1000
0010
0100
0010
1000
0010
0100
0001
1000
0100
,
1000
0001
0100
0010
1000
0010
0100
0001
1000
0100
0010
0001
0010
0001
0100
0010
,
1000
0001
0100
0010
0100
0001
1000
0010
1000
0100
0010
0001
1000
0001
0100
0010
,
1000
0001
0100
0001
1000
0010
0100
0010
1000
0001
0100
0001
1000
0100
1000
0100
,
1000
0001
0100
0010
1000
0001
1000
0010
0100
0001
1000
0001
1000
0100
0010
0001
,
0010
0100
0010
0001
0100
0010
1000
0001
0010
0001
1000
0010
0100
0001
0100
0001
,
0100
0010
1000
0001
1000
0001
1000
0100
0010
0001
1000
0010
1000
0010
0100
0001
,
1000
0001
0010
0001
1000
0010
0100
0001
1000
0001
0010
0001
1000
0010
1000
0010
,
0100
0001
1000
0001
0010
0100
1000
0100
0010
0100
1000
0100
0010
0001
1000
0010
,
1000
0001
0010
0100
1000
0100
0010
0001
1000
0010
0100
0001
0100
0001
0010
0100
,
1000
0001
0010
0100
0010
0001
1000
0100
1000
0010
0100
0001
1000
0001
0010
0100
,
1000
0001
0010
0001
1000
0100
0010
0100
1000
0001
0010
0001
1000
0010
1000
0010
,
1000
0001
0010
0100
1000
0001
1000
0100
0010
0001
1000
0001
1000
0010
0100
0001
,
0100
0010
0100
0001
0010
0100
1000
0001
0100
0001
1000
0100
0010
0001
0010
0001
,
0010
0100
1000
0001
1000
0001
1000
0010
0100
0001
1000
0100
1000
0100
0010
0001
,
1000
0001
0100
0001
1000
0100
0010
0001
1000
0001
0100
0010
1000
0001
1000
0001
,
0010
0100
1000
0010
1000
0010
0100
0001
0010
0100
1000
0001
0010
0001
1000
0100
,
1000
0010
1000
0001
0100
0001
0010
0001
1000
0100
1000
0010
1000
0010
0100
0001
,
0010
0100
1000
0001
0010
0001
0100
0010
1000
0010
1000
0001
0100
0001
0100
0010
,
1000
0100
1000
0001
0010
0100
1000
0001
0010
0001
1000
0010
0100
0010
1000
0001
,
1000
0001
0010
0100
0010
0001
0100
0010
0100
0001
1000
0001
0100
0010
1000
0010
,
1000
0100
1000
0001
0100
0001
0010
0100
1000
0001
0100
0001
0010
0001
1000
0010
,
1000
0010
0100
0001
1000
0100
1000
0010
0100
0001
0100
0010
1000
0001
0010
0100
,
1000
0010
1000
0001
0100
0001
0010
0100
1000
0001
0100
0010
0100
0001
1000
0001
,
0010
0100
1000
0010
1000
0010
0100
0001
0010
0100
1000
0001
0010
0001
1000
0100
,
1000
0010
1000
0001
0100
0001
0010
0001
1000
0100
1000
0010
1000
0010
0100
0001
,
0010
0100
1000
0001
0010
0001
0100
0010
1000
0010
1000
0001
0100
0001
0100
0010
,
1000
0100
1000
0001
0010
0100
1000
0001
0010
0001
1000
0010
0100
0010
1000
0001
,
1000
0001
0010
0100
0010
0001
0100
0010
0100
0001
1000
0001
0100
0010
1000
0010
,
1000
0100
1000
0001
0100
0001
0010
0100
1000
0001
0100
0001
0010
0001
1000
0010
,
1000
0010
0100
0001
1000
0100
1000
0010
0100
0001
0100
0010
1000
0001
0010
0100
,
1000
0010
0100
0001
0010
0001
0100
0010
1000
0000
0001
0000
0010
0000
0010
0000
,
0001
1000
0100
1000
0001
1000
0100
0010
0001
1000
0010
0100
0001
1000
0001
0010
,
0001
1000
0010
0100
0010
1000
0100
0010
0001
1000
0100
1000
0001
1000
0010
1000
,
0001
0010
0100
1000
0001
1000
0001
1000
0010
0100
0001
0100
0010
1000
0001
0010
,
0100
1000
0001
1000
0100
0010
0001
1000
0010
1000
0001
0010
0100
1000
0100
1000
,
0001
0100
0010
1000
0001
1000
0010
0100
0001
1000
0001
0010
0100
1000
0010
1000
,
0001
0010
0100
0010
0001
1000
0001
1000
0010
0100
0001
1000
0100
0010
0001
1000
,
0010
0100
0001
1000
0100
0010
0001
1000
0010
1000
0001
1000
0010
0100
0001
0100
,
0010
1000
0100
0010
0100
1000
0010
0100
0001
0100
0010
1000
0001
0010
0001
0010
,
0100
0010
0001
1000
0100
1000
0001
1000
0010
0100
0001
0100
0010
1000
0001
0010
,
0001
1000
0010
0100
0010
1000
0100
0010
0001
1000
0100
1000
0001
1000
0010
1000
,
0001
0010
0100
1000
0001
1000
0001
1000
0010
0100
0001
0100
0010
1000
0001
0010
,
0100
1000
0001
1000
0100
0010
0001
1000
0010
1000
0001
0010
0100
1000
0100
1000
,
0001
0100
0010
1000
0001
1000
0010
0100
0001
1000
0001
0010
0100
1000
0010
1000
,
0001
0010
0100
0010
0001
1000
0001
1000
0010
0100
0001
1000
0100
0010
0001
1000
,
0010
0100
0001
1000
0100
0010
0001
1000
0010
1000
0001
1000
0010
0100
0001
0100
,
0010
1000
0100
0010
0100
1000
0010
0100
0001
0100
0010
1000
0001
0010
0001
0010
,
0100
1000
0001
1000
0010
0100
0001
0100
0010
0100
0001
0100
0010
1000
0001
0010
,
0001
1000
0010
0100
0001
0100
0010
1000
0001
0010
0100
1000
0100
1000
0010
0100
,
0001
1000
0010
0100
0010
1000
0001
0100
0001
0010
0100
1000
0001
1000
0010
0100
,
0001
1000
0010
1000
0001
0100
0010
0100
0001
1000
0010
1000
0001
0010
0001
0010
,
0001
1000
0010
0100
0001
1000
0001
0100
0010
1000
0001
1000
0001
0010
0100
1000
,
0100
0010
0100
1000
0010
0100
0001
1000
0100
1000
0001
0100
0010
1000
0010
1000
,
0010
0100
0001
1000
0001
1000
0001
0010
0100
1000
0001
0100
0001
0100
0010
1000
,
0001
1000
0100
1000
0001
0100
0010
1000
0001
1000
0100
1000
0001
0100
0001
0100
,
0010
1000
0001
1000
0100
0010
0001
0010
0100
0010
0001
0010
0100
1000
0001
0100
,
0001
1000
0100
0010
0001
0010
0100
1000
0001
0100
0010
1000
0010
1000
0100
0010
,
0001
1000
0100
0010
0100
1000
0001
0010
0001
0100
0010
1000
0001
1000
0100
0010
,
0001
1000
0100
1000
0001
0010
0100
0010
0001
1000
0100
1000
0001
0100
0001
0100
,
0001
1000
0100
0010
0001
1000
0001
0010
0100
1000
0001
1000
0001
0100
0010
1000
,
0010
0100
0010
1000
0100
0010
0001
1000
0010
1000
0001
0010
0100
1000
0100
1000
,
0100
0010
0001
1000
0001
1000
0001
0100
0010
1000
0001
0010
0001
0010
0100
1000
,
0001
1000
0010
1000
0001
0010
0100
1000
0001
1000
0010
0100
0001
1000
0001
1000
,
0100
0010
0001
0100
0001
0100
0010
1000
0100
0010
0001
1000
0100
1000
0001
0010
,
0001
0100
0001
1000
0010
1000
0100
1000
0001
0010
0001
0100
0001
0100
0010
1000
,
0100
0010
0001
1000
0100
1000
0010
0100
0001
0100
0001
1000
0010
1000
0010
0100
,
0001
0010
0001
1000
0100
0010
0001
1000
0100
1000
0001
0100
0010
0100
0001
1000
,
0001
1000
0100
0010
0100
1000
0010
0100
0010
1000
0001
1000
0010
0100
0001
0100
,
0001
0010
0001
1000
0010
1000
0100
0010
0001
1000
0010
1000
0100
1000
0001
0100
,
0001
0100
0010
1000
0001
0010
0001
0100
0010
1000
0010
0100
0001
1000
0100
0010
,
0001
0100
0001
1000
0010
1000
0100
0010
0001
1000
0010
0100
0010
1000
0001
1000
,
0100
0010
0001
0100
0001
0100
0010
1000
0100
0010
0001
1000
0100
1000
0001
0010
,
0001
0100
0001
1000
0010
1000
0100
1000
0001
0010
0001
0100
0001
0100
0010
1000
,
0100
0010
0001
1000
0100
1000
0010
0100
0001
0100
0001
1000
0010
1000
0010
0100
,
0001
0010
0001
1000
0100
0010
0001
1000
0100
1000
0001
0100
0010
0100
0001
1000
,
0001
1000
0100
0010
0100
1000
0010
0100
0010
1000
0001
1000
0010
0100
0001
0100
,
0001
0010
0001
1000
0010
1000
0100
0010
0001
1000
0010
1000
0100
1000
0001
0100
,
0001
0100
0010
1000
0001
0010
0001
0100
0010
1000
0010
0100
0001
1000
0100
0010
,
0001
0100
0001
1000
0010
1000
0010
0100
0001
0010
0100
1000
0001
0000
1000
0000
,
0001
0000
0000
0000
;
