#TITLE:2 Hookers and an Eightball;
#SUBTITLE:;
#ARTIST:Mindless Self Indulgence;
#TITLETRANSLIT:;
#SUBTITLETRANSLIT:;
#ARTISTTRANSLIT:;
#CREDIT:;
#BANNER:2HaaE-Banner.jpg;
#BACKGROUND:2HaaE.jpg;
#LYRICSPATH:;
#CDTITLE:cdtitle.jpg;
#MUSIC:2 Hookers and an Eightball.mp3;
#OFFSET:-3.772;
#SAMPLESTART:79.849;
#SAMPLELENGTH:12.000;
#SELECTABLE:YES;
#BPMS:0.000=138.040;
#STOPS:147.500=1.105
;
#BGCHANGES:;
// cache tags:
#FIRSTBEAT:0.000;
#LASTBEAT:230.000;
#SONGFILENAME:Songs/Community Keyboard Megapack - Volume 3/(DanTheMan650) 2 Hookers and an Eightball/2 Hookers and an Eightball.sm;
#HASMUSIC:1;
#HASBANNER:1;
#MUSICLENGTH:105.299;
// end cache tags

//---------------dance-single - Copied from----------------
#NOTES:
     dance-single:
     Copied from:
     Challenge:
     11:
     1.000,1.000,1.000,0.294,0.992,583.000,151.000,31.000,0.000,0.000:
0001
1000
0010
0100
0001
1000
0010
0100
0010
1000
0100
0010
0001
1000
0100
0010
,
0001
0000
1000
0000
0010
0000
0100
0000
0010
0000
1000
0000
0001
0000
1000
0000
0100
0000
0010
0000
0001
0000
1000
0000
0001
1000
0001
1000
0001
1000
0001
1000
,
0001
0000
0010
0000
0010
0100
0010
0100
0010
0000
0220
0000
0000
0000
0330
0000
,
1000
0000
1000
0100
0010
0100
0010
0001
1010
0000
0000
0110
0000
0000
1001
0000
,
0010
0000
0001
0000
0010
1000
0010
0100
0001
0000
2020
0000
0000
0000
3030
0000
,
0001
0000
0010
1000
0010
0100
0001
0010
0101
0000
0000
1010
0000
0000
0101
0000
,
1010
0000
0101
0000
0010
0000
0001
0000
0110
0000
0000
0000
1010
0000
0100
0100
,
1010
0000
0110
0000
1000
0000
0100
0000
1010
0000
0000
0000
1001
0000
0010
0010
,
1001
0000
0110
0000
0001
0000
1000
0000
0101
0000
0011
0000
0010
0000
0100
0100
,
1010
0000
0000
0101
0000
0000
0110
0000
1001
0000
0000
0000
0000
0000
0000
0000
,
0011
0000
1100
0000
0010
0000
0100
0000
0011
0000
0000
0000
1010
0000
0001
0001
,
1010
0000
0101
0000
0010
0000
0001
0000
1100
0000
0000
0000
0011
0000
0010
0010
,
1100
0110
0001
1000
0101
0011
0100
1000
,
1000
0000
0100
0000
0010
0001
0010
0001
0000
0010
0200
0300
1000
0100
0010
0001
,
1000
0000
0010
0000
1000
0001
1000
0010
0000
0100
0020
1030
0001
1000
0010
0100
,
0010
0000
0001
0000
1000
0010
0100
0001
0000
1000
0020
0030
1000
0001
0020
0030
,
1100
0000
1000
0100
1010
0000
0001
0010
0101
0000
0100
0010
1001
0010
1000
0000
,
0110
1000
0100
0010
0001
1000
0100
0010
0000
0100
0010
0000
0110
0000
0000
0000
,
1000
0001
1000
0010
0100
0001
0010
0100
1000
0000
0220
0000
0000
0000
0330
0000
,
0001
0010
0001
0010
0100
1000
0100
0010
0101
0000
0000
1010
0000
0000
0110
0000
,
1000
0010
0100
0001
0100
0010
1000
0001
0100
0000
2020
0000
0000
0000
3030
0000
,
1100
0000
0000
0010
0101
0000
0000
0100
1010
0000
0000
0001
1010
0100
0000
0010
,
1001
0000
1100
0000
0010
0000
0001
0000
0110
0000
0000
0000
0010
0000
0100
0100
,
0011
0000
1010
0000
0100
0000
0010
0000
1001
0000
0000
0000
1000
0000
0001
0001
,
0110
0001
1000
0100
1001
0101
0010
0100
,
1001
0000
0000
0110
0000
0000
2002
0000
0000
0000
0000
0000
3003
0000
0000
0000
,
0101
0000
1010
0000
0100
0000
1000
0000
0110
0000
0000
0000
0001
0000
0010
0010
,
1100
0000
0110
0000
0001
0000
1000
0000
0011
0000
0000
0000
0100
0000
1000
1000
,
0011
0110
0001
1000
1100
0011
0100
1000
,
1000
0000
0100
0000
0010
0001
0010
0001
0000
0001
0020
0000
0130
1000
0100
0010
,
0001
1000
0010
0100
0010
1000
0100
1000
0000
0100
0000
1000
0001
0100
0001
1000
,
0100
0000
1000
0001
1000
0100
0010
0001
1000
0000
0100
0000
0020
0000
0000
0030
,
1010
0100
0010
0001
1000
0100
0010
0001
0000
0001
1000
0000
0110
0000
0000
0000
,
1000
0000
0100
0000
0010
0001
1000
0100
0010
0000
2002
0000
0000
0000
3003
0000
,
0001
0000
1000
0010
0100
0001
1000
0100
1010
0000
0000
0101
0000
0000
0110
0000
,
0010
0000
0100
0000
0001
1000
0001
0100
0010
0000
0202
0000
0000
0000
0303
0000
,
1000
0000
0010
0100
0010
1000
0001
1000
0110
0000
0000
1001
0000
0000
0220
0330
,
1000
0000
0100
0000
0011
0100
0000
0000
0001
0000
1000
0000
0110
0001
0000
0000
,
0100
0000
0100
0000
1000
0000
0010
0000
0001
0000
0001
0000
0110
1000
0000
0000
,
2100
0000
0100
3000
0011
0100
0000
0000
1000
0000
0100
0000
1010
0100
0000
0000
,
0102
0000
0100
0000
0013
0100
1000
0000
0100
0000
0100
0000
1010
0100
0011
0000
,
2010
0000
0000
3000
0101
0000
1010
0000
0210
0000
0000
0300
1001
0000
0010
0000
,
1010
0101
1010
0101
1010
0101
1010
0101
,
0110
0000
0000
0000
0000
0000
1000
0000
0110
0000
0001
1000
0001
0000
0010
0000
0101
0000
0000
0000
0000
0000
0100
0000
1010
0000
0100
0010
0100
0000
0001
0000
,
1010
0000
0000
0000
0000
0000
0000
0000
0000
0000
0000
0000
0000
0000
0000
0000
0000
0000
0000
0000
0000
0000
0000
0000
0000
0000
0000
0000
0000
0000
0000
0000
0000
0000
0000
0000
0100
0000
0000
0000
0000
0000
0000
0000
0000
0000
0000
0000
1010
0000
0000
0000
0000
0000
0000
0000
0000
0000
0000
0000
0001
0000
0000
0000
0000
0000
1000
0000
0000
0000
0000
0000
0001
0000
0000
0000
0000
0000
0000
0000
0000
0000
0000
0000
0010
0000
0000
0000
0000
0000
0000
0000
0000
0000
0000
0000
1001
0000
0000
0000
0000
0000
0000
0000
0000
0000
0000
0000
0000
0000
0000
0000
0101
0000
0000
0000
0000
0000
0000
0000
0000
0000
0000
0000
0000
0000
0000
0000
1010
0000
0000
0000
0000
0000
0000
0000
0000
0000
0000
0000
0000
0000
0000
0000
0110
0000
0000
0000
0000
0000
0000
0000
0000
0000
0000
0000
0000
0000
0000
0000
0011
0000
0000
0000
0000
0000
0000
0000
0000
0000
0000
0000
0000
0000
0000
0000
1100
0000
0000
0000
0000
0000
0000
0000
0000
0000
0000
0000
0000
0000
0000
0000
,
0110
0000
0000
0000
0000
0000
0001
0000
0110
0000
1000
0001
1000
0000
0100
0000
1010
0000
0000
0000
0000
0000
0010
0000
0101
0000
0010
0100
0010
0000
1000
0000
,
0101
0000
0000
0000
0000
0000
0000
0000
0000
0000
0000
0000
0000
0000
0000
0000
0000
0000
0000
0000
0000
0000
0000
0000
0000
0000
0000
0000
0000
0000
0000
0000
0000
0000
0000
0000
0010
0000
0000
0000
0000
0000
0000
0000
0000
0000
0000
0000
0101
0000
0000
0000
0000
0000
0000
0000
0000
0000
0000
0000
1000
0000
0000
0000
0000
0000
0001
0000
0000
0000
0000
0000
1000
0000
0000
0000
0000
0000
0000
0000
0000
0000
0000
0000
0100
0000
0000
0000
0000
0000
0000
0000
0000
0000
0000
0000
1001
0000
0000
0000
0000
0000
0000
0000
0000
0000
0000
0000
0000
0000
0000
0000
1010
0000
0000
0000
0000
0000
0000
0000
0000
0000
0000
0000
0000
0000
0000
0000
0101
0000
0000
0000
0000
0000
0000
0000
0000
0000
0000
0000
0000
0000
0000
0000
0110
0000
0000
0000
0000
0000
0000
0000
0000
0000
0000
0000
0000
0000
0000
0000
1100
0000
0000
0000
0000
0000
0000
0000
0000
0000
0000
0000
0000
0000
0000
0000
0011
0000
0000
0000
0000
0000
0000
0000
0000
0000
0000
0000
0000
0000
0000
0000
,
0110
0000
0000
0000
0000
0000
1000
0000
0110
0000
0001
1000
0001
0000
0010
0000
0101
0000
0000
0000
0000
0000
0100
0000
1010
0000
0100
0010
0100
0000
0001
0000
,
1010
0000
0000
0000
0000
0000
0000
0000
0000
0000
0000
0000
0000
0000
0000
0000
0000
0000
0000
0000
0000
0000
0000
0000
0000
0000
0000
0000
0000
0000
0000
0000
0000
0000
0000
0000
0100
0000
0000
0000
0000
0000
0000
0000
0000
0000
0000
0000
1010
0000
0000
0000
0000
0000
0000
0000
0000
0000
0000
0000
0001
0000
0000
0000
0000
0000
1000
0000
0000
0000
0000
0000
0001
0000
0000
0000
0000
0000
0000
0000
0000
0000
0000
0000
0010
0000
0000
0000
0000
0000
0000
0000
0000
0000
0000
0000
1001
0000
0000
0000
0000
0000
0000
0000
0000
0000
0000
0000
0000
0000
0000
0000
0101
0000
0000
0000
0000
0000
0000
0000
0000
0000
0000
0000
0000
0000
0000
0000
1010
0000
0000
0000
0000
0000
0000
0000
0000
0000
0000
0000
0000
0000
0000
0000
0110
0000
0000
0000
0000
0000
0000
0000
0000
0000
0000
0000
0000
0000
0000
0000
0011
0000
0000
0000
0000
0000
0000
0000
0000
0000
0000
0000
0000
0000
0000
0000
1100
0000
0000
0000
0000
0000
0000
0000
0000
0000
0000
0000
0000
0000
0000
0000
,
0110
0000
1000
0000
1000
0100
0000
0100
1000
0000
0100
0000
0012
0000
1000
0103
,
0010
0000
0001
0000
0010
1000
0000
1000
0010
0000
0100
0000
2010
0000
0100
3010
,
0001
0000
0010
0000
0100
0010
0000
0010
0100
0000
1000
0000
0210
0000
0000
0002
,
0300
0000
2000
0003
3100
0010
0001
1000
0100
0010
0001
1000
0100
0000
0010
0000
,
0001
1000
0001
1000
0000
1000
0100
0000
1000
0010
0100
0001
1000
0000
0100
0000
,
1000
0010
0100
0001
0000
0000
0010
0001
1000
0010
0100
0001
1000
0000
0010
0000
,
0100
0001
0100
0001
0000
1000
0100
0000
1000
0001
1000
0000
1010
0000
1000
0100
,
1010
0000
0001
0100
1010
0000
0100
0010
1001
0100
0010
0000
0101
0010
0100
1000
,
0001
0010
0100
1000
0000
0010
0100
0000
0110
0000
0000
0000
0000
0000
0000
0000
;

//---------------dance-single - Copied from Copied f----------------
#NOTES:
     dance-single:
     Copied from Copied f:
     Hard:
     10:
     0.878,0.792,0.693,0.294,0.812,543.000,73.000,31.000,0.000,0.000:
0001
0010
1001
0000
1000
0100
1001
0000
,
0001
0000
0010
0000
0001
0000
1000
0000
0100
0000
0010
0000
0001
1000
0001
1000
,
0001
0000
1000
0000
0010
0100
0010
0100
0010
0000
0220
0000
0000
0000
0330
0000
,
1000
0000
1000
0100
0010
0100
0010
0001
0010
0000
0000
0110
0000
0000
1001
0000
,
0010
0000
0001
0000
0010
0001
0010
0001
1000
0000
2020
0000
0000
0000
3030
0000
,
0001
0000
0010
1000
0010
0100
0001
0010
0100
0000
0000
1010
0000
0000
0101
0000
,
1010
0100
0010
0001
0110
0000
1010
0100
,
1010
0100
1000
0100
1010
0000
1001
0010
,
1001
0010
0001
1000
0101
0011
0010
0100
,
1010
0000
0000
0101
0000
0000
0110
0000
1001
0000
0000
0000
0000
0000
0000
0000
,
0011
0100
0010
0100
0011
0000
1010
0001
,
1010
0001
0010
0001
1100
0000
0011
0010
,
1100
0010
0001
1000
0101
0011
0100
1000
,
1000
0000
0100
0000
0010
0001
0010
0001
0000
0010
0200
0300
1000
0100
0010
0001
,
1000
0000
0010
0000
1000
0001
1000
0010
0000
0100
0020
1030
0001
1000
0010
0100
,
0010
0000
0001
0000
1000
0010
0100
0001
0000
1000
0020
0030
1000
0001
0020
0030
,
1100
0000
1000
0100
0010
0000
0001
0000
0100
0000
0100
0000
1000
0010
1000
0000
,
0100
1000
0100
0010
0001
1000
0100
0010
0000
0100
0010
0000
0110
0000
0000
0000
,
1000
0001
1000
0010
0100
0001
0010
0100
1000
0000
0220
0000
0000
0000
0330
0000
,
0001
0010
0001
0010
0100
1000
0100
0010
0100
0000
0000
1010
0000
0000
0110
0000
,
1000
0010
0100
0001
0100
0010
1000
0001
0100
0000
2020
0000
0000
0000
3030
0000
,
1100
0000
0000
0010
0100
0000
0000
0100
0010
0000
0000
1000
0010
0100
0000
0010
,
1000
1100
0010
0001
0110
0000
0010
0100
,
0011
1000
0100
0010
1001
0000
1000
0001
,
0110
0001
1000
0100
1001
0100
0010
0100
,
1001
0000
0000
0110
0000
0000
2002
0000
0000
0000
0000
0000
3003
0000
0000
0000
,
0101
0010
0100
1000
0110
0000
0001
0010
,
1100
0010
0001
1000
0011
0000
0100
1000
,
0011
0100
0001
1000
1100
0011
0100
1000
,
1000
0000
0100
0000
0010
0001
0010
0001
0000
0001
0020
0000
0130
1000
0100
0010
,
0001
1000
0010
0100
0010
1000
0100
1000
0000
0100
0000
1000
0001
0100
0001
1000
,
0100
0000
1000
0001
1000
0100
0010
0001
1000
0000
0100
0000
0020
0000
0000
0030
,
1000
0100
0010
0001
1000
0100
0010
0001
0000
0001
1000
0000
0110
0000
0000
0000
,
1000
0000
0100
0000
0010
0001
1000
0100
0010
0000
2002
0000
0000
0000
3003
0000
,
0001
0000
1000
0010
0100
0001
1000
0100
0010
0000
0000
0101
0000
0000
0110
0000
,
0010
0000
0100
0000
0001
1000
0001
0100
0010
0000
0202
0000
0000
0000
0303
0000
,
1000
0000
0010
0100
0010
1000
0001
1000
0100
0000
0000
1001
0000
0000
0220
0330
,
1000
0000
0100
0000
0010
0100
0000
0000
0001
0000
1000
0000
0010
0001
0000
0000
,
0100
0000
0100
0000
1000
0000
0010
0000
0001
0000
0001
0000
0100
1000
0000
0000
,
2100
0000
0100
3000
0010
0100
0000
0000
1000
0000
0100
0000
0010
0100
0000
0000
,
0102
0000
0100
0000
0013
0100
1000
0000
0100
0000
0100
0000
1000
0100
0010
0000
,
2010
0000
0000
3000
0101
0000
1010
0000
0210
0000
0000
0300
1001
0000
0010
0000
,
1000
0001
1000
0001
1000
0001
1000
0001
,
0110
0000
0000
1000
0100
0010
0001
0010
0100
0000
0000
0001
0010
0100
1000
0100
,
1000
0000
0000
0000
0000
0000
0000
0000
0000
0100
0000
0000
0010
0000
0000
0001
0000
0000
0010
0000
0000
0100
0000
0000
1000
0000
0000
0000
0100
0000
0000
0000
0010
0000
0000
0000
0001
0000
0000
0000
0010
0000
0000
0000
0100
0000
0000
0000
,
1000
0000
0000
0001
0010
0001
1000
0100
0010
0000
0000
1000
0001
0100
0010
1000
,
0100
0000
0000
0000
0000
0000
0000
0000
0000
0001
0000
0000
0010
0000
0000
0100
0000
0000
1000
0000
0000
0100
0000
0000
1000
0000
0000
0000
0010
0000
0000
0000
0100
0000
0000
0000
0010
0000
0000
0000
1000
0000
0000
0000
0010
0000
0000
0000
,
0100
0000
0000
1000
0001
1000
0001
0010
0100
0000
0000
0010
1000
0100
0010
0001
,
0010
0000
0000
0000
0000
0000
0000
0000
0000
1000
0000
0000
0010
0000
0000
1000
0000
0000
0010
0000
0000
0100
0000
0000
0001
0000
0000
0000
0100
0000
0000
0000
0010
0000
0000
0000
1000
0000
0000
0000
0001
0000
0000
0000
0100
0000
0000
0000
,
0010
0000
1000
0000
1000
0100
0000
0100
1000
0000
0100
0000
0012
0000
1000
0103
,
0010
0000
0001
0000
0010
1000
0000
1000
0010
0000
0100
0000
2010
0000
3100
0010
,
0001
0000
0010
0000
0100
0010
0000
0010
0100
0000
1000
0000
0210
0000
0000
0002
,
0300
0000
2000
0003
3100
0010
0001
1000
0100
0010
0001
1000
0100
0000
0010
0000
,
0001
1000
0001
1000
0000
1000
0100
0000
1000
0010
0100
0001
1000
0000
0100
0000
,
1000
0010
0100
0001
0000
0000
0010
0001
1000
0010
0100
0001
1000
0000
0010
0000
,
0100
0001
0100
0001
0000
1000
0100
0000
1000
0001
1000
0000
1010
0000
1000
0100
,
0010
0000
0001
0100
0010
0000
1000
0010
1000
0100
0010
0000
0001
0010
0100
1000
,
0001
0010
0100
1000
0000
0010
0100
0000
0110
0000
0000
0000
0000
0000
0000
0000
;
