#TITLE:Mahoro de Mambo;
#SUBTITLE:- Mahoromatic Ending;
#ARTIST:Yumi Kikuchi & Manabi Mizuno & Asami Sanada;
#TITLETRANSLIT:;
#SUBTITLETRANSLIT:;
#ARTISTTRANSLIT:;
#CREDIT:;
#BANNER:Mambo-logo.jpg;
#BACKGROUND:Mambo-bg.jpg;
#LYRICSPATH:;
#CDTITLE:cdtitle02.png;
#MUSIC:Mahoromatic - Mahoro de Mambo (ED).mp3;
#OFFSET:2.000;
#SAMPLESTART:100.000;
#SAMPLELENGTH:12.000;
#SELECTABLE:YES;
#BPMS:0.000=105.880,68.000=105.000,76.000=105.880,124.000=105.000,132.000=105.880;
#STOPS:;
#BGCHANGES:;
// cache tags:
#FIRSTBEAT:4.000;
#LASTBEAT:398.000;
#SONGFILENAME:Songs/Otaku's Dream 1st Anime Mix/Tweety3187 - Mahoro de Mambo (Mahoromatic ED)/Trance.sm;
#HASMUSIC:1;
#HASBANNER:1;
#MUSICLENGTH:225.547;
// end cache tags

//---------------dance-single - ----------------
#NOTES:
     dance-single:
     :
     Hard:
     10:
     1.000,1.000,1.000,0.421,0.769,952.000,590.000,95.000,0.000,0.000:
0000
0000
0000
0000
,
1010
0000
0010
0000
0101
0000
0000
1010
0000
0110
0000
0011
0110
1000
0001
0000
,
0011
0000
1000
0000
1100
0000
0000
0110
0000
1100
0000
0011
0011
1000
0010
0000
,
0101
0000
1000
0000
0101
0000
0000
0011
0000
0110
0000
1001
0110
0001
1000
0000
,
0101
0000
0001
0000
1010
0000
0000
0110
0000
0011
0000
0110
0011
0100
0010
0000
,
1010
0000
0100
0000
1100
0000
0000
0101
0000
1010
0000
1001
1001
0010
0001
0000
,
0110
0000
0001
0000
1010
0000
0000
0110
0000
1010
0000
0110
0011
1000
0010
0000
,
0101
0000
0010
0000
0011
0000
0000
0110
0000
0011
0000
0110
1100
0001
0010
0000
,
1001
1001
1001
1001
0110
0011
1010
0000
0000
0110
0000
0000
,
1001
0000
0010
0001
0110
0000
1010
0110
0000
1001
0000
0001
0110
0000
1000
0000
,
0101
0101
0101
0101
1010
0000
0100
0000
2001
0000
0001
0000
3001
0000
0000
0000
,
0110
0000
1000
0010
1001
0000
1100
1001
0000
0110
0000
0010
1001
0000
0100
0000
,
0011
0011
0011
0011
1100
0000
0001
0000
0210
0000
0010
0000
0310
0000
0000
0000
,
0011
0000
1000
0010
0110
0000
1010
0101
0000
0011
0000
0010
0102
0000
2000
3003
,
0110
0000
1000
0000
0011
0000
0010
0000
1100
0000
0011
0202
0000
0303
1010
0000
,
0210
0000
0301
0000
1002
0000
0013
0000
1010
0110
0011
1001
0000
0110
0110
0110
,
0011
0000
0110
0000
1010
1100
0000
2020
0000
0000
3030
0101
0000
0000
0000
0000
,
1001
0010
0100
0010
0100
0010
0100
0010
,
0100
0010
0100
0010
0100
0000
1010
0000
,
1001
0000
0010
0000
0011
0000
0000
0110
0000
1001
0000
0101
0101
1000
0100
0000
,
1010
0000
0100
0000
1001
0000
0000
1010
0000
1001
0000
1010
1100
0001
1000
0000
,
0110
0000
1000
0000
1100
0000
0000
1010
0000
1100
0000
1010
0011
0100
1000
0000
,
0101
0101
0101
0101
1010
1100
1001
0000
0000
1010
0000
0000
,
0101
0000
1000
0100
1010
0000
1001
1010
0000
0101
0000
0100
1010
0000
0001
0000
,
0110
0110
0110
0110
1001
0000
0010
0000
0102
0000
0100
0000
0103
0000
0000
0000
,
1010
0000
0001
1000
0101
0000
0011
0101
0000
1010
0000
1000
0101
0000
0010
0000
,
1100
1100
1100
1100
0011
0000
0100
0000
1020
0000
1000
0000
1030
0000
0000
0000
,
1100
0000
0001
1000
1010
0000
1001
0110
0000
0101
1010
0001
0110
1100
1001
0000
,
1010
0000
0001
0000
1100
0000
1000
0000
0011
0000
1100
0220
0000
0330
1001
0000
,
1020
0000
0130
0000
0201
0000
1300
0000
1001
1010
1100
0101
0000
1010
1010
1010
,
1100
0000
1010
0000
1001
0011
0000
2002
0000
0000
3003
0110
0000
0000
0000
0000
,
0101
1000
0010
1000
0010
1000
0010
1000
,
0010
1000
0010
1000
0010
0000
1001
0011
,
2001
0000
3010
0102
1000
0003
1010
0001
0210
0000
0301
1000
0011
1000
0110
0000
,
1002
0000
0013
1200
0001
0300
0110
0001
2010
0000
3001
1000
0110
0001
0110
0000
,
1010
0000
1100
0010
0101
0000
1001
0100
1010
0000
1100
0010
0011
1000
0110
0000
,
0012
0000
1003
0021
0000
1030
0011
0100
0012
0000
0003
1000
0110
0001
1010
0000
,
0210
0000
0310
2001
0100
3000
0011
1000
0120
0000
0130
0010
1001
0100
1010
0000
,
0210
0000
0310
2001
0010
3000
0011
1000
0110
0000
1010
0001
1100
0010
1100
0000
,
2100
0000
0010
0100
0001
0000
3100
1000
0012
0000
1003
0210
0001
1300
0011
0000
,
0102
0000
0100
0010
1000
0000
0013
0100
2010
0000
3001
0210
0001
1300
0110
0000
,
1002
0000
0010
0100
1000
0000
0100
0010
1000
0000
0100
1000
0100
0010
0103
0000
,
1001
1100
0110
1001
1100
0110
1001
1100
0110
1001
1100
0110
,
1010
0000
1010
0000
1010
0000
1010
0000
0110
0000
0011
0000
0011
0000
0000
1010
0000
0000
1010
0000
0000
1010
0000
0000
,
1010
0000
0100
0010
0101
0000
1100
0101
0000
1010
0000
0010
0101
0010
1000
0000
,
0011
0011
0011
0011
1100
0000
0001
0000
2010
0000
0010
0000
3010
0000
0000
0000
,
0101
0000
1000
0100
1010
0000
1001
1010
0000
0101
0000
0100
1010
0000
0001
0000
,
0110
0110
0110
0110
1001
0000
0010
0000
0102
0000
0100
0000
0103
0000
0000
0000
,
0110
0000
1000
0100
0101
0000
1100
0011
0000
0110
0000
0100
0021
0000
2000
3030
,
0101
0000
1000
0000
0110
0000
0100
0000
1001
0000
0110
0022
0000
0033
1100
0000
,
0102
0000
0013
0000
1020
0000
0130
0000
1100
0101
0110
1010
0000
0101
0101
0101
,
0110
0000
0101
0000
1100
1001
0000
2200
0000
0000
3300
0000
0011
0000
0000
0000
,
0011
0000
0001
0000
1100
0000
0000
0011
0000
1001
0000
0101
1001
0010
0100
0000
,
0101
0000
0010
0000
1010
0000
0000
1001
0000
1010
0000
0101
0101
0010
0001
0000
,
1100
0000
0010
0000
1100
0000
0000
0101
0000
1001
0000
0110
1001
0100
0010
0000
,
1100
0000
0100
0000
0011
0000
0000
1001
0000
0101
0000
1001
0101
1000
0001
0000
,
0011
0000
1000
0000
1010
0000
0000
1100
0000
0011
0000
0110
0110
0001
0100
0000
,
1001
0000
0100
0000
0011
0000
0000
1001
0000
0011
0000
1001
0101
0010
0001
0000
,
1100
0000
0001
0000
0101
0000
0000
1001
0000
0101
0000
1001
1010
0100
0001
0000
,
0110
1001
0101
0011
1001
0101
0110
0000
0000
0101
0000
0000
,
1100
0000
0010
1000
0011
0000
0110
0011
0000
1100
0000
1000
0011
0000
0100
0000
,
1001
1001
1001
1001
0110
0000
0001
0000
1200
0000
1000
0000
1300
0000
0000
0000
,
0011
0000
0100
0010
1100
0000
0101
1100
0000
0011
0000
0010
1100
0000
0001
0000
,
1010
1010
1010
1010
0101
0000
1000
0000
0012
0000
0010
0000
0013
0000
0000
0000
,
1010
0000
0100
0010
0011
0000
0110
1001
0000
1010
0000
0100
1010
0001
0110
0000
,
0011
0000
0100
0000
1010
0000
0010
0000
0101
0000
1010
2002
0000
3003
0110
0000
,
0012
0000
1003
0000
2100
0000
3010
0000
0110
0011
1010
1100
0000
0011
0011
0011
,
1010
0000
0011
0000
0110
0101
0000
0220
0000
0000
0330
1001
0000
0000
0000
0000
,
1100
0010
0001
0010
0001
0010
0001
0010
,
0001
0010
0001
0010
0001
0000
0110
0101
,
0120
0000
0031
1200
0010
0300
0011
0100
2001
0000
3100
0010
0101
0010
1001
0000
,
0210
0000
0301
2010
0100
3000
1001
0100
0021
0000
0130
0010
1001
0100
1001
0000
,
0011
0000
1010
0001
1100
0000
0110
1000
0011
0000
1010
0001
0101
0010
1001
0000
,
0201
0000
0310
0102
0000
0013
0101
1000
0201
0000
0300
0010
1001
0100
0011
0000
,
2001
0000
3001
0120
1000
0030
0101
0010
1002
0000
1003
0001
0110
1000
0011
0000
,
2001
0000
3001
0120
0001
0030
0101
0010
1001
0000
0011
0100
1010
0001
1010
0000
,
1020
0000
0001
1000
0100
0000
1030
0010
0201
0000
0310
2001
0100
3010
0101
0000
,
1200
0000
1000
0001
0010
0000
0301
1000
0021
0000
0130
2001
0100
3010
1001
0000
,
0210
0000
0001
1000
0010
0000
1000
0001
0010
0000
1000
0010
1000
0001
1300
0000
,
0110
1010
1001
0110
1010
1001
0110
1010
1001
0110
1010
1001
,
0011
0000
0011
0000
0011
0000
0011
0000
1001
0000
0101
0000
0101
0000
0000
0011
0000
0000
0011
0000
0000
0011
0000
0000
,
0011
0000
1000
0001
1100
0000
1010
1100
0000
0011
0000
0001
1100
0001
0010
0000
,
0101
0101
0101
0101
1010
0000
0100
0000
0021
0000
0001
0000
0031
0000
0000
0000
,
1100
0000
0010
1000
0011
0000
0110
0011
0000
1100
0000
1000
0011
0000
0100
0000
,
1001
1001
1001
1001
0110
0000
0001
0000
1200
0000
1000
0000
1300
0000
0000
0000
,
1001
0000
0010
1000
1100
0000
1010
0101
0000
1001
0000
1000
0102
0000
0020
0033
,
1100
0000
0010
0000
1001
0000
1000
0000
0110
0000
1001
0202
0000
0303
1010
0000
,
1200
0000
0301
0000
0012
0000
1003
0000
1010
1100
1001
0011
0000
1100
1100
1100
,
1001
0000
1100
0000
1010
0110
0000
2010
0000
0001
3010
0000
0101
0000
1000
0000
,
0102
0000
0013
0000
0210
0000
1300
0000
0011
0100
1000
0210
0000
0301
1010
0100
,
0012
0000
0000
0000
0000
0000
0000
0000
0203
0000
0000
0000
0000
0000
0000
0000
0320
0000
0000
0000
0000
0000
0000
0000
2030
0000
0000
0000
0000
0000
0000
3000
,
0102
0000
0010
0000
1000
0000
0000
0100
0000
0010
0000
1000
0100
0010
1003
0000
,
0011
0000
1000
0000
1100
0000
0000
0110
0000
1100
0000
0011
0011
1000
0010
0000
,
0101
0000
1000
0000
0101
0000
0000
0011
0000
0110
0000
1001
0110
0001
1000
0000
,
0101
0000
0001
0000
1010
0000
0000
0110
0000
0011
0000
0110
0011
0100
0010
0000
,
1010
0000
0100
0000
1100
0000
0000
0101
0000
1010
0000
1001
1001
0010
0001
0000
,
0110
0000
0001
0000
1010
0000
0000
0110
0000
1010
0000
0110
0011
1000
0010
0000
,
0101
0000
0010
0000
0011
0000
0000
0110
0000
0011
0000
0110
1100
0001
0010
0000
,
1001
0110
1010
0110
0011
1001
0110
1010
0110
0011
1001
0110
,
1100
0000
0000
0000
0000
0000
0000
0000
0001
0010
0100
1000
0001
0010
0100
1000
1001
0000
0000
0000
0000
0000
0000
0000
0000
0000
0000
0000
0000
0000
0000
0000
;

//---------------dance-single - ----------------
#NOTES:
     dance-single:
     :
     Medium:
     6:
     0.486,0.618,0.536,0.412,0.140,554.000,121.000,93.000,0.000,0.000:
0000
0000
0000
0000
,
1001
0010
0100
0001
,
0010
1000
0001
0100
,
1001
1000
0010
0100
,
1000
0100
0001
0010
,
0101
0010
1000
0100
,
0001
0010
0100
0100
,
0110
1000
0001
0010
,
1000
0001
1000
0001
1000
0001
2001
0000
0000
0001
0000
3000
,
0101
0010
0100
0001
1000
0100
0010
0100
,
1001
0000
0110
0000
1002
1000
1003
0000
,
1100
0010
0100
0001
1000
0001
0100
0010
,
0100
0001
1000
0010
0210
0010
0310
0000
,
1002
0100
1003
0000
0210
0001
0310
0000
,
1010
0001
0101
1000
0220
0330
2002
3003
,
0002
0103
0020
1030
0200
0301
2000
3010
,
1001
0000
0100
0000
0022
0000
0033
1010
0000
0000
0000
0000
0000
0000
0000
0000
,
0000
0000
0000
0000
,
0000
0000
0000
0000
,
0110
0001
1000
0010
,
0100
0001
0010
1000
,
0011
0100
1000
0100
,
0010
0000
0100
0000
0010
0000
0100
0000
0010
0000
0100
0000
1020
0000
0000
0000
0000
0000
0100
0000
0000
0030
0000
0000
,
1010
0100
0010
1000
0001
0010
0100
0010
,
1001
0000
0110
0000
2001
0001
3001
0000
,
0011
0100
0010
1000
0001
1000
0010
0100
,
0010
1000
0001
0100
0120
0100
0130
0000
,
2001
0010
3001
0000
0120
1000
0130
0000
,
0101
1000
1010
0001
0220
0330
2002
3003
,
2000
3010
0200
0301
0020
1030
0002
0103
,
1001
0000
0010
0000
2200
0000
3300
0101
0000
0000
0000
0000
0000
0000
0000
0000
,
0000
0000
0000
0000
,
0000
0000
0000
0000
0000
0000
0010
0100
,
1000
0000
0000
0001
0000
0000
0100
0000
0010
0000
0000
0000
1000
0000
0100
0000
,
0001
0000
0000
0010
0000
0000
0100
0000
0001
0000
0000
0000
1000
0000
0010
0000
,
1001
0100
0010
0100
0010
0100
0001
0010
,
1001
0000
0000
1001
0000
0000
1001
0000
1001
0000
0000
0000
0100
0000
0100
0000
,
0001
0000
0000
0010
0000
0000
0100
0000
1000
0000
0000
0000
0001
0000
0100
0000
,
0001
0000
0000
0010
0000
0000
1000
0000
0100
0000
0001
0000
0100
0000
1000
0000
,
2010
0000
0010
0000
0000
0000
3010
0000
0110
0000
0000
0011
0000
0000
0110
0000
,
1002
0000
1000
0000
0000
0000
1003
0000
1010
0000
0000
0110
0000
0000
1001
0000
,
2002
0000
0000
0000
0000
0000
0000
0000
0000
0000
0000
0000
0000
3003
0000
0000
,
0001
0001
0001
0100
0100
0100
0010
0010
0010
1000
1000
1000
,
0001
0000
0100
0000
0001
0000
0100
0000
0001
0000
0100
0000
0012
0000
0000
1000
0000
0000
1000
0000
0000
1003
0000
0000
,
1100
0001
1000
0100
0010
1000
0001
1000
,
0110
0000
1001
0000
0210
0010
0310
0000
,
1010
0001
1000
0100
0010
0100
1000
0001
,
1000
0100
0010
0001
2001
0001
3001
0000
,
0210
1000
0310
0000
2001
0100
3001
0000
,
0011
0100
1100
0010
2002
3003
0220
0330
,
0200
1300
0002
0013
2000
3100
0020
0031
,
0110
0000
1000
0000
0202
0000
0303
0011
0000
0000
0000
0000
0000
0000
0000
0000
,
1001
0010
0100
0001
,
1000
0100
0001
0010
,
0011
0100
1000
0001
,
0100
0010
1000
0100
,
1001
0100
0010
0100
,
1000
0001
0100
0010
,
0110
1000
0001
0100
,
1000
0100
1000
0100
1000
0100
2001
0000
0000
0010
0000
3000
,
0011
1000
0010
0001
0100
0010
1000
0010
,
0101
0000
1010
0000
0102
0100
0103
0000
,
0110
1000
0010
0001
0100
0001
0010
1000
,
0010
0001
0100
1000
1020
1000
1030
0000
,
0102
0010
0103
0000
1020
0001
1030
0000
,
1100
0001
0011
0100
2020
3030
0202
0303
,
0002
0013
2000
3100
0020
0031
0200
1300
,
0101
0000
0010
0000
2002
0000
3003
1100
0000
0000
0000
0000
0000
0000
0000
0000
,
0000
0000
0000
0000
,
0000
0000
0000
0000
0000
0000
1000
0100
,
0001
0000
0000
0010
0000
0000
0100
0000
0001
0000
0000
0000
1000
0000
0100
0000
,
0001
0000
0000
0100
0000
0000
1000
0000
0100
0000
0000
0000
0010
0000
0100
0000
,
1010
0100
1000
0100
0010
0001
0010
0001
,
0110
0000
0000
0110
0000
0000
0110
0000
0110
0000
0000
0000
1000
0000
0100
0000
,
0001
0000
0000
1000
0000
0000
1000
0000
1000
0000
0000
0000
0001
0000
0001
0000
,
0100
0000
0000
0010
0000
0000
0100
0000
0010
0000
1000
0000
0001
0000
0010
0000
,
0210
0000
0010
0000
0000
0000
0310
0000
1001
0000
0000
0110
0000
0000
0011
0000
,
2010
0000
0010
0000
0000
0000
3010
0000
1100
0000
0000
0110
0000
0000
0110
0000
,
0220
0000
0000
0330
,
1000
1000
1000
0100
0100
0100
0001
0001
0001
0100
0100
0100
,
0001
0000
0100
0000
0001
0000
0100
0000
0001
0000
0100
0000
0012
0000
0000
0100
0000
0000
0100
0000
0000
0103
0000
0000
,
0011
1000
0001
0010
0100
0001
1000
0001
,
0110
0000
1001
0000
0120
0100
0130
0000
,
0101
1000
0001
0010
0100
0010
0001
1000
,
0001
0010
0100
1000
1002
1000
1003
0000
,
0120
0001
0130
0000
1002
0010
1003
0000
,
1100
0010
0011
0100
2002
3003
0220
0330
,
0020
0031
2000
3100
0002
0013
0200
1300
,
0110
0000
0001
0000
2020
0000
3030
1100
0000
0000
0100
0000
0010
0000
0001
0000
,
2000
3010
0200
0301
0002
0013
0200
1300
,
0002
0000
0203
0000
0320
0000
2030
3000
,
2002
0000
0000
0000
,
0000
0000
0000
0000
0000
3003
0000
0000
,
1000
0001
0100
0010
,
0100
0001
1000
0010
,
0100
1000
0001
0100
,
0010
0001
0010
0100
,
0001
1000
0010
0100
,
1000
0001
1000
0001
1000
0001
0100
0010
0100
0010
0100
0010
,
1001
0000
1001
0000
;

//---------------dance-single - ----------------
#NOTES:
     dance-single:
     :
     Easy:
     4:
     0.296,0.397,0.275,0.377,0.000,320.000,62.000,85.000,0.000,0.000:
0000
0000
0000
0000
,
1000
0000
0010
0000
,
0100
0000
0001
0000
,
0010
0000
0100
0000
,
1000
0000
0001
0000
,
0100
0000
0001
0000
,
0100
0000
0001
0000
,
0100
0000
0001
0000
,
2020
0000
3030
0000
0022
0000
0000
0033
,
1001
0001
1000
0010
,
0100
0001
0210
0310
,
1010
0100
0001
0010
,
0100
0001
0012
0103
,
1010
0100
0001
0010
,
1000
0100
1000
0000
0001
0010
0001
0000
,
2000
0000
3020
0000
0230
0000
0302
0003
,
0010
0000
0100
0000
2020
0000
0000
3030
,
0000
0000
0000
0000
,
0000
0000
0000
0000
,
1000
0000
0010
0000
,
0100
0000
0001
0000
,
1000
0000
0100
0000
,
0022
0000
0000
0033
2020
0000
0000
3030
,
1100
0001
0100
0001
,
1000
0010
0210
0301
,
1010
0100
1000
0001
,
0100
1000
0201
0301
,
1001
0010
0100
0001
,
0010
0100
0010
0000
0100
0010
0100
0000
,
0002
0000
0203
0000
0320
0000
2030
3000
,
0202
0000
0000
0303
0220
0000
0000
0330
,
0000
0000
0000
0000
,
0000
0000
0000
0000
,
0000
0100
0000
0001
0000
1000
0000
0100
,
0000
0010
0000
1000
0000
0100
0000
0001
,
0000
0001
0000
0100
0000
0010
0000
1000
,
0020
0100
0000
0100
0000
0130
0000
1000
,
0000
0001
0000
0100
0000
0010
0000
1000
,
0000
0100
0000
0001
0000
0010
0000
0001
,
0002
0100
0000
0103
0000
0010
0000
1000
,
2000
0001
0000
3001
0000
0010
0000
0100
,
2001
0001
0001
3001
,
1001
0110
1001
0110
,
0022
0000
0000
0033
2200
0000
0000
3300
,
1001
1000
0001
0100
,
0010
1000
0120
0130
,
0101
0010
1000
0100
,
0010
1000
2100
3010
,
0101
0010
1000
0100
,
0001
0010
0001
0000
1000
0100
1000
0000
,
0002
0000
0203
0000
0320
0000
2030
3000
,
0100
0000
0010
0000
0202
0000
0000
0303
,
1001
0000
1000
0000
,
0001
0000
0100
0000
,
0011
0000
0100
0000
,
1000
0000
0001
0000
,
1001
0000
0100
0000
,
1000
0000
0100
0000
,
0110
0000
1000
0000
,
0022
0000
0000
0033
0202
0000
0000
0303
,
0110
0100
0010
0001
,
1000
0100
2001
3001
,
0011
1000
0100
0001
,
1000
0100
0201
1300
,
0011
1000
0100
0001
,
0010
1000
0010
0000
0100
0001
0100
0000
,
0020
0000
0032
0000
2003
0000
3200
0300
,
0001
0000
1000
0000
0022
0000
0000
0033
,
0000
0000
0000
0000
,
0000
0000
0000
0000
,
0000
0100
0000
0001
0000
0010
0000
1000
,
0000
0100
0000
0001
0000
0010
0000
0100
,
0000
0001
0000
1000
0000
0100
0000
0010
,
0020
0001
0000
0001
0000
0031
0000
0100
,
0000
0010
0000
1000
0000
0100
0000
0001
,
0000
0100
0000
0001
0000
0100
0000
0010
,
0200
0001
0000
0301
0000
0010
0000
1000
,
0002
1000
0000
1003
0000
0010
0000
0100
,
0200
0000
0001
0000
0001
0000
0001
0300
,
1001
0110
1001
0110
,
2020
0000
0000
3030
2200
0000
0000
3300
,
0101
0001
0100
1000
,
0010
0001
1020
1030
,
1100
0010
0001
1000
,
0010
0001
1002
0013
,
1100
0010
0001
1000
,
0100
0010
0100
0000
0001
1000
0001
0000
,
0200
0000
2300
0000
3020
0000
0032
0003
,
1000
0000
0000
0000
0000
0000
0000
0000
0000
0000
0000
0000
0000
0000
0000
0000
0000
0000
0000
0000
0000
0000
0000
0000
0000
0000
0000
0000
0000
0000
0000
0000
0000
0000
0000
0000
0000
0000
0000
0000
0000
0000
0000
0000
0000
0000
0000
0000
0010
0000
0000
0000
0000
0000
0000
0000
0000
0000
0000
0000
0000
0000
0000
0000
0000
0000
0000
0000
0000
0000
0000
0000
0000
0000
0000
0000
0000
0000
0000
0000
0000
0000
0000
0000
0000
0000
0000
0000
0000
0000
0000
0000
0000
0000
0000
0000
2200
3300
0000
0000
0000
0000
0000
0000
0000
0000
0000
0000
0000
0000
0000
0000
0000
0000
0000
0000
0000
0000
0000
0000
0000
0000
0000
0000
0000
0000
0000
0000
0000
0000
0000
0000
0000
0000
0000
0000
0000
0000
0000
0000
0000
0000
0000
0000
0010
0000
0000
0000
0000
0000
0000
0000
0000
0000
0000
0000
0000
0000
0000
0000
0000
0000
0000
0000
0000
0000
0000
0000
0000
0000
0000
0000
0000
0000
0000
0000
0000
0000
0000
0000
0000
0000
0000
0000
0000
0000
0000
0000
0000
0000
0000
0000
,
0200
0000
2300
0000
3002
0000
0023
0030
,
0002
0000
2003
0000
3002
0000
2003
3000
,
0220
0000
0000
0000
0000
0000
0000
0330
,
1001
0000
0100
0000
,
0011
0000
1000
0000
,
0001
0000
0100
0000
,
1010
0000
0100
0000
,
0001
0000
0100
0000
,
1001
0000
0100
0000
,
2020
0000
0000
3030
0202
0000
0000
0303
,
1002
0000
1003
0000
;
