#TITLE:Tell Me A Story;
#SUBTITLE:;
#ARTIST:SGX;
#TITLETRANSLIT:;
#SUBTITLETRANSLIT:;
#ARTISTTRANSLIT:;
#CREDIT:Arch0wl/Darkmage;
#BANNER:tmas-bn.png;
#BACKGROUND:tmas-bg.png;
#LYRICSPATH:;
#CDTITLE:arch0wldarkmagetitle.png;
#MUSIC:tmas.ogg;
#OFFSET:-1.878;
#SAMPLESTART:55.200;
#SAMPLELENGTH:12.000;
#SELECTABLE:YES;
#DISPLAYBPM:127.000:64.000;
#BPMS:0.000=127.000,36.000=254.000,37.000=127.000,69.000=63.500,85.000=31.750,86.000=63.500,88.000=127.000,103.000=508.000,105.000=127.000,134.000=190.500,134.500=127.000,136.000=508.000,138.000=127.000,163.500=1016.000,164.000=127.000,165.500=254.000,167.500=127.000,173.500=254.000,174.250=127.000,181.500=254.000,181.750=127.000,182.000=254.000,184.000=127.000;
#STOPS:36.000=0.236
,88.000=1.417
,103.000=0.030
,103.250=0.030
,103.500=0.030
,103.750=0.030
,104.000=0.030
,104.250=0.030
,104.500=0.030
,104.750=0.030
,134.000=0.008
,134.063=0.008
,134.125=0.008
,134.188=0.008
,134.250=0.008
,134.313=0.008
,134.375=0.008
,134.438=0.008
,136.000=0.030
,136.250=0.030
,136.500=0.030
,136.750=0.030
,137.000=0.030
,137.250=0.030
,137.500=0.030
,137.750=0.030
,163.500=0.030
,163.583=0.030
,163.667=0.030
,163.750=0.030
,163.833=0.030
,163.917=0.030
,164.000=0.030
,165.500=0.118
,166.000=0.059
,166.250=0.118
,166.750=0.059
,167.000=0.059
,167.250=0.059
,173.500=0.059
,173.750=0.059
,174.000=0.059
,181.500=0.059
,182.000=0.059
,182.250=0.059
,182.500=0.059
,182.750=0.059
,183.000=0.118
,183.500=0.118
;
#BGCHANGES:0.000=tmas-bg.png=1.000=0=0=1,
99999=-nosongbg-=1.000=0=0=0 // don't automatically add -songbackground-
;
// cache tags:
#FIRSTBEAT:4.000;
#LASTBEAT:191.000;
#SONGFILENAME:Songs/Archmage and Dark0wl Hammer of Thor UltraHyperMegaPack/Tell Me A Story (Compendium Mix)/tmas.sm;
#HASMUSIC:1;
#HASBANNER:1;
#MUSICLENGTH:105.000;
// end cache tags

//---------------dance-single - Arch0wl----------------
#NOTES:
     dance-single:
     Arch0wl:
     Medium:
     8:
     0.608,0.910,0.038,0.495,0.576,391.000,4.000,52.000,0.000,0.000:
0000
0000
0000
0000
,
0000
0000
0000
0000
,
0000
0000
0000
0000
,
0000
0000
0000
0000
,
0000
0000
0000
0000
,
1000
0001
0010
0001
1000
1000
0010
0000
,
1000
1000
0010
0000
1000
1000
0010
0000
,
1000
0001
0010
0001
0100
0100
0010
1000
,
0100
0100
0010
0001
0100
0010
0010
0100
,
1001
0000
0001
0001
1000
0010
0100
0010
,
1000
0001
0100
0100
0010
1000
0001
1000
,
0010
0100
0001
0001
1000
0010
0100
0010
,
1000
0001
0010
0010
0001
1000
0100
1000
,
0001
0100
0001
0001
1000
0100
0010
0100
,
1000
0010
0100
0100
0001
0010
0100
0001
,
0001
0100
0020
1030
0010
0100
0010
0001
,
0001
0000
0000
1000
0000
0000
0010
0000
0000
0000
0010
0000
0000
0000
0010
0000
0000
0000
0100
0000
0000
0100
0000
0000
,
0010
0000
1000
0000
0010
0100
0001
0010
0100
0010
0001
0100
0010
1000
0001
0100
,
0010
0100
0001
0020
0230
1300
0010
0100
1000
0100
0010
2000
3200
1300
0010
0200
,
0301
0100
0020
1030
0002
1003
0010
0100
0001
0100
0010
0001
1000
0001
0010
1000
,
0100
1000
0010
0001
0200
0301
0010
1000
0100
1000
0010
0100
0002
0013
0100
1000
,
0010
0100
0001
0010
0002
0000
0000
0000
2000
0000
0000
0000
0000
0000
0000
0000
,
3003
0000
0000
0000
0001
0010
0000
0010
0000
0010
0100
0000
1000
0000
1000
0000
,
0010
0000
0100
0001
0000
0000
2000
0000
3200
0000
2300
0000
3010
0000
0001
0000
,
0010
0000
1000
0100
0010
0000
0000
0010
0000
0010
0001
0000
1000
0000
1000
0000
,
0000
0010
0000
0010
0000
0000
2000
0000
3200
0000
2300
0000
3020
0000
0000
0000
,
0000
0000
0000
0000
0230
0000
0000
0000
0301
0000
0000
0001
0000
0001
0010
0000
,
0100
0000
0100
0000
0000
1000
0000
1000
0000
0000
0002
0000
0203
0000
0302
0000
,
0013
0000
1000
0000
0010
0000
0100
0010
0001
0000
0000
0001
0000
0001
1000
0000
,
1000
0000
1000
0010
0000
0010
0100
0010
0100
0010
0100
0000
0010
0100
0000
0010
,
0100
0000
0010
0100
0010
0100
0010
0100
0001
1000
0000
1000
0000
1000
0001
0000
,
0100
0000
0100
0000
0010
0000
0001
0010
0000
0000
0200
0000
0302
0000
0203
0000
,
0310
0000
1000
0000
0010
0000
0100
0001
1000
0000
0000
1000
0000
1000
0010
0000
,
0100
0000
0100
0000
0000
0001
0000
0001
0002
0000
0203
0000
0302
0000
0203
0000
,
0320
0000
0000
0000
0000
0000
0000
0000
0032
0000
0000
0000
0013
0000
0000
0010
,
0000
0010
1000
0000
0001
0000
0001
0000
0000
0100
0000
0100
0000
0000
0020
0000
,
0032
0000
0023
0000
1030
0000
0100
0000
1000
0000
0001
1000
0010
0000
0000
0010
,
0000
0010
0100
0000
0100
0000
0100
0001
0000
0100
0001
0100
0001
0100
0001
0000
,
0100
0001
0000
0100
0001
0000
0100
0001
0100
0001
0100
0001
1000
0100
0000
0100
,
0000
0100
0010
0000
0001
0000
0001
0000
1000
0001
0010
0001
0100
0001
0020
0000
,
0032
0000
0023
0000
0130
1000
0100
0000
1000
0010
1000
0001
0010
0000
0020
0000
,
0030
0100
1000
0001
0010
0000
0010
0000
0100
1000
0000
0010
1000
0010
0200
0000
,
0302
0000
0203
0000
0320
0000
0030
0000
0220
0000
0330
2002
0000
3003
0000
1000
,
0001
0000
1000
0001
0000
0000
1000
0001
1000
0001
0000
0000
0020
0000
0032
0000
,
0023
0000
0130
1000
0001
0100
0001
1000
0001
0100
0001
1000
0100
0000
0100
1000
,
0010
0100
0001
0010
0000
0001
0100
0010
0100
0001
0100
0010
1000
0000
1000
0000
,
1000
0100
0010
0001
0100
0010
1000
0100
0010
0001
0100
0010
2002
0000
0000
0000
,
0000
0000
0000
3003
;

//---------------dance-single - Arch0wl----------------
#NOTES:
     dance-single:
     Arch0wl:
     Hard:
     10:
     0.771,0.955,0.219,0.381,1.000,504.000,23.000,40.000,0.000,1.000:
0000
0000
0000
0000
,
0000
0000
0000
0000
,
0000
0000
0000
0000
,
0000
0000
0000
0000
,
0000
0000
0000
0000
,
0010
0000
0100
0001
0010
0100
1000
0001
0010
0000
0010
0000
0001
0000
0000
0000
,
0010
0000
0010
0000
0001
0000
1000
0100
0010
0000
0010
0000
0001
0000
0000
0000
,
1000
0000
0010
0100
1000
0100
0001
1000
0010
0000
0010
0100
1000
0100
0001
1000
,
0010
1000
0010
0000
1000
0001
0010
0100
1000
0010
1000
0010
1000
0010
1000
0010
,
1001
0000
0000
0000
1000
0001
0100
0010
1000
0010
0100
0001
0010
0000
0010
0000
,
0100
0000
1000
0100
0010
0000
0010
0001
1000
0010
0100
0001
1000
0100
1000
0010
,
0100
0000
0010
0100
0001
0000
1000
0001
0010
0001
0100
0010
0001
0000
0001
0000
,
0010
1000
0010
1000
0100
0000
0010
0100
1000
0100
0010
0001
0100
0010
0100
0010
,
0101
0000
0000
0000
0101
0000
0000
0000
0101
0000
0000
0000
0110
0000
0000
0000
0000
0000
0010
0000
0000
0100
0000
0000
0001
0000
0000
1000
0000
0000
0010
0000
0000
1000
0000
0000
0001
0000
0000
0000
0000
0000
0001
0000
0000
0000
0000
0000
,
0010
0001
0100
0001
1000
0000
1000
0010
0100
0001
0010
0001
1000
0100
0010
0001
,
0100
0000
0000
0000
0001
0000
0100
0000
0010
1000
0010
1000
0010
0000
0100
0000
0001
0000
0010
0000
0100
0000
1000
0000
0001
0000
0000
0000
0001
0000
1000
0000
,
0100
1000
0010
0100
0001
1000
0001
0010
0000
0010
0100
1000
0100
0000
0100
0010
,
0001
0000
0100
0000
0010
0000
1000
0000
1001
0000
1000
0000
0001
0000
0010
0100
0010
0000
0010
0000
0001
0000
1000
0000
0100
0001
0100
0000
1000
0000
0001
0100
,
0001
0000
0001
0000
0010
0000
0100
0000
1000
0100
1000
0000
0010
0000
0100
1000
0100
0000
0100
0000
0010
0000
1000
0100
0010
0001
0010
0000
1000
0000
0010
0100
,
0010
0000
0010
0000
0001
0000
1000
0000
0010
0100
0010
0000
1000
0000
0100
0010
0100
0000
0100
0000
1000
0000
0001
0000
1000
0100
1000
0000
0001
0000
0100
1000
,
0100
0000
0100
0000
0010
0000
1000
0000
0001
0100
0001
0000
1000
0000
0100
0001
0100
0000
0100
0000
1000
0000
0010
0000
0100
0001
0100
0000
0010
0000
1000
0100
,
1000
1000
0010
1000
2100
0000
0000
0000
0002
0000
0000
0000
0000
0000
0000
0000
,
3103
0000
0000
0000
1000
1000
0010
0100
0000
0100
0001
0010
0100
0000
0100
0000
,
0010
0000
0001
0001
0100
0000
0020
0000
0032
0000
0023
0000
1030
0000
0001
0000
,
1000
0000
0010
0010
0100
0000
0001
0100
0000
0100
0001
0000
1000
0000
1000
0000
,
0010
0100
0000
0100
0001
0000
0020
0000
2030
0000
3020
0000
0032
0000
0000
0000
,
0000
0000
0000
0000
0000
0000
0000
0000
0000
0003
0000
0000
0101
0000
0000
0000
0101
0000
0000
0000
0101
0000
0000
0000
0110
0000
0000
0000
0000
0000
0010
0000
0000
1000
0000
0000
0000
0000
0000
1000
0000
0000
0100
0000
0000
0000
0000
0000
,
0010
0000
0010
0000
0001
1000
0000
1000
0001
0000
0200
0000
2300
0000
3200
0000
,
0301
0000
1000
0000
0100
0000
1000
1000
0010
0000
0100
0010
0000
0010
0001
0000
,
0001
0000
0001
0010
0000
0010
1000
0100
0010
0001
0100
0000
0100
0010
0000
0010
,
1000
0000
1000
0100
1000
0010
1000
0001
0010
0010
0001
1000
0000
1000
0100
0010
,
0001
0000
0001
0000
1000
0000
0010
0010
0100
0000
0020
0000
0032
0000
0023
0000
,
1030
0000
0100
0000
0010
0000
0001
0001
1000
0000
0100
1000
0000
1000
0100
0000
,
0010
0000
0010
0000
0001
1000
0000
1000
0200
0000
0320
0000
2030
0000
3020
0000
,
0230
0000
0000
0000
0000
0000
0000
0000
0000
0000
0000
0000
0000
0000
0000
0000
0000
0000
0000
0000
0000
0300
0000
0000
1100
0000
0000
0000
1100
0000
0000
0000
1100
0000
0000
0000
1001
0000
0000
0000
0000
0000
0001
0000
0000
0010
0000
0000
,
0000
0010
1000
0000
0010
0000
0010
0000
0001
0010
0000
0010
0001
0000
0200
0000
,
2300
0000
3200
0000
0301
0000
0010
0000
1000
0000
0010
0010
0001
0000
1000
0001
,
0000
0001
0100
0000
0100
0000
0100
0001
0000
0001
0010
0100
0001
0100
1000
0000
,
1000
0001
0000
0001
0010
0000
0010
1000
0010
0001
0010
0100
1000
1000
0010
0100
,
0000
0100
0001
0010
0100
0000
0100
0000
1000
1000
0010
0010
0100
0100
0020
0000
,
0032
0000
0023
0000
0130
0100
0001
0000
1000
0010
1000
0001
0010
0000
0120
0000
,
0030
0100
0100
1000
0010
0000
0010
0000
0100
0100
0000
0100
0010
0010
0200
0000
,
2300
0000
3200
0000
0302
0000
0003
0000
2200
0000
3300
2020
0000
3030
0000
1000
,
1000
0000
0001
0001
0000
0000
1001
1001
1001
1001
0100
0010
0020
0000
0032
0000
,
0023
0000
1030
1000
0100
1000
0100
0010
0100
0001
0100
0010
0100
0000
0100
1000
,
0010
0000
0100
0000
0001
0000
0010
0000
0000
0000
0001
0010
0001
0000
1000
0010
1000
0000
0001
0000
0001
0000
1000
0000
1000
0000
0000
0000
1000
0000
0000
0000
,
1000
0100
0010
0001
0100
0010
1000
0100
0010
0001
0100
0010
2002
0000
0000
0000
,
0000
0000
0000
3003
;

//---------------dance-single - Darkmage----------------
#NOTES:
     dance-single:
     Darkmage:
     Challenge:
     17:
     1.000,1.000,1.000,0.086,1.000,758.000,316.000,9.000,0.000,4.000:
0000
0000
0000
0000
,
1001
0000
0010
0100
0001
0100
0010
0000
1010
0000
0101
0000
0010
0000
0100
0000
,
1000
0000
0110
0000
0001
0000
0010
0100
1000
0100
0001
0000
1000
0000
0101
0000
,
0010
0000
0000
0000
0000
0000
0000
0000
1000
0000
0000
0000
0000
0000
0000
0000
0010
0000
0000
0000
0000
0000
0000
0000
1000
0000
0000
0000
0000
0000
0000
0000
0000
0000
0000
0000
0001
0000
0000
0000
0000
0000
0000
0000
0000
0000
0000
0000
0010
0000
0000
0000
0000
0000
0000
0000
0000
0000
0000
0000
0100
0000
0000
0000
0000
0000
0000
0000
0000
0000
0000
0000
0001
0000
0000
0000
0000
0000
0000
0000
0000
0000
0000
0000
0000
0000
0000
0000
0000
0000
0000
0000
0000
0000
0000
0000
1100
0000
0000
0000
0000
0000
0000
0000
0000
0000
0000
0000
0000
0000
0000
0000
0000
0000
0000
0000
0000
0000
0000
0000
0011
0000
0000
0000
0000
0000
0000
0000
0000
0000
0000
0000
0000
0000
0000
0000
0000
0000
0000
0000
0000
0000
0000
0000
0100
0000
0000
0000
0000
0000
0000
0000
0000
0000
0000
0000
1000
0000
0000
0000
0000
0000
0000
0000
0000
0000
0000
0000
0001
0000
0000
0000
0000
0000
0100
0000
0000
0000
0000
0000
0010
0000
0000
0000
0000
0000
1000
0000
0000
0000
0000
0000
,
0101
0000
0000
0000
0000
0000
1000
0000
0000
0000
0000
0000
0100
0000
0000
0000
0000
0000
0011
0000
0000
0100
0000
0000
1000
0000
0000
0000
0000
0000
0001
0000
0000
0000
0000
0000
1100
0000
0000
0000
1100
0000
0000
0000
1100
0000
0000
0000
,
0011
0000
0100
0010
1000
0000
0001
0010
1100
0000
1100
0000
0011
0000
0001
0100
,
1010
0000
1010
0000
0101
0000
1000
0100
0011
0000
0011
0000
1100
0000
0001
0000
,
0100
0000
0010
0000
1000
0000
0001
0000
0000
1000
0000
0000
0101
0000
0000
0000
0000
0000
0001
0000
0000
0010
0000
0000
0101
0000
0000
0000
0000
0000
0011
0000
0000
1000
0000
0000
0101
0000
0000
0010
0000
0000
1100
0000
0000
0001
0000
0000
,
0110
1000
0102
0010
2103
0010
3200
0010
1302
0100
0013
0100
0101
0110
1010
1100
,
1001
0000
0000
0000
1001
0000
0101
0010
1000
0001
0110
1000
0101
0000
0101
0000
,
0011
0000
0100
1000
0010
0100
0011
0100
1000
0001
1010
0100
1010
0000
1010
0100
,
1001
0000
0000
0000
0000
0000
0011
0000
1100
0000
0011
0000
1100
0000
0000
0001
0000
0000
0100
0000
0000
0010
0000
0000
1001
0000
0000
0100
0000
0000
0010
0000
0000
1000
0000
0000
0101
0000
0000
0000
0000
0000
0011
0000
0000
0000
0000
0000
,
1100
0000
0010
0000
0001
0010
0100
1000
1001
0000
0000
0000
0100
0000
0010
0000
1000
0000
0001
0000
0110
0000
1000
0000
0110
0000
0001
0000
0101
0000
1000
0000
,
1010
0000
0000
0000
1010
0000
0000
0000
1010
0000
0000
0000
1001
0000
0000
0000
0000
0000
0110
0000
0000
0001
0000
0000
1100
0000
0000
0010
0000
0000
0101
0000
0000
1000
0000
0000
0110
0000
0000
0000
0000
0000
0110
0000
0000
0000
0000
0000
,
1001
0010
0100
1000
0011
0000
1100
0000
1100
0000
0010
0001
1010
0001
1100
0001
,
1100
0000
0000
0000
0000
0000
0011
0000
0000
0000
0000
0000
1010
0000
0101
0000
1010
0000
0101
0000
0000
0000
0000
0000
1001
0000
0000
0000
0000
0000
0100
0000
0000
0010
0000
0000
1000
0000
0000
0000
0000
0000
0101
0000
0000
0000
0000
0000
,
0101
0000
0011
0100
1100
0000
0001
1010
0100
0000
0011
0000
1000
0100
0001
0100
,
0010
0000
0001
0000
1000
0000
0010
0000
0100
0010
1000
0001
1010
0100
0001
1000
0100
1000
0010
0100
0011
1000
0001
1000
0010
0001
1000
0100
0011
1000
0100
1000
,
0001
0000
0100
0000
1000
0000
0001
0000
0110
0000
1000
0000
0001
0000
0010
0000
1100
0000
0010
0000
0100
0000
0001
0000
0110
0000
1000
0000
0010
0000
0100
0000
0001
0000
0010
0000
1000
0000
0001
0000
0110
0000
1000
0000
0001
0010
0100
1000
0101
0000
0010
0000
1000
0000
0100
0000
0010
0000
1000
0000
0101
0000
0010
0000
,
0001
0000
0000
0000
0000
0000
1000
0000
0000
0000
0000
0000
0010
0000
0000
0000
0000
0000
0001
0000
0000
0000
0000
0000
0110
0000
0000
0000
0000
0000
0000
0000
1010
0000
0000
0000
0000
0000
0000
0000
0101
0000
0000
0000
0000
0000
0000
0000
1010
0000
0000
0000
0000
0000
0100
0000
0000
0000
0000
0000
1000
0000
0000
0000
0000
0000
0001
0000
0000
0000
0000
0000
0110
0000
0000
0000
0000
0000
1000
0000
0000
0000
0000
0000
0100
0000
0000
0000
0000
0000
0010
0000
0000
0000
0000
0000
0001
0000
0000
0000
0000
0000
1000
0000
0000
0000
0000
0000
0010
0000
0000
0000
0000
0000
0100
0000
0000
0000
0000
0000
1010
0000
0000
0000
0000
0000
0100
0000
0000
0000
0000
0000
0001
0000
0000
0010
0000
0000
0100
0000
0000
1000
0000
0000
0001
0000
0000
0000
0000
0000
0010
0000
0000
0000
0000
0000
0001
0000
0000
0000
0000
0000
1000
0000
0000
0000
0000
0000
0101
0000
0000
0000
0000
0000
0010
0000
0000
0000
0000
0000
1000
0000
0000
0000
0000
0000
0001
0000
0000
0000
0000
0000
,
0010
0100
0001
0010
1100
0010
0001
1000
0101
1000
0010
0100
1001
0100
0010
1000
0001
0010
0100
0001
0110
1000
0001
0100
1001
0010
1000
0001
1010
0100
1000
0001
,
1100
0010
0001
1000
0010
0000
0100
0000
1001
0000
0100
0000
0010
0000
1000
0000
1001
0001
1000
0010
0100
0001
0010
0100
1000
0010
0100
0001
0010
0100
1000
0010
0100
0000
0001
0000
0010
0000
0100
0000
1000
0000
0010
0000
0100
0000
0001
0000
0010
0000
0100
0000
1000
0000
0010
0000
0100
0000
0001
0000
0010
0000
0100
0000
,
1001
0000
0000
0000
0100
0001
0010
0100
0001
0010
0100
1000
0011
0000
1100
0000
,
0101
1000
0010
0100
1000
0010
0101
1000
0110
1000
0001
1000
0011
0100
0001
0010
,
1100
0000
0000
0001
0000
0000
0100
0000
0010
0000
1000
0000
1001
0000
0000
0001
0000
0000
0100
0000
0000
0010
0000
0000
1010
0000
0000
1000
0000
0000
0001
0000
0000
0010
0000
0000
0011
0000
0000
0000
0000
0000
0011
0000
0000
0000
0000
0000
,
1100
0000
0001
0000
1000
0010
0001
0100
1010
0000
1000
0000
0001
0000
0010
0000
1100
0000
0001
0000
0100
0000
0011
0000
1000
0000
0100
0000
1000
0000
0100
0000
,
0001
0000
0000
0100
0000
0000
0001
0000
0000
0100
0000
0000
1001
0000
0000
0000
0110
0000
0000
0000
1010
0000
0000
0000
1001
0000
0000
0100
0000
0000
1010
0000
0000
0001
0000
0000
1010
0000
0000
0100
0000
0000
0011
0000
0000
1000
0000
0000
,
1100
0000
1010
0000
0101
0110
1010
1100
0001
0100
1000
0100
0110
1000
0001
0010
,
1100
0001
1000
0100
0011
0001
1100
0110
0011
1000
0001
1100
0010
0011
1000
0100
,
0011
1000
0011
1100
0010
1001
0110
0101
1010
0001
0101
1000
0110
0001
1000
0100
,
0011
1100
0011
1100
1010
0101
1010
0101
1001
1000
0100
0011
0100
1100
1010
0001
,
1010
0000
1010
0000
1001
0010
0101
0110
1010
0001
1100
0100
0012
1000
1103
0110
,
0011
0000
0000
0100
0000
0000
0011
0000
0000
1000
0000
0000
1001
0000
0000
0001
0000
0000
1000
0000
0010
0000
0100
0000
0101
0000
0000
1000
0000
0000
0010
0000
0000
1100
0000
0000
0001
0000
0000
1010
0000
0000
1100
0000
0000
0100
0000
0000
,
0011
0000
0000
0000
0011
0000
0000
0000
1001
0000
0010
0000
1100
0000
1000
0001
0100
0001
1000
0000
0001
0000
0100
0000
1010
0000
0001
0000
0100
0000
1000
0000
,
0101
0000
0000
0010
0000
0000
0100
0000
0000
0010
0000
0000
1000
0000
0000
0010
0000
0000
1000
0000
0000
0010
0000
0000
1001
0000
0000
0000
1010
0000
0000
0000
0101
0000
0000
0000
1001
0000
0000
0000
0000
0000
1010
0000
0000
0100
0000
0000
,
1001
0010
1100
0000
0011
0000
1100
0000
0011
1100
0011
1100
0110
1000
1100
0001
,
0210
0001
1310
0001
0100
0010
1000
0001
1000
0001
1100
0011
1200
0001
1300
0101
,
0010
1000
0110
1000
0011
0001
1100
1100
1000
1010
1100
0011
0101
0100
1010
1010
,
1000
0101
0101
0011
1010
0101
1010
0101
1010
0101
1010
0101
1001
0010
0001
1100
,
0010
0000
1000
0000
0101
0000
0010
0000
1100
0000
0000
0000
1010
0000
0000
0000
0101
0010
1000
0000
1100
0000
0110
0000
0011
0000
1000
0000
0100
0000
0010
0000
,
1010
0000
0000
0000
0000
0000
0000
0000
0010
0000
0000
0000
0000
0000
0000
0000
1000
0000
0000
0000
0000
0000
0000
0000
1100
0000
0000
0000
0000
0000
0000
0000
0000
0000
0000
0000
0011
0000
0000
0000
0000
0000
0000
0000
0000
0000
0000
0000
1010
0000
0000
0000
0000
0000
0000
0000
0000
0000
0000
0000
1001
0000
0000
0000
0000
0000
0000
0000
0000
0000
0000
0000
0110
0000
0000
0000
0000
0000
0000
0000
0000
0000
0000
0000
0000
0000
0000
0000
0000
0000
0000
0000
0000
0000
0000
0000
1100
0000
0000
0000
0000
0000
0000
0000
0000
0000
0000
0000
0000
0000
0000
0000
0000
0000
0000
0000
0000
0000
0000
0000
1010
0000
0000
0000
0000
0000
0000
0000
0000
0000
0000
0000
1010
0000
0000
0000
0000
0000
0000
0000
0000
0000
0000
0000
1010
0000
0000
0000
0000
0000
0001
0000
0000
0000
0000
0000
0010
0000
0000
0000
0000
0000
0100
0000
0000
0000
0000
0000
1000
0000
0000
0000
0000
0000
0010
0000
0000
0000
0000
0000
0100
0000
0000
0000
0000
0000
0001
0000
0000
0000
0000
0000
,
0110
1010
1100
0110
0011
0101
1100
0010
1100
1100
0000
0011
0011
0011
1100
0100
,
0010
0000
0000
0100
0000
0000
0001
0000
0000
1010
0000
0000
0101
0000
0000
1100
0000
0000
0011
0000
0000
0000
0000
0000
1000
0010
0100
0001
0000
0000
0010
0100
1000
0010
0000
0000
1100
0000
0000
0011
0000
0000
0100
0000
0000
1010
0000
0000
,
1010
0001
1100
1100
0010
0110
0101
0011
0110
1100
1010
0110
0101
0001
1100
0010
,
1100
0000
1000
0000
0101
0000
0101
0000
0110
0000
0110
0000
1100
0000
1000
0100
0011
0000
0000
0000
1100
0000
1100
0000
1010
0000
0100
0000
1100
0000
0001
0000
,
0011
0000
0100
0000
0001
0000
0100
0000
1100
0000
1000
0100
1000
0100
1000
0000
0011
0000
1000
0000
0010
0000
0100
0000
0101
0000
0000
0000
1100
0000
0011
0000
,
1010
1100
0101
0011
1100
0110
1010
0101
0011
1100
1010
1001
2002
0000
0000
0000
,
0000
0000
0000
3003
;
