#TITLE:Triple Corpse Hammerblow;
#SUBTITLE:;
#ARTIST:Children of Bodom;
#TITLETRANSLIT:;
#SUBTITLETRANSLIT:;
#ARTISTTRANSLIT:;
#CREDIT:;
#BANNER:euhosef.png;
#BACKGROUND:Children_Of_Bodom.jpg;
#LYRICSPATH:;
#CDTITLE:CDtitletiger.png;
#MUSIC:06 Triple Corpse Hammerblow.mp3;
#OFFSET:-0.160;
#SAMPLESTART:38.710;
#SAMPLELENGTH:12.000;
#SELECTABLE:YES;
#BPMS:0.000=155.000;
#STOPS:;
#BGCHANGES:;
// cache tags:
#FIRSTBEAT:0.000;
#LASTBEAT:632.500;
#SONGFILENAME:Songs/toune 5/Triple Corpse Hammerblow/Triple Corpse Hammerblow.sm;
#HASMUSIC:1;
#HASBANNER:1;
#MUSICLENGTH:246.413;
// end cache tags

//---------------dance-single - ----------------
#NOTES:
     dance-single:
     :
     Challenge:
     11:
     1.000,1.000,0.897,0.836,1.000,1722.000,221.000,206.000,0.000,86.000:
1000
0100
0001
0010
0001
1000
0001
0100
,
0001
0100
0001
0100
0001
1000
0001
0010
,
0001
0010
1000
0100
1000
0010
1000
0001
,
1100
0010
1000
0001
1010
0001
1000
0010
,
1100
0010
0100
0001
0100
0010
0100
0001
,
0100
0010
0100
0001
0100
0010
0100
0010
,
0001
0100
0001
1000
0001
0010
0001
1000
,
0011
1000
0001
0100
0101
0010
0001
1000
,
1001
0100
0010
0100
0010
0100
0010
0100
,
1100
0100
0100
0100
0110
0010
0010
0010
,
0012
0003
0001
0001
0010
0010
0100
0100
,
0010
0010
1000
1000
0001
0001
0100
0100
,
1000
1000
0102
0100
1000
1000
0100
0100
,
1003
0000
1001
0000
0101
0000
0101
0000
1000
0100
0010
0001
2000
0000
0000
0000
,
3001
0010
0001
0100
0001
1000
0001
0010
0001
1000
0001
1000
0001
1000
0001
0100
,
0010
0100
0001
0100
0010
0100
1000
0100
0010
0100
0001
0100
0001
0100
0010
0100
,
0001
1000
0001
1000
0010
1000
0001
1000
0100
1000
0010
1000
0001
1000
0001
1000
,
0010
1000
0001
1000
0100
1000
0010
1000
0001
1000
0010
1000
0200
0000
0000
0000
,
1300
0001
0100
0001
1000
0001
0100
0001
0010
0001
0100
0001
0100
0001
1000
0001
,
1000
0010
0100
0010
1000
0010
0100
0010
1000
0010
0100
0010
0100
0010
1000
0010
,
1000
0100
1000
0100
0010
0100
0001
0010
0001
1000
0010
1000
0100
1000
0100
1000
,
0010
0100
0010
0100
0001
0010
0001
0010
0001
1000
0001
1000
0020
0000
0000
0000
,
1030
0100
0010
0001
2000
0000
3010
0100
0010
0100
0002
0000
0103
0010
0100
0010
,
2000
0000
3001
0010
0100
1000
0002
0000
1003
0100
0010
0001
2000
0000
3000
0000
,
0100
1000
0010
1000
0001
0100
0001
0100
0010
1000
0010
1000
0001
0010
0001
0010
,
0001
1000
0001
1000
0010
0100
0010
0100
0001
1000
0001
1000
0002
0000
0000
0000
,
1003
0100
0010
0001
2000
0000
3001
0010
0100
1000
0002
0000
0103
0010
0100
0010
,
0200
0000
0301
0010
0100
1000
0002
0000
0103
0010
0100
0010
0200
0000
0300
0000
,
0001
1000
0001
1000
0001
1000
0001
1000
0010
0100
0010
0100
0010
0100
0010
0100
,
0001
1000
0001
1000
0001
1000
0001
1000
0001
0010
0100
1000
0002
0000
0000
0000
,
1103
0000
0100
0010
1001
0000
0010
0100
1001
0001
0010
0100
1000
0010
0110
0000
,
0101
0000
1000
0100
0011
0000
0001
0010
1100
1000
0010
0100
0001
1000
0110
0000
,
0102
0123
1230
2301
,
3012
1023
0231
2301
,
3011
0000
0100
0010
1001
0000
0010
0100
1001
1000
0100
0010
0001
1000
0110
0000
,
0011
0000
1000
0010
0101
0000
0010
1000
0101
0001
0100
0010
1000
0001
1100
0000
,
2001
3210
0321
1032
,
2103
3210
1320
1032
,
1003
0100
1000
0100
2001
0000
3010
0100
0010
0100
1020
0000
0031
0100
0002
0000
,
1003
0000
0100
0000
0010
0000
0001
0000
0010
0000
0100
0000
2001
0000
0000
0000
0000
0000
3020
0000
0000
0000
0000
0000
1030
0000
0000
0100
0000
0000
0010
0000
0000
0001
0000
0000
2001
0000
0000
0000
0000
0000
0000
0000
0000
0000
0000
0000
,
3001
1000
0010
1000
0001
1000
0010
1000
0100
1000
0001
1000
0001
1000
0010
1000
,
0001
1000
0001
0010
0001
0100
0001
1000
0001
0010
0001
0100
0001
0100
0001
1000
,
0100
0010
0001
0010
0100
0010
1000
0010
0001
0010
0100
0010
0100
0010
1000
0010
,
1000
0100
1000
0100
0010
0100
0001
0100
0010
1000
0010
1000
0002
0000
0000
0000
,
1003
0100
0010
0001
0200
0000
0301
0010
0001
0010
0002
0000
1003
0100
1000
0100
,
2000
0000
3001
0010
0100
1000
0002
0000
1003
0100
0010
0001
2000
0000
0000
0000
,
3012
0000
0123
0000
2130
3000
0000
0000
,
2100
3120
1032
0000
,
1103
0000
0100
0010
1001
0000
0010
0100
1001
0001
0100
0001
1000
0100
0011
0000
,
1100
0000
0001
1000
0110
0000
1000
0001
0110
0100
0010
0100
0010
0100
1001
0000
,
0210
1302
2013
3210
,
1320
1032
2013
3210
,
1301
0000
0001
1000
0110
0000
1000
0001
0110
0010
0100
0010
0100
0010
1100
0000
,
0011
0000
0001
0010
1100
0000
0010
0001
1100
1000
0100
0010
0001
0100
0011
0000
,
2100
3210
0321
1032
,
0123
1032
2103
3210
,
0301
0010
0100
1000
0002
0000
0103
0010
0100
0010
2000
0000
3001
0010
0002
0000
,
1003
0100
1000
0100
2100
0000
3020
0000
1030
0100
0010
0001
2100
0000
3020
0000
,
1030
0100
0010
0001
2000
0000
3010
0100
0010
0100
0002
0000
1003
0100
2000
0000
,
3100
0001
0100
0001
1000
0001
0100
0001
1000
0100
0010
0001
1000
0100
0010
0001
,
0100
0010
0100
0010
2000
0000
3010
0100
0010
0100
0002
0000
1003
0100
2000
0000
,
3001
0010
0001
0010
0012
0000
0203
0000
0301
0010
0100
1000
0012
0000
0203
0000
,
0301
0010
0100
1000
0002
0000
0103
0010
0100
0010
2000
0000
3001
0010
0002
0000
,
1003
0001
1000
0001
0100
0001
0010
0001
1000
0001
0100
0001
0010
0001
1000
0001
,
0110
0000
0110
0000
0110
0010
0100
0000
1001
0000
1001
0000
1001
1000
0001
0000
,
0000
2100
3012
0123
,
1031
0000
1001
0000
1001
0001
1000
0000
0101
0000
0101
0000
0101
0001
0100
0000
,
0000
0000
0000
0000
0000
0000
1100
0000
0000
0001
0010
0100
1000
0000
0000
1000
0000
0000
1100
0000
0000
0000
0000
0000
,
0110
0000
0110
0000
0110
0100
0010
0000
1010
0000
1010
0000
1010
1000
0010
0000
,
0000
0012
2103
3012
,
1000
0000
1000
0000
1000
0100
1000
0000
0100
0000
0100
0000
0100
1000
0100
0000
,
2013
0000
0010
0000
0000
0001
0010
0000
3012
0000
0100
0000
0000
1000
0100
0000
,
1023
0000
0100
0000
0000
1000
0100
0000
2130
0000
0001
0000
0000
0010
0001
0000
,
3012
0000
0100
0000
0000
1000
0100
0000
2103
0000
0010
0000
0000
0001
0010
0000
,
3100
0000
0000
0000
0000
0000
0001
0000
0010
0000
0100
0000
1000
0000
0000
0100
0000
0000
1000
0000
0000
0100
0000
0000
1000
0000
0000
0100
0000
0000
0010
0000
0000
0001
0000
0000
1000
0000
0000
0100
0000
0000
0010
0000
0000
0001
0000
0000
,
1000
0100
1000
0100
1000
0100
1000
0100
0010
0100
0010
0100
0010
0100
0010
0100
,
0001
0010
0001
0010
0001
0010
0001
0010
0001
1000
0001
1000
0001
1000
0001
1000
,
0010
0100
0010
0100
0010
0100
0010
0100
0001
0010
0001
0010
0001
0010
0001
0010
,
0001
1000
0001
1000
0001
1000
0001
1000
0010
0100
0010
0100
0010
0100
0010
0100
,
0001
0010
0100
1000
0100
1000
0100
1000
0100
0010
0001
0100
0001
0010
0100
1000
,
0010
0100
0010
0100
0001
0010
0100
1000
0002
0000
0203
0000
0320
0000
2030
0000
,
3001
0010
0100
1000
0100
1000
0100
1000
0100
0010
0001
1000
0100
0010
0001
1000
,
0010
1000
0100
0010
0001
0010
0100
1000
0002
0000
0023
0000
0032
0000
0203
0000
,
0301
0010
0100
1000
0100
1000
0100
1000
0100
0010
0001
0100
0001
0010
0100
1000
,
0010
0100
0010
0100
0001
0010
0100
1000
0002
0000
0203
0000
0320
0000
2030
0000
,
3001
0010
0100
1000
0100
1000
0100
1000
0100
0010
0001
1000
0100
0010
0001
1000
,
0010
1000
0100
0010
0001
0010
0100
1000
0002
0000
0023
0000
0032
0000
0203
0000
,
1302
0000
1000
0000
,
0000
0000
1000
0000
,
0113
0120
0000
0000
0030
0000
0000
0000
,
2100
0000
3102
0000
,
0123
0000
0000
0000
,
2130
0000
3102
0000
,
0113
0000
1002
1000
0100
0100
1000
1000
,
0100
0000
0100
0000
1003
0000
1000
0000
0001
0010
0100
1000
0002
0000
0000
0000
,
0103
1000
0010
1000
0001
1000
0010
1000
0100
1000
0001
1000
0001
1000
0010
1000
,
0001
0100
0010
0100
0001
0100
0010
0100
0001
0100
0010
0100
0010
0100
0001
0100
,
0001
0010
0001
0010
0001
1000
0010
1000
0001
0010
0001
0010
0100
0010
0100
0010
,
1000
0010
1000
0010
1000
0100
1000
0100
1000
0100
0010
0001
2000
0000
0000
0000
,
3001
0010
0100
1000
0002
0000
0103
0010
0100
0010
2000
0000
3010
0100
0010
0100
,
0002
0000
1003
0100
0010
0001
2000
0000
3010
0100
0010
0100
0002
0000
2003
0000
,
3001
0010
0001
0010
0001
1000
0001
1000
0010
1000
0010
1000
0010
0100
0010
0100
,
0001
0010
0001
0010
0001
1000
0001
1000
0010
0100
0010
0100
0020
0000
0000
0000
,
0130
1000
0010
1000
0001
1000
0010
1000
0100
1000
0001
1000
0001
1000
0010
1000
,
0001
0100
0010
0100
0001
0100
0010
0100
0001
0100
0010
0100
0010
0100
0001
0100
,
0001
0010
0001
0010
0001
1000
0010
1000
0001
0010
0001
0010
0100
0010
0100
0010
,
1000
0010
1000
0010
1000
0100
1000
0100
1000
0100
0010
0001
2000
0000
0000
0000
,
3001
0010
0100
1000
0002
0000
0103
0010
0100
0010
2000
0000
3010
0100
0010
0100
,
0002
0000
1003
0100
0010
0001
2000
0000
3010
0100
0010
0100
0002
0000
2003
0000
,
3001
0010
0001
0010
0001
1000
0001
1000
0010
1000
0010
1000
0010
0100
0010
0100
,
0001
0010
0001
0010
0001
1000
0001
1000
1010
0000
1010
0000
1000
0100
0020
0000
,
1031
0000
1001
0000
0100
0010
0100
0000
0011
0000
0011
0000
1000
0100
1000
0000
,
0002
0000
0000
0000
,
1103
0000
1000
0000
0001
0010
0001
0000
0110
0000
0100
0000
0001
1000
0001
0000
,
2000
0000
0000
0000
0000
0000
0000
0000
3200
0000
0000
0000
0000
0000
0000
0000
0320
0000
0000
0000
0000
0000
0000
0000
0032
0000
0000
0000
0000
0000
0000
0000
0000
0000
0000
0000
1003
0000
0000
1000
0000
0000
1000
0000
0000
1000
0000
0000
,
0011
0000
0011
0000
1000
0100
1000
0000
0110
0000
0110
0000
0001
1000
0001
0000
,
2000
0000
0000
3200
0000
0000
0301
0000
0000
0010
0000
0000
0001
0000
0000
0000
0010
0000
0000
0000
0100
0000
0000
0000
1000
0000
0000
0000
0100
0000
0000
0000
0010
0000
0000
0000
0002
0000
0000
0000
0000
0000
0000
0000
0000
0000
0000
0000
,
1103
0000
1100
0000
0001
0010
0001
0000
0110
0000
0110
0000
0001
1000
0001
0000
,
2100
3000
0012
0003
,
1002
0000
0000
0003
0000
0000
0120
0000
0000
0030
0000
0001
,
1000
0100
0010
0001
0010
0100
0010
0100
0001
0010
0100
1000
,
0001
0010
0100
1000
0010
0100
0010
0100
0001
0010
0100
1000
,
0001
0010
0100
1000
0100
1000
0100
1000
0100
1000
0001
0010
0100
1000
0010
0100
0010
0100
0010
0100
0001
0010
0100
1000
,
0010
0100
0010
0100
0010
0100
0001
0010
0100
1000
0100
1000
0100
1000
0100
1000
0100
1000
0001
0010
0100
1000
0010
0100
,
0001
1000
0100
0010
0001
1000
0100
0010
0001
1000
0100
0010
0002
0000
0000
0000
0000
0000
0000
0000
0000
0000
0000
0000
,
0000
0000
0000
0000
,
1003
0100
0010
0001
2000
0000
3001
0010
0100
1000
0002
0000
1003
0100
0020
0000
,
0031
1000
0001
1000
1002
0000
0023
0000
1030
0100
1000
0100
2100
0000
3020
0000
,
0031
0010
0100
1000
0002
0000
0103
0010
0100
0010
2000
0000
3001
0010
0002
0000
,
1003
0100
1000
0100
1000
0100
0010
0001
0010
0001
0010
0001
0010
0100
1000
0001
,
1000
0100
0010
0001
2000
0000
3010
0100
0010
0100
0002
0000
1003
0100
2000
0000
,
3001
0010
0100
1000
2001
0000
3020
0000
1030
0100
1000
0100
2100
0000
3002
0000
,
1003
0100
1000
0100
2000
0000
3001
0010
0100
1000
0002
0000
0103
0010
0200
0000
,
0301
0010
0100
1000
0001
0010
0100
1000
0010
0100
0010
0100
0001
0010
0100
1000
,
0012
0000
2103
0000
,
3120
0000
2130
0000
,
3012
0023
1230
2300
,
3011
0010
1000
1000
0010
0010
0001
0001
,
1000
0100
0010
0001
1000
0100
0010
0001
0100
0010
0100
0010
1000
0100
0010
0001
,
1000
0100
1000
0100
1000
0010
0100
0001
1000
0100
0010
0001
1000
0100
0010
0001
,
1000
0100
0010
0001
1000
0100
0010
0001
1000
0100
0010
0001
1000
0100
0010
0001
1000
0100
0010
0001
1000
0100
0010
0001
,
1000
0100
0010
0001
1000
0100
0010
0001
1000
0100
0010
0001
1000
0100
0010
0001
1000
0100
0010
0001
1000
0100
0010
0001
,
1100
0000
0001
0010
0011
0000
1000
0001
1001
0100
0010
0001
1000
0100
0011
0000
,
0110
0000
0001
1000
1001
0000
0010
0100
0110
0010
0100
0010
0100
0010
2100
0000
,
3012
0213
1320
2130
,
3012
0123
1230
2301
,
3011
0000
1000
0001
1100
0000
0010
0100
0110
0001
0010
0100
1000
0001
0110
0000
,
1100
0000
0001
0010
0011
0000
0001
0100
1010
0001
0010
0100
1000
0001
2100
0000
,
3012
2103
3120
0231
,
0312
0123
2130
3201
,
1301
0000
1001
0000
1001
0001
1000
0000
0110
0000
0110
0000
0110
0010
0100
0000
,
0000
2100
3020
1032
,
1013
0000
1010
0000
1010
1000
0010
0000
0101
0000
0101
0000
0101
0001
0100
0000
,
1000
0100
1000
0100
1000
0001
1000
0001
0100
0010
0100
0010
1001
0000
0000
0000
,
1100
0000
1100
0000
1100
1000
0001
0000
1001
0000
1001
0000
1001
1000
0001
0000
,
0000
2100
3120
0132
,
1003
0000
1000
0000
1000
0001
1000
0000
0010
0000
0010
0000
0010
0100
0010
0000
,
0100
0000
0100
0000
0100
0001
0100
0000
0010
0000
0010
0000
1000
0010
0102
0000
,
0000
0003
0000
0000
0000
0000
0000
0000
;

//---------------dance-single - Copied from----------------
#NOTES:
     dance-single:
     Copied from:
     Hard:
     11:
     1.000,1.000,0.763,0.864,1.000,1761.000,188.000,213.000,0.000,88.000:
1000
0100
0001
0010
0001
1000
0001
0100
,
0001
0100
0001
0100
0001
1000
0001
0010
,
0001
0010
1000
0100
1000
0010
1000
0001
,
1200
0010
1300
0001
1020
0001
1030
0010
,
2100
0010
0100
0001
0100
0010
0100
0001
,
0100
0010
0100
0001
0100
0010
0100
0010
,
3001
0100
0001
1000
0001
0010
0001
1000
,
0021
1000
0031
0100
0201
0010
0301
1000
,
1002
0100
0010
0100
0010
0100
0010
0100
,
1103
0100
0100
0100
0110
0010
0010
0010
,
0012
0003
0001
0001
0010
0010
0100
0100
,
0010
0010
1000
1000
0001
0001
0100
0100
,
1000
1000
0102
0100
1000
1000
0100
0100
,
1003
0000
1001
0000
0101
0000
0101
0000
1000
0100
0010
0001
2000
0000
0000
0000
,
3001
0010
0100
1000
0001
0010
0100
1000
0001
0100
0001
0100
0001
0100
0010
0100
,
0001
0010
0100
1000
0001
0010
0001
1000
0100
1000
0001
0100
0001
1000
0010
1000
,
0001
0100
0001
0100
0010
1000
0001
1000
0001
0100
0001
0100
0010
1000
0010
1000
,
0010
0100
0010
0100
0001
1000
0001
1000
0001
0010
0100
1000
0200
0000
0000
0000
,
1300
0010
0100
0001
1000
0010
0100
0001
0100
0010
0100
0001
0010
0001
1000
0100
,
1000
0010
0100
0001
1000
0010
0100
0001
1000
0010
0100
0001
0100
0010
0100
0010
,
1000
0100
0010
0001
1000
0100
1000
0001
0010
0001
1000
0100
1000
0010
0100
0001
,
0100
0010
0100
0010
1000
0100
1000
0100
0010
0100
0010
0100
0002
0000
0000
0000
,
1003
0100
0010
0001
2000
0000
3010
0100
0010
0100
0002
0000
0103
0010
0100
0010
,
2000
0000
3001
0010
0100
1000
0002
0000
1003
0100
0010
0001
2000
0000
3000
0000
,
0001
0010
0100
1000
0001
0010
0100
1000
0010
0100
0010
0100
0001
0100
0010
1000
,
0001
0100
0010
1000
0001
0010
0100
1000
0010
0100
0010
0100
0002
0000
0000
0000
,
1003
0100
0010
0001
2000
0000
3001
0010
0100
1000
0002
0000
0103
0010
0100
0010
,
0200
0000
0301
0010
0100
1000
0002
0000
0103
0010
0100
0010
0200
0000
0300
0000
,
0001
1000
0001
1000
0001
1000
0001
1000
0010
0100
0010
0100
0010
0100
0010
0100
,
0001
1000
0001
1000
0001
1000
0001
1000
0001
0010
0100
1000
0002
0000
0000
0000
,
1103
0000
0100
0010
1001
0000
0010
0100
0010
0100
0010
0100
0001
1000
0110
0000
,
0101
0000
1000
0100
0011
0000
0001
0010
0001
0010
0100
1000
0001
1000
0110
0000
,
0102
0123
1230
2301
,
3012
1023
0231
2301
,
3011
0000
0100
0010
1001
0000
0010
0100
0001
0010
0100
1000
0001
1000
0110
0000
,
0011
0000
1000
0010
0101
0000
0010
1000
0100
0010
0001
0100
0010
0100
0020
0000
,
2031
3210
0321
1032
,
2103
3210
1320
1032
,
1003
0100
1000
0100
2001
0000
3010
0100
0010
0100
1020
0000
0031
0100
0002
0000
,
1003
0000
0100
0000
0010
0000
0001
0000
0010
0000
0100
0000
2001
0000
0000
0000
0000
0000
3020
0000
0000
0000
0000
0000
1030
0000
0000
0100
0000
0000
0010
0000
0000
0001
0000
0000
2100
0000
0000
0000
0000
0000
0000
0000
0000
0000
0000
0000
,
3001
0100
0010
1000
0001
0100
0010
1000
0001
0010
0100
1000
0001
0010
0100
1000
,
0001
0010
0001
1000
0100
1000
0010
0100
0010
1000
0100
1000
0001
0100
0001
1000
,
0010
1000
0001
0010
0100
1000
0001
0010
0001
0100
0010
0100
0001
0010
0100
1000
,
0001
0010
0100
1000
0010
0100
0010
0100
0001
0010
0100
1000
0002
0000
0000
0000
,
1003
0100
0010
0001
0200
0000
0301
0010
0001
0010
0002
0000
1003
0100
1000
0100
,
2000
0000
3001
0010
0100
1000
0002
0000
1003
0100
0010
0001
2000
0000
0000
0000
,
3012
0000
0123
0000
2130
3000
0000
0000
,
2100
3120
1032
0000
,
1103
0000
0100
0010
1001
0000
0010
0100
0010
0100
0010
0100
0010
0100
0011
0000
,
1100
0000
0001
1000
0110
0000
1000
0001
0100
0010
0100
0010
0100
0010
1001
0000
,
0210
1302
2013
3210
,
1320
1032
2013
3210
,
1301
0000
0001
1000
0110
0000
1000
0001
0100
0010
0100
0010
0100
0010
1100
0000
,
0011
0000
0001
0010
1100
0000
0010
0001
1000
0100
0010
0001
1000
0100
0011
0000
,
2100
3210
0321
1032
,
0123
1032
2103
3210
,
0301
0010
0100
1000
0002
0000
0103
0010
0100
0010
2000
0000
3001
0010
0002
0000
,
1003
0100
1000
0100
2000
0000
3020
0000
1030
0100
0010
0001
2000
0000
3020
0000
,
1030
0100
0010
0001
2000
0000
3010
0100
0010
0100
0002
0000
1003
0100
2000
0000
,
3100
0010
0100
0010
1000
0100
0010
0001
1000
0100
0010
0001
1000
0100
0010
0001
,
0100
0010
0100
0010
2000
0000
3010
0100
0010
0100
0002
0000
1003
0100
2000
0000
,
3001
0010
0001
0010
0002
0000
0203
0000
0301
0010
0100
1000
0002
0000
0203
0000
,
0301
0010
0100
1000
0002
0000
0103
0010
0100
0010
2000
0000
3001
0010
0002
0000
,
1003
0100
0010
0001
0100
0010
0100
0010
1000
0100
0010
0001
1000
0100
0010
0001
,
1100
0000
1100
0000
0100
0010
0100
0000
1001
0000
1001
0000
0001
1000
0001
0000
,
0000
2100
3012
0123
,
1031
0000
1001
0000
1000
0001
1000
0000
0101
0000
0101
0000
0100
0001
0100
0000
,
0000
0000
0000
0000
0000
0000
1100
0000
0000
0001
0010
0100
1000
0000
0000
1000
0000
0000
1100
0000
0000
0000
0000
0000
,
0110
0000
0110
0000
0010
0100
0010
0000
1010
0000
1010
0000
0010
1000
0010
0000
,
0000
0012
2103
3012
,
1000
0000
1000
0000
1000
0100
1000
0000
0100
0000
0100
0000
0100
1000
0100
0000
,
2013
0000
0010
0000
0000
0001
0010
0000
3012
0000
0100
0000
0000
1000
0100
0000
,
1023
0000
0100
0000
0000
1000
0100
0000
2130
0000
0001
0000
0000
0010
0001
0000
,
3012
0000
0100
0000
0000
1000
0100
0000
2103
0000
0010
0000
0000
0001
0010
0000
,
3100
0000
0000
0000
0000
0000
0001
0000
0010
0000
0100
0000
1000
0000
0000
0100
0000
0000
1000
0000
0000
0100
0000
0000
1000
0000
0000
0100
0000
0000
0010
0000
0000
0001
0000
0000
1000
0000
0000
0100
0000
0000
0010
0000
0000
0001
0000
0000
,
1000
0100
1000
0100
1000
0100
1000
0100
0010
0100
0010
0100
0010
0100
0010
0100
,
0001
0010
0001
0010
0001
0010
0001
0010
0001
1000
0001
1000
0001
1000
0001
1000
,
0010
0100
0010
0100
0010
0100
0010
0100
0001
0010
0001
0010
0001
0010
0001
0010
,
0001
1000
0001
1000
0001
1000
0001
1000
0010
0100
0010
0100
0010
0100
0010
0100
,
0001
0010
0100
1000
0010
0100
0010
0100
0001
0010
0100
1000
0001
0010
0001
0100
,
0010
0100
0001
0010
0001
1000
0100
1000
0002
0000
0203
0000
0320
0000
2030
0000
,
3001
0010
0100
1000
0010
0100
0010
0100
0001
0010
0100
1000
0010
0100
0010
1000
,
0100
1000
0001
0010
0001
1000
0100
1000
0002
0000
0023
0000
0032
0000
0203
0000
,
0301
0010
0100
1000
0010
0100
0010
0100
0001
0010
0100
1000
0001
0010
0001
0100
,
0010
0100
0001
0010
0001
1000
0100
1000
0002
0000
0203
0000
0320
0000
2030
0000
,
3001
0010
0100
1000
0010
0100
0010
0100
0001
0010
0100
1000
0010
0100
0010
1000
,
0100
1000
0001
0010
0001
1000
0100
1000
0002
0000
0023
0000
0032
0000
0203
0000
,
1302
0100
1000
0100
1000
0100
1000
0100
,
1000
0100
1000
0100
1000
0100
1000
0100
,
0113
0120
1000
1000
0031
0001
0010
0010
,
2100
0100
0010
0010
3102
0100
1000
1000
,
0123
0100
1000
1000
0100
0100
1000
1000
,
2130
0100
0001
0001
3102
0100
1000
1000
,
0113
0100
1002
1000
0100
0100
1000
1000
,
0100
0000
0100
0000
1003
0000
1000
0000
0001
0010
0100
1000
0002
0000
0000
0000
,
1003
0100
1000
0001
0010
0001
0100
0010
0100
0001
0010
0001
1000
0100
0010
0001
,
1000
0100
0010
0001
1000
0100
1000
0001
0010
0001
0100
0010
0100
0001
0010
0001
,
1000
0010
1000
0001
0100
0001
1000
0100
1000
0001
0010
0001
1000
0100
0010
0001
,
0100
0010
0100
0010
1000
0100
0010
0001
1000
0100
0010
0001
2000
0000
0000
0000
,
3001
0010
0100
1000
0002
0000
0103
0010
0100
0010
2000
0000
3010
0100
0010
0100
,
0002
0000
1003
0100
0010
0001
2000
0000
3010
0100
0010
0100
0002
0000
2003
0000
,
3001
0010
0001
0010
0001
1000
0001
1000
0010
1000
0010
1000
0010
0100
0010
0100
,
0001
0010
0001
0010
0001
1000
0001
1000
0010
0100
0010
0100
0020
0000
0000
0000
,
1030
0100
1000
0001
0010
0001
0100
0010
0100
0001
0010
0001
1000
0100
0010
0001
,
1000
0100
0010
0001
1000
0100
1000
0001
0010
0001
0100
0010
0100
0001
0010
0001
,
1000
0010
1000
0001
0100
0001
1000
0100
1000
0001
0010
0001
1000
0100
0010
0001
,
0100
0010
0100
0010
1000
0100
0010
0001
1000
0100
0010
0001
2000
0000
0000
0000
,
3001
0010
0100
1000
0002
0000
0103
0010
0100
0010
2000
0000
3010
0100
0010
0100
,
0002
0000
1003
0100
0010
0001
2000
0000
3010
0100
0010
0100
0002
0000
2003
0000
,
3001
0010
0001
0010
0001
0010
0001
0010
0001
1000
0001
1000
0001
1000
0001
1000
,
0010
0100
0010
0100
0010
0100
0010
0100
1001
0000
1001
0000
0100
0010
0200
0000
,
1301
0000
1001
0000
0100
0010
0100
0000
0011
0000
0011
0000
1000
0100
1000
0000
,
0002
0000
0000
0000
,
1103
0000
1000
0000
0001
0010
0001
0000
0110
0000
0100
0000
0001
1000
0001
0000
,
2000
0000
0000
0000
0000
0000
0000
0000
3200
0000
0000
0000
0000
0000
0000
0000
0320
0000
0000
0000
0000
0000
0000
0000
0032
0000
0000
0000
0000
0000
0000
0000
0000
0000
0000
0000
1003
0000
0000
1000
0000
0000
1000
0000
0000
1000
0000
0000
,
0011
0000
0011
0000
1000
0100
1000
0000
0110
0000
0110
0000
0001
1000
0001
0000
,
2000
0000
0000
3200
0000
0000
0301
0000
0000
0010
0000
0000
0001
0000
0000
0000
0010
0000
0000
0000
0100
0000
0000
0000
1000
0000
0000
0000
0100
0000
0000
0000
0010
0000
0000
0000
0002
0000
0000
0000
0000
0000
0000
0000
0000
0000
0000
0000
,
1103
0000
1100
0000
0001
0010
0001
0000
0110
0000
0110
0000
0001
1000
0001
0000
,
2100
3000
0012
0003
,
1002
0000
0000
0003
0000
0000
0120
0000
0000
0030
0000
0001
,
1000
0100
0010
0001
0010
0100
0010
0100
0001
0010
0100
1000
,
0001
0010
0100
1000
0010
0100
0010
0100
0001
0010
0100
1000
,
1000
0100
1000
0100
1000
0100
1000
0100
1000
0100
0001
0010
0001
0010
0001
0010
0001
0010
0001
0100
0010
0100
0010
0100
,
0010
0100
0010
0100
0010
0100
0001
0010
0100
1000
0001
0010
0100
1000
0001
0010
0100
1000
0001
0010
0100
1000
0010
0100
,
0001
1000
0100
0010
0001
1000
0100
0010
0001
1000
0100
0010
0002
0000
0000
0000
0000
0000
0000
0000
0000
0000
0000
0000
,
0000
0000
0000
0000
,
1003
0100
0010
0001
2000
0000
3001
0010
0100
1000
0002
0000
1003
0100
0020
0000
,
0031
1000
0001
1000
0002
0000
0023
0000
1030
0100
1000
0100
2000
0000
3020
0000
,
0031
0010
0100
1000
0002
0000
0103
0010
0100
0010
2000
0000
3001
0010
0002
0000
,
1003
0100
1000
0001
0010
0001
0100
0010
0100
0001
0010
0001
1000
0010
1000
0001
,
1000
0100
0010
0001
2000
0000
3010
0100
0010
0100
0002
0000
1003
0100
2000
0000
,
3001
0010
0100
1000
0002
0000
0023
0000
1030
0100
1000
0100
2000
0000
3002
0000
,
1003
0100
1000
0100
2000
0000
3001
0010
0100
1000
0002
0000
0103
0010
0200
0000
,
0301
0010
0100
1000
0001
0010
0100
1000
0001
0010
0001
1000
0100
1000
0010
0100
,
0012
0000
2103
0000
,
3120
0000
2130
0000
,
3012
0023
1230
2300
,
3011
0010
1000
1000
0010
0010
0001
0001
,
1000
0100
0010
0001
1000
0100
0010
0001
0100
0010
0100
0010
1000
0100
0010
0001
,
1000
0100
1000
0001
0010
0001
1000
0010
1000
0100
0010
0001
1000
0100
0010
0001
,
1000
0100
0010
0001
1000
0100
0010
0001
1000
0100
0010
0001
1000
0100
0010
0001
1000
0100
0010
0001
1000
0100
0010
0001
,
1000
0100
0010
0001
1000
0100
0010
0001
1000
0100
0010
0001
1000
0100
0010
0001
1000
0100
0010
0001
1000
0100
0010
0001
,
1100
0000
0001
0010
1100
0000
1000
0001
1000
0100
0010
0001
1000
0100
0011
0000
,
0110
0000
0001
1000
0110
0000
0010
0100
0010
0100
0010
0100
0010
0100
2001
0000
,
3012
0213
1320
2130
,
3012
0123
1230
2301
,
3011
0000
1000
0001
1100
0000
0100
0010
0100
0001
0010
0100
1000
0001
0110
0000
,
1100
0000
0001
0010
1001
0000
0001
0100
0001
0010
0100
1000
0001
0010
2100
0000
,
3012
2103
3120
0231
,
0312
0123
2130
3201
,
1301
0000
1001
0000
1000
0001
1000
0000
0110
0000
0110
0000
0100
0010
0100
0000
,
0000
2100
3020
1032
,
1013
0000
1010
0000
0010
1000
0010
0000
0101
0000
0101
0000
0100
0001
0100
0000
,
1000
0100
1000
0001
0010
0001
0100
0010
0100
0010
0100
0010
1001
0000
0000
0000
,
1100
0000
1100
0000
0100
1000
0001
0000
1001
0000
1001
0000
0001
1000
0001
0000
,
0000
2100
3120
0132
,
1003
0000
1000
0000
1000
0001
1000
0000
0010
0000
0010
0000
0010
0100
0010
0000
,
0100
0000
0100
0000
0100
0001
0100
0000
0010
0000
0010
0000
1000
0010
0102
0000
,
0000
0003
0000
0000
0000
0000
0000
0000
;
