#TITLE:TORA TORA TORA;
#SUBTITLE:;
#ARTIST:DOMINO;
#TITLETRANSLIT:;
#SUBTITLETRANSLIT:;
#ARTISTTRANSLIT:;
#CREDIT:;
#BANNER:Tora Tora Tora-bn.png;
#BACKGROUND:Tora Tora Tora-bg.png;
#LYRICSPATH:;
#CDTITLE:;
#MUSIC:Tora Tora Tora.mp3;
#OFFSET:-0.200;
#SAMPLESTART:45.570;
#SAMPLELENGTH:12.000;
#SELECTABLE:YES;
#BPMS:0.000=148.060;
#STOPS:;
#BGCHANGES:;
// cache tags:
#FIRSTBEAT:12.000;
#LASTBEAT:180.000;
#SONGFILENAME:Songs/toune/TORA TORA TORA/Tora Tora Tora.sm;
#HASMUSIC:1;
#HASBANNER:1;
#MUSICLENGTH:78.843;
// end cache tags

//---------------dance-single - ----------------
#NOTES:
     dance-single:
     :
     Easy:
     4:
     0.332,0.371,0.304,0.178,0.000,145.000,24.000,14.000,0.000,0.000:
0000
0000
0000
0000
,
0000
0000
0000
0000
,
0000
0000
0000
0000
,
0020
0000
0000
0030
,
1000
0001
0010
0010
,
0001
0000
1000
0000
,
0010
1000
0100
0100
,
1000
0000
0001
0000
,
0100
0010
0100
0001
,
0010
0100
0010
0001
,
1000
0010
1000
0001
,
0010
0100
0010
0100
,
1001
1001
1001
0000
,
0110
0110
0001
1000
,
0100
0100
0100
1000
,
0001
0000
1000
0000
,
0110
0110
0110
0000
,
1001
1001
0010
0100
,
0001
0001
0001
1000
,
0100
0000
1000
0000
,
0010
0100
0001
2000
,
3100
1000
0001
1001
,
1000
0010
0100
0002
,
0013
0100
0010
0100
,
1000
0001
0100
0002
,
1003
0100
0010
0100
,
1000
0000
0001
1000
,
0010
0000
0100
0000
,
1001
0110
1001
0000
,
1000
0010
0001
0100
,
0110
1001
0110
0000
,
1000
0100
0001
0010
,
1001
1001
0110
0100
,
0010
1000
0001
0000
,
0110
0110
1001
0001
,
0100
1000
0100
0000
,
0010
0001
0100
0100
,
0002
1003
0002
1003
,
0100
1000
0010
0010
,
0200
0310
0200
0310
,
1000
1000
0001
0010
,
0002
0103
0200
0301
,
0010
0010
0100
1000
,
0020
0130
0200
0310
,
2002
0000
0000
0000
,
3003
0000
0000
0000
;

//---------------dance-single - ----------------
#NOTES:
     dance-single:
     :
     Medium:
     6:
     0.402,0.400,0.089,0.051,0.013,211.000,7.000,4.000,0.000,0.000:
0000
0000
0000
0000
,
0000
0000
0000
0000
,
0000
0000
0000
0000
,
0020
0000
0000
0000
0000
0000
0000
0030
,
1000
0000
0100
0000
1000
0001
1000
0000
,
0010
0100
0001
0000
0010
0001
0100
0000
,
0001
0000
1000
0000
0100
1000
0100
0000
,
0010
0000
0001
0000
1000
0001
1000
0001
,
0100
0000
0001
0000
0010
0001
1000
0000
,
0100
0100
0100
0000
1000
0001
1000
0000
,
0001
0000
0100
0000
0001
1000
0100
0000
,
0010
0100
0010
0000
0001
0000
1000
0000
,
1010
1001
1010
0000
,
0001
1000
0001
1000
0001
0000
0100
0000
,
0010
0000
0000
0000
0010
0000
0000
0010
0000
0000
0000
0000
1000
0000
0000
0000
,
0001
0000
0010
0100
1000
0000
0010
0000
,
0110
1001
0110
0000
,
1000
0001
1000
0001
1000
0000
0100
0000
,
0010
0000
0000
0000
0010
0000
0000
0010
0000
0000
0001
0000
1000
0000
0000
0000
,
0010
0000
0100
0010
0100
0000
0001
0000
,
0010
0100
1000
0000
0010
0000
0200
0000
,
0310
1000
0001
0000
0010
0001
0010
0001
,
1000
0000
1000
0010
0100
0000
0001
0000
,
0001
1000
0100
0000
0010
0000
0100
0000
,
1000
0001
0100
0000
0001
0000
2000
0000
,
3100
0000
0010
0001
1000
0000
1001
0000
,
0010
0000
0010
0100
0001
0000
0010
0000
,
0100
0000
0100
1000
0010
0000
0100
0000
,
0001
1000
0001
1000
0001
1000
0000
0100
,
0000
0100
1000
0001
1000
0000
0000
0000
,
0010
0100
0010
0100
0010
0100
0000
0000
,
0001
0010
0100
1000
,
0001
0100
0001
1000
0001
0100
0000
0010
,
0000
0010
1000
0100
1000
0000
0100
0000
,
0010
0100
0010
0001
0010
0100
0000
1000
,
0000
0001
0100
0001
0000
0100
0000
0000
,
0010
0000
0100
0000
0001
1000
0100
0000
,
0010
0000
0100
0000
0010
0010
0010
0000
,
0001
0000
1000
0000
0010
1000
0100
0000
,
0010
0001
0010
0000
1000
0010
1000
0000
,
0001
0000
0100
0000
0010
0100
0001
0000
,
1000
0000
0100
0000
0010
0001
0010
0001
,
1000
0000
0001
0000
0100
0010
0100
0000
,
0001
1000
0001
1000
0100
0000
0010
0000
,
0200
0000
0000
0000
,
0300
0000
0000
0000
;

//---------------dance-single - ----------------
#NOTES:
     dance-single:
     :
     Hard:
     8:
     0.549,0.485,0.114,0.038,0.063,291.000,9.000,3.000,0.000,0.000:
0000
0000
0000
0000
,
0000
0000
0000
0000
,
0000
0000
0000
0000
,
0010
0001
1000
0001
0100
0001
1000
0001
,
0010
0000
0100
0000
0010
0000
0001
0000
0100
0000
0010
0000
1000
0010
0000
0000
,
1000
0100
0001
0100
1000
0100
0010
0001
,
0100
0000
0010
0000
0001
0000
0010
0000
1000
0000
0001
0000
0010
0001
0000
0000
,
0100
1000
0100
0010
0100
0001
0100
0010
,
1000
0000
0100
0000
0001
0000
0100
0000
1000
0000
0010
0000
0100
0001
0000
0000
,
0100
0010
1000
0100
0001
0100
0010
0001
,
1000
0000
0010
0000
0100
0000
0001
0000
0010
0000
0100
0000
1000
0100
0000
0000
,
0010
0001
0100
1000
0100
0001
0010
0000
,
0001
1000
0001
1000
0100
1000
1000
0000
,
0001
0100
1000
0100
0001
1000
0001
0010
,
0100
0000
0000
0000
1001
0000
0000
1010
0000
0000
0001
0000
0010
0000
1000
0000
,
0010
0000
0001
1000
0010
0100
0001
0000
,
0010
0100
0010
0100
1000
0100
0100
0000
,
1000
0010
0001
0010
1000
0100
1000
0001
,
0100
0000
0000
0000
1001
0000
0000
0110
0000
0000
1000
0000
0001
0000
0010
0000
,
0001
0000
0100
0010
1000
0000
0001
0000
,
1000
0100
0010
0100
1000
0000
0101
0000
,
0010
1000
0001
0010
0001
1000
0010
0100
,
0001
0010
0001
1000
0010
0000
0101
0000
,
1000
0100
0010
0100
0001
0100
1000
0000
,
2001
0000
3010
0000
1000
0100
0001
0100
,
0010
0000
0012
0000
0103
1000
0100
0010
,
0100
0000
0001
0010
0100
1000
0100
0000
,
0010
0000
0001
0010
0001
0100
0001
0000
,
1000
0100
0010
0100
1000
0100
0000
0010
,
0001
0000
0100
0010
0100
0010
1000
0000
,
0100
0001
0100
0010
0100
1000
0000
0001
,
0100
0000
0010
0000
1000
0001
0100
0000
,
0001
0010
0100
1000
0100
0010
0000
0001
,
0100
0000
0010
1000
0010
0100
0001
0000
,
0010
0001
0100
0001
0010
0100
0000
1000
,
0001
0100
0010
0100
0001
0000
0011
0000
,
0100
0000
1000
0000
0010
0000
0100
0000
0001
0000
0010
0000
1000
0010
0000
0000
,
0001
0100
1000
0100
0001
0010
1000
0010
,
0100
0000
1000
0000
0001
0000
0100
0000
0010
0000
0001
0000
0010
1000
0000
0000
,
0100
0001
0100
0010
0100
1000
0001
0100
,
0010
0000
0001
0000
0010
0000
1000
0000
0100
0000
0001
0000
0100
0010
0000
0000
,
0001
1000
0010
1000
0100
0001
0100
1000
,
0010
0000
0100
0000
1000
0000
0100
0000
0001
0000
0010
0000
0100
1000
0000
0000
,
0001
0100
0010
0100
1000
0100
0010
0100
,
0002
0000
0000
0000
,
0003
0000
0000
0000
;

//---------------dance-single - ----------------
#NOTES:
     dance-single:
     :
     Beginner:
     1:
     0.158,0.195,0.063,0.000,0.000,82.000,5.000,0.000,0.000,0.000:
0000
0000
0000
0000
,
0000
0000
0000
0000
,
0000
0000
0000
0000
,
0010
0000
0000
0000
,
1000
0000
1000
0000
,
0100
0000
0000
0000
,
0001
0000
0001
0000
,
0100
0000
0000
0000
,
0010
0000
0100
0000
,
0010
0000
0000
0000
,
1000
0000
0001
0000
,
1000
0000
0000
0000
,
0010
0010
0010
0000
,
1000
0000
0001
0000
,
1001
0000
0000
0000
,
0100
0000
0100
0000
,
0010
0010
0010
0000
,
0100
0000
0010
0000
,
1001
0000
0000
0000
,
1000
0000
0001
0000
,
0110
0000
1000
0000
,
0001
0000
0001
0001
,
0001
0000
0100
0000
,
0010
0000
1000
0000
,
1001
0000
0100
0000
,
0010
0000
0010
0010
,
0010
0000
0100
0000
,
1000
0000
0001
0000
,
1000
1000
1000
0000
,
0001
0000
0000
0000
,
0100
0100
0100
0000
,
0010
0000
0000
0000
,
0001
0001
0001
0000
,
0001
0000
1000
0000
,
0010
0010
0010
0000
,
0010
0000
1000
0000
,
0100
0000
0100
0000
,
1000
0000
0000
0000
,
0001
0000
0001
0000
,
0100
0000
0000
0000
,
0010
0000
0010
0010
,
0010
0000
0100
0000
,
0001
0000
0001
0001
,
0001
0000
1000
0000
,
1001
0000
0000
0000
;
