#TITLE:The Big Black;
#SUBTITLE:owenviau1's FINAL BOSS Song;
#ARTIST:The Quick Brown Fox;
#TITLETRANSLIT:;
#SUBTITLETRANSLIT:;
#ARTISTTRANSLIT:;
#CREDIT:owenviau1;
#BANNER:BN.PNG;
#BACKGROUND:BG.PNG;
#LYRICSPATH:;
#CDTITLE:../ov1_title.png;
#MUSIC:The Quick Brown Fox - The Big Black.mp3;
#OFFSET:-7.081;
#SAMPLESTART:19.067;
#SAMPLELENGTH:29.999;
#SELECTABLE:YES;
#DISPLAYBPM:*;
#BPMS:0.000=360.270,219.000=360.225,220.000=360.270,411.000=360.225,412.000=360.270,441.000=360.225,442.000=360.270,603.000=360.225,604.000=360.270,647.000=360.225,648.000=360.270,809.000=360.225,810.000=360.270;
#STOPS:;
#BGCHANGES:;
// cache tags:
#FIRSTBEAT:0.000;
#LASTBEAT:800.000;
#SONGFILENAME:Songs/owenviau1 Simfiles 5/The Big Black - [owenviau1] v1.6/The Big Black.sm;
#HASMUSIC:1;
#HASBANNER:1;
#MUSICLENGTH:145.037;
// end cache tags

//---------------dance-single - ----------------
#NOTES:
     dance-single:
     :
     Medium:
     18:
     1.000,1.000,0.159,0.876,0.848,1517.000,23.000,127.000,4.000,4.000:
2002
0000
0000
0000
0003
3001
0100
0010
,
1000
0100
0010
0001
1000
0010
0100
0001
,
1000
0010
0100
0000
0001
0000
0010
0000
0100
0000
1000
0000
0001
0000
0010
0000
,
0100
1000
0010
0100
0001
1000
0010
1000
,
0010
0100
0001
0000
1000
0000
0010
0000
0100
0000
0001
0000
0010
0000
0100
0000
,
1000
0100
0010
0001
1000
0010
0100
0001
,
1000
0100
0010
0001
1000
0010
1000
0010
0100
0001
1000
0001
,
1000
0100
0010
0001
0010
0001
0010
0001
1000
0010
0100
0001
,
0200
0310
1000
0100
0010
0001
1000
0010
,
0100
0001
0010
0100
1000
0001
0010
0100
,
1000
0001
0010
0000
0100
0000
1000
0000
0010
0000
0100
0000
0001
0000
1000
0000
,
0010
0100
0001
0010
0100
1000
0100
1000
,
0010
0100
0001
0000
1000
0000
0010
0000
0100
0000
0001
0000
0010
0000
0100
0000
,
1000
0100
1000
0010
0100
0001
1000
0010
,
1000
0020
1030
0000
0000
0000
0010
0200
0310
0000
0000
0000
,
0100
0002
0103
0000
0000
0000
0010
2000
3010
0000
0000
0000
,
1221
0000
0000
0000
0000
0000
0000
0000
0000
0000
0330
0000
,
1111
0000
0000
0000
0000
0000
1000
0001
0100
0010
1000
0100
,
0040
0030
0000
0000
0001
0000
0000
0000
1000
0000
0000
0000
0010
0000
0000
0000
0100
0000
0000
0000
0001
0000
0000
0000
0010
0000
0000
0000
0100
0000
0000
0000
,
1000
0100
1000
0010
0100
0001
1000
0010
,
1000
0010
0100
0001
0010
0100
1000
0001
,
0010
0000
0100
0000
1000
0000
0010
0000
0100
0001
0100
0001
0200
0000
0301
0000
,
1000
0010
0100
0001
0010
0100
1000
0100
,
1000
0010
0100
0001
1000
0100
0010
0001
,
0010
0100
1000
0010
1000
0010
0100
0001
,
1000
0001
1000
0100
0020
0000
0031
1000
,
0010
0100
0001
0010
0100
1000
0001
0010
,
0100
1000
0010
0100
0001
1000
0010
1000
,
0010
0100
0001
0010
0100
1000
0100
1000
,
0010
0000
0100
0000
0001
0000
1000
0000
0010
0100
0010
0400
0040
0000
0000
0330
,
0100
0001
1000
0010
0100
0001
0010
0100
,
1000
0000
0100
0000
1000
0000
0010
0000
0100
0001
0100
0000
0004
0400
0303
0000
,
1000
0010
0100
0001
0010
0100
1000
0001
,
0010
0000
0000
0100
0000
0000
1000
0000
0000
0010
0000
0000
0100
0000
0000
0001
0000
0000
1000
0000
0001
0000
1000
0000
,
0010
0100
0001
0010
0100
1000
0010
0100
,
0001
1000
0010
1000
0010
0100
0001
0010
,
0100
1000
0001
0010
0100
1000
0010
0100
,
0001
0000
1000
0000
0010
0000
0100
0000
0001
1000
0001
1000
0002
0000
0000
0000
,
1003
0001
1000
0010
0100
0001
0010
0100
,
1000
0000
0000
0001
0000
0000
0010
0000
0000
0100
0000
0000
1000
0000
0000
0001
0100
0000
0000
0000
0000
0001
1000
0000
,
0000
0001
1000
0010
0100
0001
0010
0100
,
1000
0001
0010
0100
2000
0000
0000
0000
,
3001
1000
0010
1000
0010
0100
0001
1000
,
0001
1000
0001
1000
0100
0010
0001
0100
,
0001
0100
0001
1000
0010
0100
0001
0010
,
0001
0000
0010
0000
0001
0000
0010
0000
0001
1000
0001
4000
0004
0000
0000
3003
,
1000
0000
0001
0000
1000
0000
0010
0000
0100
0000
0001
0000
0010
0100
4000
0000
,
0000
0000
3004
0000
0000
0000
4003
0000
0000
0000
3010
0100
0004
0000
0000
0000
,
2003
0000
3001
1000
0010
0100
0001
0010
,
0100
1000
0100
1000
0100
2000
0100
3000
,
1100
0000
0000
0000
0000
0000
0001
1000
,
0010
0100
0001
1000
0010
0100
0001
1000
,
0010
0100
0001
1000
0001
1000
0010
0100
,
0001
1000
0001
1000
0010
0100
0001
1000
,
0001
1000
0010
0100
0001
1000
0001
1000
,
0010
0100
0001
1000
0001
1000
0010
0100
,
0001
1000
0001
1000
0010
0100
0001
1000
,
0001
1000
0010
0100
0001
1000
0001
1000
,
0040
0130
0001
1000
0010
0100
0001
0010
,
0001
0010
0100
1000
0010
1000
0010
0100
,
0001
1000
0010
1000
0010
0100
0001
0010
,
0100
1000
0100
0010
0001
1000
0010
0100
,
0001
1000
0001
1000
0100
0010
0001
1000
,
0100
0010
0001
1000
0010
1000
0010
0100
,
0001
1000
0001
1000
0100
0010
0001
0010
,
0100
1000
0100
0010
0001
1000
0010
0100
,
0020
0000
0000
0000
0130
0001
1000
0010
,
0100
0001
0010
0100
1000
0100
1000
0010
,
0100
0001
1000
0010
1000
0010
0100
0001
,
0010
0100
1000
0100
1000
0001
0010
0100
,
1000
0010
0100
0001
1000
0010
1000
0010
,
0100
0001
1000
0100
0010
0001
0010
0001
,
1000
0010
1000
0010
0100
0001
0010
0100
,
1000
0001
1000
0001
1000
0100
0010
0001
,
1000
0001
1000
0100
0010
0001
1000
0010
,
1000
0010
0100
0001
1000
0010
0100
0001
,
0010
0001
0010
0100
1000
0001
0010
0001
,
1000
0010
0100
0001
1000
0010
1000
0010
,
0100
0001
1000
0100
0010
0001
1000
0100
,
0010
0001
1000
0010
1000
0010
0100
0001
,
0010
0100
1000
0001
0010
0100
1000
0010
,
0100
0001
1000
0010
0100
0001
0100
0001
,
4000
3001
0100
0010
1000
0100
0010
0001
,
4000
0000
0000
3000
0000
0000
0000
0000
0000
0000
0000
0000
0010
0000
0100
0000
0010
0000
0100
0000
0000
MMMM
0000
0000
,
1000
0001
1000
0001
1000
0001
1000
0001
1000
0001
1000
0001
,
1000
0001
1000
0001
1000
0001
4000
0000
0000
0000
0000
0000
,
3010
0100
0010
0100
0010
0100
0010
0100
0010
0100
0010
0100
,
0010
0000
0000
0000
0100
0000
0000
0000
0010
0000
0000
0000
0100
0000
0000
0000
0010
0000
0000
0000
0000
0000
0000
0000
0100
0000
0000
0001
0000
0000
0400
0000
0000
0000
0000
0000
0000
0000
0000
0000
0000
0000
0000
0000
0000
0000
0000
0000
,
0301
0100
0001
0100
0001
0100
0001
0100
0001
0100
0001
0100
,
0001
0100
0001
0100
0001
0100
0001
0100
0001
0400
0000
0000
,
0302
0203
0320
2030
,
3200
0320
0032
2003
,
3001
1000
0001
1000
0001
1000
0001
1000
0001
1000
0001
0100
,
0001
0100
0001
0100
0001
0100
0001
1000
0010
1000
0010
1000
,
0010
1000
0010
1000
0100
0010
0001
0010
0001
0010
0001
0010
,
0002
2003
3020
2030
,
3001
1000
0001
1000
0001
1000
0001
1000
0001
1000
0010
1000
,
0010
1000
0010
1000
0010
1000
0010
1000
0010
0100
0010
0100
,
0010
0100
0010
0200
0000
0000
0302
0000
0000
2003
0000
0000
,
3020
0230
0302
0023
,
0130
1000
0100
1000
0100
1000
0100
1000
0010
1000
0010
1000
,
0010
1000
0001
1000
0001
1000
0001
1000
0001
1000
0001
1000
,
0001
4000
3020
0000
0230
0000
0302
0000
,
0023
0000
0000
0230
0000
0000
1300
0010
1000
0010
1000
0010
,
1000
0010
1000
0010
1000
0010
1000
0010
1000
0001
1000
0001
,
1000
0000
0001
0000
1000
0000
0001
0000
0000
4000
0000
0000
3000
0000
0000
0010
0000
0000
0200
0000
0000
0000
0000
0000
,
0002
0300
2003
0000
3020
0000
0230
0000
,
0302
0000
2003
0000
3020
0000
0130
0010
,
0200
0302
0023
0230
,
2300
3020
0230
0302
,
2003
0000
3010
0100
0002
0000
2003
0000
,
3020
0230
0302
0023
,
0030
0100
1000
0100
1000
0100
1000
0100
1000
0100
1000
0100
,
1000
0010
0100
0010
0100
0010
0100
0010
0100
0010
0100
0010
,
0100
0010
0100
0001
0000
4000
3000
0040
,
0030
0100
0001
0000
1000
0040
0030
0000
,
1001
0000
1000
0010
0100
0001
1000
0010
,
0100
0001
0010
0100
1000
0100
1000
0001
,
0010
0100
1000
0010
0100
0001
1000
0010
,
1000
0010
0100
0001
0010
0100
1000
0001
,
0010
0001
0010
0001
1000
0010
1000
0010
,
0100
0001
0010
0100
1000
0100
0010
0001
,
1000
0010
1000
0010
0100
0001
1000
0001
,
1000
0100
0010
0001
0010
0100
1000
0001
,
0010
0100
1000
0100
0010
0001
1000
0010
,
0100
0001
1000
0001
1000
0100
0010
0001
,
1000
0010
1000
0010
0100
0001
1000
0001
,
1000
0100
0010
0001
0100
0001
0100
0001
,
0010
0100
1000
0100
0010
0001
1000
0010
,
0100
0001
1000
0001
1000
0010
0100
0001
,
0010
0100
1000
0100
0010
0001
1000
0010
,
1000
0010
0100
0001
0010
0100
1000
0000
,
0022
0000
0000
0033
0202
0303
0100
0010
,
1000
0001
1000
0010
0100
0001
0010
0100
,
1000
0100
1000
0010
0100
0001
1000
0010
,
1000
0010
0100
0001
0010
0100
1000
0100
,
1000
0010
0100
0001
1000
0010
1000
0010
,
0100
0001
0010
0100
1000
0100
1000
0010
,
0100
0001
1000
0010
1000
0010
0100
0001
,
0010
0100
1000
0001
0010
0001
1000
0010
,
0100
0001
1000
0010
1000
0010
0100
0001
,
0010
0100
1000
0100
1000
0010
0100
0001
,
1000
0010
1000
0010
0100
0001
0010
0100
,
1000
0010
1000
0010
0100
0001
1000
0010
,
0100
0001
0010
0100
1000
0010
0100
0001
,
1000
0001
1000
0010
0100
0001
0010
0100
,
1000
0100
1000
0010
0100
0001
1000
0010
,
1000
0010
0100
0001
0010
0100
1000
0001
,
2000
0000
0000
0000
0000
0000
3020
0000
0000
0130
0001
0100
,
0001
1000
0010
0100
0001
0010
0100
1000
,
0020
0000
0000
0000
0000
0000
0230
0000
0000
0301
0010
0100
,
1000
0001
1000
0010
0100
0001
0010
0100
,
2000
0000
0000
0000
0000
0000
3020
0000
0000
0130
0001
1000
,
0010
0100
0001
0010
0100
1000
0001
0010
,
0200
1300
0100
1000
0100
1000
0100
1000
,
0010
1000
0010
1000
0010
1000
0010
0100
,
0020
0000
0000
0000
0000
0000
0230
0000
0000
0301
0010
0100
,
1000
0100
0010
0001
1000
0010
0100
0001
,
2000
0000
0000
0000
0000
0000
3020
0000
0000
0130
0001
0010
,
0100
1000
0010
1000
0010
0100
0001
0010
,
0200
0000
0000
0000
0000
0000
2300
0000
0000
3010
0100
0001
,
2000
0000
0000
0000
0000
0000
0000
0000
0000
3001
0100
0010
,
2000
0000
0000
0000
0000
0000
3001
0100
0010
0000
0000
0000
,
1000
0100
0010
0000
0000
0000
0001
0100
0010
0000
0000
0000
,
2222
0000
0000
3333
,
2222
0000
0000
3333
0000
0000
1000
0001
0100
0000
0000
0000
,
0120
1030
0100
0010
0001
1000
0010
0100
,
0001
0010
0100
1000
0010
0100
0001
1000
,
0010
1000
0010
0100
0001
0010
0100
1000
,
0001
0000
0000
0010
0000
0000
0100
0000
0000
1000
0000
0000
0010
0000
0100
0000
0001
0000
1000
0000
0000
0010
0000
0000
,
0100
0001
1000
0010
1000
0010
0100
0001
,
0010
0100
1000
0010
0100
0001
1000
0010
,
0100
0001
0100
0002
0000
0000
0103
0001
0100
0002
0000
0000
,
0103
0010
0100
0020
0000
0000
0130
0010
0100
0020
0000
0000
,
1030
0100
0010
0001
1000
0010
0100
0001
,
1000
0010
0100
0001
0010
0100
1000
0100
,
1000
0010
0100
0001
1000
0010
1000
0010
,
0100
0000
0000
0001
0000
0000
0010
0000
0000
0100
0000
0000
1000
0000
0001
0000
0010
0000
0001
0000
0010
0000
0001
0000
,
1000
0001
1000
0001
1000
0010
0100
0001
,
0010
0100
1000
0001
0010
0100
1000
0010
,
0100
0001
0100
0001
0100
0001
0100
0001
0100
0001
0100
0001
,
1000
0001
1000
0001
1000
0001
2000
0000
0000
0000
0000
0000
,
3001
1000
0001
1000
0010
0100
0001
0010
,
0100
1000
0010
1000
0010
0100
0001
1000
,
0010
1000
0010
0100
0001
0010
0100
1000
,
0001
0000
0000
0010
0000
0000
0100
0000
0000
1000
0000
0000
0010
0000
0100
0000
0010
0000
0100
0000
0010
0000
0100
0000
,
0010
0100
0001
1000
0010
0100
0001
0010
,
0001
0010
0001
0010
0100
1000
0010
0100
,
0001
1000
0001
1000
0001
1000
0001
1000
0001
1000
0010
1000
,
0010
1000
0010
1000
0010
0100
0010
0100
0010
0100
0010
0100
,
0010
0100
0001
1000
0010
1000
0010
0100
,
0001
0010
0001
0010
0001
0010
0100
1000
,
0010
0100
0001
1000
0010
1000
0010
0100
,
0001
0000
0000
0010
0000
0000
0100
0000
0000
1000
0000
0000
0001
0000
0010
0000
0100
0000
4000
0000
0000
0000
0000
0000
,
3002
2003
3020
0230
0302
0023
0230
2300
,
3020
0230
0302
2003
3020
0230
0302
0023
,
0230
2300
3020
0230
0302
2003
3002
2003
,
3020
0230
0302
0023
0230
0000
0000
0300
,
1200
0000
0000
0000
0000
2300
0000
0000
,
0000
0000
0000
0000
,
3000
0000
0000
0000
,
0000
0000
0000
0000
,
0000
0000
0000
0000
,
0000
0000
0000
0000
,
0000
0000
0000
0000
,
0000
0000
0000
0000
,
0000
0000
0000
0000
,
0000
0000
0000
0000
;

//---------------dance-single - ----------------
#NOTES:
     dance-single:
     :
     Hard:
     30:
     1.000,1.000,1.000,1.000,1.000,2194.000,669.000,217.000,27.000,131.000:
1101
1001
0110
0000
0111
0000
0010
0100
,
1011
1011
1101
1101
,
1010
1010
1010
0000
1101
0000
0101
0010
,
0101
0000
1010
0100
1010
0000
1100
0000
,
0011
0011
0011
0000
1101
0000
0010
0100
,
1011
1011
1101
1101
,
1001
0100
0011
0011
1100
0001
1010
1010
,
0101
0010
1100
1100
0011
0100
1001
1001
,
1011
0110
1101
0000
1111
0000
1010
0100
,
1011
1011
1101
1101
,
1010
1010
1010
0000
1011
0000
0101
0010
,
0101
0000
1010
0100
1010
0000
1100
0000
,
1011
1001
0110
0000
1101
0000
0010
0100
,
1011
0110
1101
1011
,
1101
0010
1100
0000
1011
0100
1001
0000
,
1101
0000
0010
0000
1001
0000
0010
0000
1000
0100
0010
0001
1000
0100
0010
0001
,
2200
0000
0000
0000
0000
0000
00MM
0000
0000
3322
0000
0000
0000
MM00
0000
0000
,
2233
0000
0000
0000
0000
00MM
0000
0000
0011
0000
0011
0000
3311
0000
0000
0000
,
1101
0010
1001
0100
0011
1100
0011
0100
,
1011
0000
0000
0000
0000
0000
0000
0000
0100
0000
0000
0000
0000
0000
0000
0000
1001
0000
0000
0000
0000
0000
0000
0000
0010
0000
0000
0000
0000
0000
0000
0000
2200
3300
0000
0000
0000
0000
0000
0000
2200
3300
0000
0000
0000
0000
0000
0000
2200
3300
0000
0000
0000
0000
0000
0000
2200
3300
0000
0000
0000
0000
0000
0000
,
1011
0100
1001
0010
1100
0011
1100
0010
,
1101
0000
0010
0000
1001
0000
0100
0000
0011
0100
1001
0010
1100
0000
0011
0000
,
1101
0010
1001
0100
0011
1100
0011
0100
,
1011
0000
1001
0000
0110
0000
0110
0000
1001
0010
1100
0000
1001
0100
0011
0000
,
1100
0000
1100
0000
0011
0000
0011
0000
1001
0010
1100
0000
0011
0100
1001
0010
,
1100
1100
0011
0011
1101
0000
1011
0000
,
1101
0000
0010
0000
1001
0100
0010
0001
0010
0100
1000
0100
0010
0001
0010
0100
,
1001
0000
1001
0000
0110
0000
1100
0000
0011
1100
0011
0000
1100
0000
1100
0000
,
1011
0000
0100
0000
1001
0010
0100
1000
0100
0010
0001
0010
0100
1000
0100
0010
,
1001
0000
0000
0000
1100
0000
0000
0000
0011
0000
1100
0000
0011
0000
0000
0000
1000
0100
0010
0001
1000
0100
0010
0001
1000
0100
0010
0001
1000
0100
0010
0001
,
1100
0000
0010
0000
0101
1000
0011
0100
1010
0001
1100
0010
0101
1000
0011
0100
,
1001
0000
0000
0000
0010
0000
0000
0000
1101
0000
0000
0000
0010
0000
0000
0000
1000
0100
0010
0001
1000
0000
0100
0000
0011
0000
0000
0000
0100
0000
0010
0000
,
1001
0010
1101
1011
0110
0110
1001
0110
,
1001
0010
0100
0000
1001
0100
0010
0000
2202
0000
0000
0000
3303
0000
0000
0000
,
1011
0100
1001
0010
1100
0011
1100
0010
,
1101
0000
0000
0000
0000
0000
0000
0000
0010
0000
0000
0000
0000
0000
0000
0000
1001
0000
0000
0000
0000
0000
0000
0000
0100
0000
0000
0000
0000
0000
0000
0000
0022
0033
0000
0000
0000
0000
0000
0000
0022
0033
0000
0000
0000
0000
0000
0000
0022
0033
0000
0000
0000
0000
0000
0000
0022
0033
0000
0000
0000
0000
0000
0000
,
1101
0010
1001
0100
0011
1100
0011
0100
,
1011
0000
0100
0000
1001
0000
0010
0000
1100
0010
1001
0100
0011
0000
1100
0000
,
1011
0100
1001
0010
1100
0011
1100
0010
,
1101
0000
1001
0000
0110
0000
0110
0000
1001
0100
0011
0000
1001
0010
1100
0000
,
0011
0000
0011
0000
1100
0000
1100
0000
1001
0100
0011
0000
1100
0010
1001
0100
,
0011
0011
1100
1100
1011
0000
1101
0000
,
1011
0000
0100
0000
1001
0010
0100
1000
0100
0010
0001
0010
0100
1000
0100
0010
,
1001
0000
1001
0000
0110
0000
0011
0000
1100
0011
1100
0000
0011
0000
0011
0000
,
1101
0000
0010
0000
1001
0100
0010
0001
0010
0100
1000
0100
0010
0001
0010
0100
,
1001
0000
0000
0000
0011
0000
0000
0000
1100
0000
0011
0000
1100
0000
0000
0000
0001
0010
0100
1000
0001
0010
0100
1000
0001
0010
0100
1000
0001
0010
0100
1000
,
0001
0010
0100
1000
0001
0000
0010
0000
0000
0100
0000
0000
0001
0010
0100
1000
0001
0000
0010
0000
0000
0100
0000
0000
1001
0000
0000
0000
0000
0000
0110
0000
0000
0000
0000
0000
1000
0100
0010
0001
1000
0000
0100
0000
0000
0010
0000
0000
,
1000
0000
0100
0000
0010
0000
0001
0000
1000
0000
0000
0000
0100
0000
0000
0000
0000
0000
0010
0000
0000
0000
0000
0000
1001
0000
0000
0000
0000
0000
0000
0000
0000
0000
0000
0000
0110
0000
0000
0000
0000
0000
0000
0000
0000
0000
0000
0000
0001
0000
0010
0000
0100
0000
1000
0000
0000
0001
0000
0000
0100
0000
0000
0000
0000
0000
0010
0000
0000
0000
0000
0000
1000
0000
0100
0000
0010
0000
0001
0000
1000
0000
0000
0000
0100
0000
0000
0000
0000
0000
0010
0000
0000
0000
0000
0000
,
1001
0000
0110
0000
1001
0110
1001
0000
0110
0000
1001
0000
0110
1001
0110
0000
,
1001
0110
1001
0000
0110
0000
1001
0000
1111
0000
0000
0000
MMM0
0000
0000
0000
,
2220
0030
0301
3010
0100
1000
0100
0010
,
1001
0010
0100
1000
0011
0100
0001
0010
,
1100
0001
0010
0100
0011
1000
0100
0010
,
1001
0010
0100
1000
0011
0100
0001
0010
,
1100
0001
0010
0100
0011
1000
0100
0010
,
1001
0010
0100
1000
0011
0100
0001
0010
,
1100
0001
0010
0100
0011
1000
0100
0010
,
1001
0010
0100
1000
0011
0100
0001
0010
,
1100
0001
0010
0100
0011
1000
0011
1000
,
0011
0100
1000
0010
1100
0001
1100
0001
,
1100
0001
0010
0100
1001
0010
1001
0010
,
1001
0100
0010
1000
0101
0010
0101
0010
,
0101
1000
0100
0010
1001
0100
1001
0100
,
1001
0010
0100
0001
1010
0100
1010
0100
,
1010
0001
1000
0100
0011
0100
0011
0100
,
0011
1000
0100
0010
1001
0100
1001
0010
,
1000
0100
0010
0001
1000
0010
0100
0001
0010
0100
1000
0001
0100
0010
1000
0100
,
0010
0001
1000
0010
0100
0001
0010
0100
1000
0001
0100
0010
1000
0100
0010
0001
,
1000
0010
0100
0001
0010
0100
1000
0001
0100
0010
1000
0100
0010
0001
1000
0010
,
0100
0001
0010
0100
1000
0001
0100
0010
1000
0100
0010
0001
1000
0010
0100
0001
,
0010
0100
1000
0001
0100
0010
1000
0100
0010
0001
1000
0010
0100
0001
0010
0100
,
1000
0001
0100
0010
1000
0100
0010
0001
1000
0010
0100
0001
0010
0100
1000
0001
,
0100
0010
1000
0100
0010
0001
1000
0010
0100
0001
0010
0100
1000
0001
0100
0010
,
1000
0100
0010
0001
1000
0010
0100
0001
0010
0100
1000
0001
0010
1000
0100
0010
,
1001
0010
0100
1000
0001
1000
0100
0010
0001
1000
0001
0010
0100
1000
0001
1000
,
0100
0010
0001
1000
0001
0010
0100
1000
0100
0010
0001
0010
0100
1000
0100
0010
,
1001
0010
0100
1000
0001
1000
0100
0010
0001
1000
0001
0010
0100
1000
0001
1000
,
0100
0010
0001
1000
0001
0010
0100
1000
0100
0010
0001
0010
0100
1000
0100
0010
,
1001
0010
0100
1000
0001
1000
0001
1000
0100
0010
0001
0010
0100
1000
0100
0010
,
0001
1000
0001
1000
0001
0010
0100
1000
0100
0010
0001
0010
0100
1000
0100
0010
,
1001
0010
0100
1000
0001
0010
0001
1000
0100
0010
0001
0010
0100
1000
0100
0010
,
0001
1000
0100
1000
0001
0010
0100
1000
0100
0010
0001
0010
0100
1000
0100
0010
,
2002
0MM0
3223
M00M
,
2332
0000
0MM0
0000
3113
1001
0110
0000
,
1000
0000
0100
0000
0010
0000
0001
0000
1000
0000
0100
0000
0010
0000
1000
0000
0001
0010
0100
1000
0001
0010
0100
1000
0001
0000
0010
0000
0100
0000
1000
0000
,
0001
0000
0010
0000
0100
0000
1000
0000
0001
0000
0000
0000
0010
0000
0000
0000
1000
0000
0100
0000
0010
0000
0001
0000
1000
0000
0000
0000
0100
0000
0000
0000
0011
0000
0000
0000
1100
0000
0000
0000
0011
0000
0000
0000
1100
0000
0000
0000
0002
0003
0020
0030
0200
0300
2000
3000
0002
0003
0020
0030
0200
0300
2000
3000
,
0002
0003
0000
0000
0010
0000
0000
0000
0100
0000
0000
0000
1000
0000
0000
0000
0001
0000
0010
0000
0100
0000
1000
0000
0001
0000
0000
0000
0010
0000
0000
0000
1000
0000
0100
0000
0010
0000
0001
0000
1000
0000
0000
0000
0100
0000
0000
0000
0001
0000
0000
0000
0010
0000
0000
0000
0100
0000
0000
0000
0000
0000
0000
0000
,
1000
0000
0100
0000
0010
0000
0001
0000
1000
0000
0000
0000
0100
0000
0000
0000
0001
0000
0010
0000
0100
0000
1000
0000
0001
0000
0000
0000
0010
0000
0000
0000
1100
0000
0000
0000
0011
0000
0000
0000
1100
0000
0000
0000
0011
0000
0000
0000
2000
3000
0200
0300
0020
0030
0002
0003
2000
3000
0200
0300
0020
0030
0002
0003
,
1000
0000
0000
0000
0100
0000
0000
0000
0010
0000
0000
0000
0001
0000
0000
0000
1000
0000
0100
0000
0010
0000
0001
0000
1000
0000
0000
0000
0100
0000
0000
0000
0001
0000
0010
0000
0100
0000
1000
0000
0001
0000
0000
0000
0010
0000
0000
0000
2000
3000
0200
0300
0020
0030
0002
0003
2000
3000
0000
0000
0100
0000
0000
0000
,
0002
0000
0000
0003
0000
0000
0020
0000
0000
0030
0000
0000
0200
0000
0000
0300
0000
0000
2000
0000
0000
3000
0000
0000
0002
0000
0000
0003
0000
0000
0000
0000
0000
0000
0000
0000
0010
0000
0000
0000
0000
0000
0000
0000
0000
0000
0000
0000
0100
0000
0000
0000
0000
0000
0000
0000
0000
0000
0000
0000
1000
0000
0000
0000
0000
0000
0000
0000
0000
0000
0000
0000
0100
0000
0000
0000
0000
0000
0000
0000
0000
0000
0000
0000
0010
0000
0000
0000
0000
0000
0000
0000
0000
0000
0000
0000
1001
0000
0000
0000
0000
0000
0000
0000
0000
0000
0000
0000
0000
0000
0000
0000
0110
0000
0000
0000
0000
0000
0000
0000
0000
0000
0000
0000
0000
0000
0000
0000
1001
0000
0000
0000
0000
0000
0000
0000
0000
0000
0000
0000
0000
0000
0000
0000
0110
0000
0000
0000
0000
0000
0000
0000
0000
0000
0000
0000
0000
0000
0000
0000
1001
0000
0000
0000
0000
0000
0000
0000
0000
0000
0000
0000
0000
0000
0000
0000
0110
0000
0000
0000
0000
0000
0000
0000
0000
0000
0000
0000
0000
0000
0000
0000
,
2002
3003
0000
0000
0110
0000
0000
0000
1001
0000
0000
0000
0000
0000
0000
0000
0110
0000
0000
0000
1001
0000
0000
0000
0110
0000
0000
0000
0000
0000
0000
0000
2002
3003
0000
0000
0110
0000
0000
0000
1001
0000
0000
0000
0000
0000
0000
0000
0110
0000
0000
0000
1001
0000
0000
0000
0110
0000
0000
0000
0000
0000
0000
0000
,
2002
0000
3223
0000
2332
0000
3023
0000
2230
3300
0000
0000
2200
3300
0000
0000
,
1001
0000
0000
0000
0100
0000
0010
0000
0000
0000
0000
0000
1001
0000
0000
0000
0100
0000
0010
0000
0000
0000
0000
0000
1000
0000
0000
0100
0000
0000
0001
0000
0000
0010
0000
0000
1000
0000
0000
0100
0000
0000
0001
0000
0000
0010
0000
0000
,
2200
0000
0000
3300
0022
0000
0000
0033
2200
0000
0000
3300
0022
0000
0000
0033
,
1000
0000
0000
0100
0000
0000
0010
0000
0000
0001
0000
0000
1000
0000
0010
0000
0000
0000
0100
0000
0000
0000
0000
0000
0001
0000
0000
0010
0000
0000
0100
0000
0000
0000
0001
0000
1000
0000
0000
0100
0000
0000
0010
0000
0000
0001
0000
0000
,
1100
0000
0000
0000
0011
0000
1100
0000
0000
0000
0000
0000
1001
0000
0000
0010
0000
0000
0100
0000
0000
0000
0001
0000
1010
0000
0000
0000
0000
0000
0100
0000
0000
0010
0000
0000
1001
0000
0000
0000
0000
0000
0000
0000
0000
0000
0000
0000
,
0110
0000
0000
0000
0000
0000
0000
0000
0000
0000
0000
0000
0001
0000
0000
0010
0000
0000
0100
0000
0000
1000
0000
0000
0001
0000
0000
0000
0000
0000
0000
0000
0000
0000
0000
0000
1000
0000
0000
0100
0000
0000
0010
0000
0000
0001
0000
0000
1000
0000
0000
0000
0100
0000
0000
0000
0001
0000
0000
0000
0010
0000
0000
0000
1000
0000
0000
0000
0100
0000
0000
0000
0001
0000
0000
0000
0000
0000
1000
0000
0000
0000
0000
0000
0100
0000
0000
0000
0000
0000
0010
0000
0000
0000
0000
0000
,
1001
0000
0000
0000
0000
0000
0000
0000
0100
0000
0010
0000
1100
0000
0000
0000
0001
0010
1000
0000
0100
0000
0010
0000
1001
0000
0000
0000
0010
0000
0000
0000
,
2200
0000
0000
0000
3300
0000
0000
0000
0001
0000
0000
0000
0000
0000
0000
0000
1000
0000
0000
0000
0100
0000
0000
0000
0022
0000
0000
0000
0033
0000
0000
0000
2000
3000
0200
0300
0020
0030
0002
0003
2000
3000
0000
0000
0010
0000
0000
0000
2200
0000
0000
0000
3300
0000
0000
0000
0002
0003
0020
0030
0200
0300
2000
3000
,
0002
0003
0000
0000
0100
0000
0000
0000
0022
0000
0000
0000
0033
0000
0000
0000
1100
0000
0000
0000
0001
0000
0000
0000
0010
0000
0000
0000
0100
0000
0000
0000
2002
0000
0000
0000
0000
0000
0000
0000
0000
0000
0000
0000
0000
0000
0000
0000
3MM3
0000
0000
0000
0000
0000
0000
0000
0000
0000
0000
0000
0000
0000
0000
0000
,
0001
0000
0010
0000
0100
0000
1000
0000
0001
0000
0010
0000
0100
0000
0001
0000
1000
0100
0010
0001
1000
0100
0010
0001
1000
0000
0100
0000
0010
0000
0001
0000
,
1000
0000
0100
0000
0010
0000
0001
0000
1000
0000
0000
0000
0100
0000
0000
0000
0001
0000
0010
0000
0100
0000
1000
0000
0001
0000
0000
0000
0010
0000
0000
0000
1100
0000
0000
0000
0011
0000
0000
0000
1100
0000
0000
0000
0011
0000
0000
0000
2000
3000
0200
0300
0020
0030
0002
0003
2000
3000
0200
0300
0020
0030
0002
0003
,
2000
3000
0000
0000
0100
0000
0000
0000
0010
0000
0000
0000
0001
0000
0000
0000
1000
0000
0100
0000
0010
0000
0001
0000
1000
0000
0000
0000
0100
0000
0000
0000
0001
0000
0010
0000
0100
0000
1000
0000
0001
0000
0000
0000
0010
0000
0000
0000
1000
0000
0000
0000
0100
0000
0000
0000
0010
0000
0000
0000
0000
0000
0000
0000
,
0001
0000
0010
0000
0100
0000
1000
0000
0001
0000
0000
0000
0010
0000
0000
0000
1000
0000
0100
0000
0010
0000
0001
0000
1000
0000
0000
0000
0100
0000
0000
0000
0011
0000
0000
0000
1100
0000
0000
0000
0011
0000
0000
0000
1100
0000
0000
0000
0002
0003
0020
0030
0200
0300
2000
3000
0002
0003
0020
0030
0200
0300
2000
3000
,
0001
0000
0000
0000
0010
0000
0000
0000
0100
0000
0000
0000
1000
0000
0000
0000
0001
0000
0010
0000
0100
0000
1000
0000
0001
0000
0000
0000
0010
0000
0000
0000
1000
0000
0100
0000
0010
0000
0001
0000
1000
0000
0000
0000
0100
0000
0000
0000
0002
0003
0020
0030
0200
0300
2000
3000
0002
0003
0000
0000
0010
0000
0000
0000
,
2000
0000
0000
3000
0000
0000
0200
0000
0000
0300
0000
0000
0020
0000
0000
0030
0000
0000
0002
0000
0000
0003
0000
0000
2000
0000
0000
3000
0000
0000
0000
0000
0000
0000
0000
0000
0100
0000
0000
0000
0000
0000
0000
0000
0000
0000
0000
0000
0010
0000
0000
0000
0000
0000
0000
0000
0000
0000
0000
0000
0001
0000
0000
0000
0000
0000
0000
0000
0000
0000
0000
0000
0010
0000
0000
0000
0000
0000
0000
0000
0000
0000
0000
0000
0100
0000
0000
0000
0000
0000
0000
0000
0000
0000
0000
0000
1001
0000
0000
0000
0000
0000
0000
0000
0000
0000
0000
0000
0000
0000
0000
0000
0110
0000
0000
0000
0000
0000
0000
0000
0000
0000
0000
0000
0000
0000
0000
0000
1001
0000
0000
0000
0000
0000
0000
0000
0000
0000
0000
0000
0000
0000
0000
0000
0110
0000
0000
0000
0000
0000
0000
0000
0000
0000
0000
0000
0000
0000
0000
0000
1001
0000
0000
0000
0000
0000
0000
0000
0000
0000
0000
0000
0000
0000
0000
0000
0110
0000
0000
0000
0000
0000
0000
0000
0000
0000
0000
0000
0000
0000
0000
0000
,
2002
3003
0000
0000
0110
0000
0000
0000
1001
0000
0000
0000
0000
0000
0000
0000
0110
0000
0000
0000
1001
0000
0000
0000
0110
0000
0000
0000
0000
0000
0000
0000
2002
3003
0000
0000
0110
0000
0000
0000
1001
0000
0000
0000
0000
0000
0000
0000
0110
0000
0000
0000
1001
0000
0000
0000
0110
0000
0000
0000
0000
0000
0000
0000
,
2002
0000
3223
0000
2332
0000
3203
0000
0322
0033
0000
0000
0022
0033
0000
0000
,
1001
0000
0000
0000
0010
0000
0100
0000
0000
0000
0000
0000
1001
0000
0000
0000
0010
0000
0100
0000
0000
0000
0000
0000
0001
0000
0000
0010
0000
0000
1000
0000
0000
0100
0000
0000
0001
0000
0000
0010
0000
0000
1000
0000
0000
0100
0000
0000
,
0022
0000
0000
0033
2200
0000
0000
3300
0022
0000
0000
0033
2200
0000
0000
3300
,
0001
0000
0000
0010
0000
0000
0100
0000
0000
1000
0000
0000
0001
0000
0100
0000
0000
0000
0010
0000
0000
0000
0000
0000
1000
0000
0000
0100
0000
0000
0010
0000
0000
0000
1000
0000
0001
0000
0000
0010
0000
0000
0100
0000
0000
1000
0000
0000
,
0011
0000
0000
0000
1100
0000
0011
0000
0000
0000
0000
0000
1001
0000
0000
0100
0000
0000
0010
0000
0000
0000
1000
0000
0101
0000
0000
0000
0000
0000
0010
0000
0000
0100
0000
0000
1001
0000
0000
0000
0000
0000
0000
0000
0000
0000
0000
0000
,
0110
0000
0000
0000
0000
0000
0000
0000
0000
0000
0000
0000
1000
0000
0000
0100
0000
0000
0010
0000
0000
0001
0000
0000
1000
0000
0000
0000
0000
0000
0000
0000
0000
0000
0000
0000
0001
0000
0000
0010
0000
0000
0100
0000
0000
1000
0000
0000
0001
0000
0000
0000
0010
0000
0000
0000
1000
0000
0000
0000
0100
0000
0000
0000
0001
0000
0000
0000
0010
0000
0000
0000
1000
0000
0000
0000
0000
0000
0001
0000
0000
0000
0000
0000
0010
0000
0000
0000
0000
0000
0100
0000
0000
0000
0000
0000
,
1001
0000
0000
0000
0000
0000
0000
0000
0010
0000
0100
0000
0011
0000
0000
0000
1000
0100
0001
0000
0010
0000
0100
0000
1001
0000
0000
0000
0100
0000
0000
0000
,
0022
0000
0000
0000
0033
0000
0000
0000
1000
0000
0000
0000
0000
0000
0000
0000
0001
0000
0000
0000
0010
0000
0000
0000
2200
0000
0000
0000
3300
0000
0000
0000
0002
0003
0020
0030
0200
0300
2000
3000
0002
0003
0000
0000
0100
0000
0000
0000
0022
0000
0000
0000
0033
0000
0000
0000
2000
3000
0200
0300
0020
0030
0002
0003
,
2000
3000
0000
0000
0010
0000
0000
0000
2200
0000
0000
0000
3300
0000
0000
0000
0011
0000
0000
0000
1000
0000
0000
0000
0100
0000
0000
0000
0010
0000
0000
0000
2002
0000
0000
0000
0000
0000
0000
0000
0000
0000
0000
0000
0000
0000
0000
0000
3MM3
0000
0000
0000
0000
0000
0000
0000
0000
0000
0000
0000
0000
0000
0000
0000
,
2220
0030
0301
3010
0100
1000
0100
0010
,
1001
0010
0100
1000
0011
0100
0001
0010
,
1100
0001
0010
0100
0011
1000
0100
0010
,
1001
0010
0100
1000
0011
0100
0001
0010
,
1100
0001
0010
0100
0011
1000
0100
0010
,
1001
0010
0100
1000
0011
0100
0001
0010
,
1100
0001
0010
0100
0011
1000
0100
0010
,
1001
0010
0100
1000
0011
0100
0001
0010
,
1100
0001
0010
0100
0011
1000
0011
1000
,
0011
0100
1000
0010
1100
0001
1100
0001
,
1100
0001
0010
0100
1001
0010
1001
0010
,
1001
0100
0010
1000
0101
0010
0101
0010
,
0101
1000
0100
0010
1001
0100
1001
0100
,
1001
0010
0100
0001
1010
0100
1010
0100
,
1010
0001
1000
0100
0011
0100
0011
0100
,
0011
1000
0100
0010
1001
0100
1001
0010
,
1000
0100
0010
0001
1000
0010
0100
0001
0010
0100
1000
0001
0100
0010
1000
0100
,
0010
0001
1000
0010
0100
0001
0010
0100
1000
0001
0100
0010
1000
0100
0010
0001
,
1000
0010
0100
0001
0010
0100
1000
0001
0100
0010
1000
0100
0010
0001
1000
0010
,
0100
0001
0010
0100
1000
0001
0100
0010
1000
0100
0010
0001
1000
0010
0100
0001
,
0010
0100
1000
0001
0100
0010
1000
0100
0010
0001
1000
0010
0100
0001
0010
0100
,
1000
0001
0100
0010
1000
0100
0010
0001
1000
0010
0100
0001
0010
0100
1000
0001
,
0100
0010
1000
0100
0010
0001
1000
0010
0100
0001
0010
0100
1000
0001
0100
0010
,
1000
0100
0010
0001
1000
0010
0100
0001
0010
0100
1000
0001
0010
1000
0100
0010
,
1001
0010
0100
1000
0001
1000
0100
0010
0001
1000
0001
0010
0100
1000
0001
1000
,
0100
0010
0001
1000
0001
0010
0100
1000
0100
0010
0001
0010
0100
1000
0100
0010
,
1001
0010
0100
1000
0001
1000
0100
0010
0001
1000
0001
0010
0100
1000
0001
1000
,
0100
0010
0001
1000
0001
0010
0100
1000
0100
0010
0001
0010
0100
1000
0100
0010
,
1001
0010
0100
1000
0001
1000
0001
1000
0100
0010
0001
0010
0100
1000
0100
0010
,
0001
1000
0001
1000
0001
0010
0100
1000
0100
0010
0001
0010
0100
1000
0100
0010
,
1001
0010
0100
1000
0001
0010
0001
1000
0100
0010
0001
0010
0100
1000
0100
0010
,
0001
1000
0100
1000
0001
0010
0100
1000
0100
0010
0001
0010
0100
1000
0100
0010
,
1001
0110
1001
0000
1101
0000
0010
0100
,
1011
1011
1101
1101
,
1010
1010
1010
0000
1101
0000
0101
0010
,
0101
0000
1010
0100
1010
0000
1100
0000
,
0011
0011
0011
0000
1101
0000
0010
0100
,
1011
1011
1101
1101
,
1001
0100
0011
0011
1100
0001
1010
1010
,
0101
0010
1100
1100
0011
0100
1001
1001
,
1011
0110
1101
0000
1111
0000
1010
0100
,
1011
1011
1101
1101
,
1010
1010
1010
0000
1011
0000
0101
0010
,
0101
0000
1010
0100
1010
0000
1100
0000
,
1011
1001
0110
0000
1101
0000
0010
0100
,
1011
0110
1101
1011
,
1101
0010
1100
0000
1011
0100
1001
0000
,
1101
0000
0010
0000
1001
0000
0010
0000
1000
0100
0010
0001
1000
0100
0010
0001
,
2200
0000
0000
0000
0000
0000
00MM
0000
0000
3322
0000
0000
0000
MM00
0000
0000
,
2233
0000
0000
0000
0000
00MM
0000
0000
0011
0000
0011
0000
3311
0000
0000
0000
,
1101
0010
1001
0100
1011
0100
0011
0011
,
1100
0001
0010
0000
1100
0001
0010
0000
1100
0001
0010
0100
1001
0100
0010
0000
,
1101
0010
1001
0100
0011
1000
0011
0110
,
1100
0001
0010
0000
1100
0000
0110
0000
0011
1000
0100
0010
1001
0000
0000
0000
,
1101
0010
1001
0100
0011
0011
1100
0110
,
0011
1000
0100
0000
0011
1000
0100
0000
1001
0010
0100
0000
1011
0000
0100
0000
,
1001
0100
0010
0000
1101
0000
0010
0100
1000
0010
0100
0000
1001
0000
0110
0000
,
1001
0100
0010
0000
1001
0000
0100
0000
2022
3033
0000
0000
2022
3033
0000
0000
,
1001
0110
1001
0100
1011
0100
0011
1100
,
0011
0100
0001
0000
1010
0000
1010
0000
0101
0010
0001
0000
1100
0010
0100
0000
,
1011
1001
0110
1100
0011
1000
0011
0110
,
2200
0000
3300
0000
0022
0000
0033
0000
2200
0000
3300
0000
0022
0000
0033
0000
1000
0100
0010
0001
1000
0100
0010
0001
1000
0100
0010
0001
1000
0100
0010
0001
,
1100
0011
1100
0001
1110
0001
1010
1010
,
1101
0000
0010
0000
1101
0000
0010
0000
1001
0100
0010
0100
1001
0000
0100
0010
,
1001
0000
0100
0000
1011
0000
0100
0000
1001
0010
0100
0000
1001
0100
0010
0000
,
1001
0110
1001
0110
2002
0000
3MM3
0000
,
1011
0100
1001
0010
1101
0010
1100
1100
,
1100
0001
0010
0000
1001
0010
0100
0000
0011
1000
0100
0010
1001
0010
0100
0000
,
1011
0010
1101
0010
1100
0001
0110
0110
,
0110
0000
1000
0000
0011
0000
0011
0000
0011
1000
0100
0010
1001
0000
0110
0000
,
1101
0010
1001
0010
1100
1100
0011
0110
,
1100
0001
0010
0000
1100
0001
0010
0000
1001
0100
0010
0000
1101
0000
0010
0000
,
1001
0010
0100
0000
1011
0000
0100
0010
0001
0100
0010
0000
1001
0000
0110
0000
,
1001
0010
0100
0000
1001
0000
0010
0000
2202
3303
0000
0000
2202
3303
0000
0000
,
1001
0110
1001
0010
1101
0010
1001
1001
,
1001
0100
0010
0000
1100
0000
1100
0000
0011
0100
1000
0010
1100
0001
0010
0000
,
1101
1001
0110
1000
0011
0011
1100
1100
,
0022
0000
0033
0000
2200
0000
3300
0000
0022
0000
0033
0000
2200
0000
3300
0000
0001
0010
0100
1000
0001
0010
0100
1000
0001
0010
0100
1000
0001
0010
0100
1000
,
0001
0010
0100
1000
0001
0000
0010
0000
0000
0100
0000
0000
0001
0010
0100
1000
0001
0000
0010
0000
0000
0100
0000
0000
1001
0000
0000
0000
0000
0000
0110
0000
0000
0000
0000
0000
1000
0100
0010
0001
1000
0000
0100
0000
0000
0010
0000
0000
,
1000
0000
0100
0000
0010
0000
0001
0000
1000
0000
0000
0000
0100
0000
0000
0000
0000
0000
0010
0000
0000
0000
0000
0000
1001
0000
0000
0000
0000
0000
0000
0000
0000
0000
0000
0000
0110
0000
0000
0000
0000
0000
0000
0000
0000
0000
0000
0000
0001
0000
0010
0000
0100
0000
1000
0000
0000
0001
0000
0000
0100
0000
0000
0000
0000
0000
0010
0000
0000
0000
0000
0000
1000
0000
0100
0000
0010
0000
0001
0000
1000
0000
0000
0000
0100
0000
0000
0000
0000
0000
0010
0000
0000
0000
0000
0000
,
0100
0000
0000
1000
0000
0000
0001
0000
0010
0000
0100
0000
1000
0000
0001
0000
0000
0000
0010
0000
0000
0000
0000
0000
0100
0000
0000
0000
0000
0000
0001
0000
0010
0000
0100
0000
1000
0000
0001
0000
0000
0000
0010
0000
0000
0000
0000
0000
0100
0000
0000
0000
0000
0000
1001
0000
0000
0000
0000
0000
0000
0000
0000
0000
0000
0000
0110
0000
0000
0000
0000
0000
0000
0000
0000
0000
0000
0000
1000
0000
0100
0000
0010
0000
0001
0000
1000
0000
0000
0000
0100
0000
0000
0000
0000
0000
,
0010
0000
0000
0000
0000
0000
1000
0000
0100
0000
0010
0000
0001
0000
1000
0000
0000
0000
0100
0000
0000
0000
0000
0000
0010
0000
0000
0000
0000
0000
1001
0000
0000
0000
0000
0000
0000
0000
0000
0000
0000
0000
0110
0000
0000
0000
0000
0000
0000
0000
0000
0000
0000
0000
0001
0000
0010
0000
0100
0000
1000
0000
0000
0001
0000
0000
0100
0000
0000
0000
0000
0000
0010
0000
0000
0000
0000
0000
1000
0000
0100
0000
0010
0000
0001
0000
1000
0000
0000
0000
0100
0000
0000
0000
0000
0000
,
0002
0000
0000
0000
0000
2220
0000
0000
,
0000
0000
0000
0000
,
3333
0000
0000
0000
,
0000
0000
0000
0000
,
0000
0000
0000
0000
,
0000
0000
0000
0000
,
0000
0000
0000
0000
,
0000
0000
0000
0000
,
0000
0000
0000
0000
,
0000
0000
0000
0000
;

//---------------dance-single - ----------------
#NOTES:
     dance-single:
     :
     Challenge:
     45:
     1.000,1.000,1.000,1.000,1.000,2845.000,552.000,201.000,24.000,64.000:
1000
0100
0010
0000
1001
0000
1000
0010
,
0100
1001
0010
1100
,
0001
0010
0100
0000
1001
0000
0001
0100
,
0010
0000
1000
0001
0100
0000
0110
0000
,
1000
0010
0001
0000
0110
0000
1000
0001
,
0010
1100
0001
1001
,
0100
0001
1000
0100
0010
0001
1000
0001
,
0100
0010
1000
0100
1000
0001
0100
0001
,
1100
0010
0001
0000
1001
0000
0100
0010
,
1000
0011
1000
0101
,
1000
0010
0001
0000
1010
0000
0001
0100
,
1000
0000
0010
0100
0001
0000
1010
0000
,
0100
0010
1000
0000
0101
0000
1000
0010
,
1001
0100
1010
0001
,
1001
0100
0010
0001
1100
0010
1000
0010
,
0101
0010
1000
0001
0110
0001
0100
0001
,
1MM1
0000
0000
0000
0000
0000
0000
0000
0000
0000
0000
0000
0000
0000
0000
0000
M000
0M00
00M0
000M
00M0
0M00
M000
0M00
00M0
0000
0000
0000
0000
0000
0000
0000
,
0110
0000
0000
0000
1100
0001
0110
0000
,
1001
0100
1010
0001
0110
1000
1001
0001
,
0110
0010
1100
1000
0011
1001
0110
0011
,
1001
0100
0110
1000
0011
0001
1100
0010
,
1001
0000
0000
0000
1000
0000
0000
0000
0110
0000
0000
0000
0001
0000
0000
0000
1100
0001
1000
0001
1000
0001
1000
0001
1010
0000
0000
0000
0100
0000
0000
0000
,
1001
0010
0110
0001
1100
0010
0011
1000
,
0101
0000
0000
0000
0010
0000
0000
0000
1001
0000
0000
0000
0100
0000
0000
0000
0110
0001
1000
0000
0010
0000
0000
0000
1100
0001
0010
0000
1000
0000
0000
0000
,
0011
1000
0100
0000
0010
0000
0000
0000
1010
0001
0100
0000
1000
0000
0000
0000
1001
0010
0100
0000
0001
0000
0000
0000
0110
1000
0001
0000
0100
0000
0000
0000
,
1001
0010
0100
0000
0010
0000
0000
0000
1001
0001
1000
0000
0010
0000
0000
0000
1100
0000
0000
0000
0001
0000
0000
0000
0110
0000
0000
0000
1000
0000
0000
0000
,
0101
0010
1010
0100
1001
0010
0110
1000
,
0011
1000
0100
0000
0010
0000
0000
0000
1100
0000
0000
0000
0001
0000
0000
0000
1001
0100
0001
0000
0010
0000
0000
0000
1010
0100
1000
0000
0010
0000
0000
0000
,
1001
0010
1100
0001
0011
1000
0110
0010
,
1001
0000
0000
0000
0000
0000
0000
0000
0000
0000
0000
0000
0000
0000
0000
0000
0000
0000
0000
0000
0000
0000
0000
0000
1100
0000
0000
0000
0000
0000
0000
0000
0000
0000
0000
0000
0000
0000
0000
0000
0000
0000
0000
0000
0000
0000
0000
0000
0101
0000
0000
0000
0000
0000
0000
0000
0000
0000
0000
0000
0000
0000
0000
0000
0000
0000
0000
0000
0000
0000
0000
0000
0010
0000
0000
0000
0000
0000
0000
0000
0000
0000
0000
0000
0000
0000
0000
0000
0000
0000
0000
0000
0000
0000
0000
0000
1001
0000
0000
0000
0100
0000
0000
0000
0010
0000
0000
0000
0001
0000
0000
0000
1000
0000
0000
0000
0100
0000
0000
0000
0010
0000
0000
0000
0001
0000
0000
0000
1000
0000
0000
0000
0100
0000
0000
0000
0010
0000
0000
0000
0001
0000
0000
0000
1001
0000
0000
0100
0000
0000
0010
0000
0000
0001
0000
0000
1000
0000
0000
0100
0000
0000
0010
0000
0000
0001
0000
0000
1000
0000
0000
0100
0000
0000
0010
0000
0000
0001
0000
0000
1000
0000
0000
0100
0000
0000
0010
0000
0000
0001
0000
0000
,
1100
0010
1001
0100
0110
0001
1100
0001
,
0011
0000
0000
0000
1000
0000
0000
0000
0110
0000
0000
0000
0001
0000
0000
0000
1001
0010
1000
0001
0100
0000
0000
0000
1010
0001
1000
0010
0100
0000
0000
0000
,
1001
0010
0100
0001
1000
0000
0000
0000
0110
1000
0001
0100
0001
0000
0000
0000
0101
0010
1000
0100
0010
0000
0000
0000
1001
0010
1000
0001
0100
0000
0000
0000
,
0110
1000
0001
0010
0100
0000
0000
0000
1010
0001
0100
0010
1000
0000
0000
0000
0220
0000
0000
0000
0000
0000
0000
0000
0000
0000
0000
0000
0000
0000
0000
0000
,
1331
0100
1010
0001
0110
1000
1001
0001
,
0110
0010
1100
1000
0011
1001
0110
0011
,
1001
0100
0110
1000
0011
0001
1100
0010
,
1001
0000
0000
0000
0100
0000
0000
0000
0101
0000
0000
0000
1000
0000
0000
0000
0110
0001
0100
0001
0100
0001
0100
0001
1010
0000
0000
0000
0100
0000
0000
0000
,
1001
0010
0110
0001
1100
0010
0011
1000
,
0101
0000
0000
0000
0010
0000
0000
0000
1001
0000
0000
0000
0100
0000
0000
0000
0110
0001
1000
0000
0010
0000
0000
0000
1100
0001
0010
0000
1000
0000
0000
0000
,
0011
1000
0100
0000
0010
0000
0000
0000
1010
0001
0100
0000
1000
0000
0000
0000
1001
0010
0100
0000
0001
0000
0000
0000
0110
1000
0001
0000
0100
0000
0000
0000
,
1001
0010
0100
0000
0010
0000
0000
0000
1001
0001
1000
0000
0010
0000
0000
0000
1100
0000
0000
0000
0001
0000
0000
0000
0110
0000
0000
0000
1000
0000
0000
0000
,
0101
0010
1010
0100
1001
0010
0110
1000
,
0011
1000
0100
0000
0010
0000
0000
0000
1100
0000
0000
0000
0001
0000
0000
0000
1001
0100
0001
0000
0010
0000
0000
0000
1010
0100
1000
0000
0010
0000
0000
0000
,
1001
0010
1100
0001
0011
1000
0110
0010
,
1001
0000
0000
0000
0000
0000
0000
0000
0000
0000
0000
0000
0000
0000
0000
0000
0000
0000
0000
0000
0000
0000
0000
0000
1100
0000
0000
0000
0000
0000
0000
0000
0000
0000
0000
0000
0000
0000
0000
0000
0000
0000
0000
0000
0000
0000
0000
0000
0101
0000
0000
0000
0000
0000
0000
0000
0000
0000
0000
0000
0000
0000
0000
0000
0000
0000
0000
0000
0000
0000
0000
0000
0010
0000
0000
0000
0000
0000
0000
0000
0000
0000
0000
0000
0000
0000
0000
0000
0000
0000
0000
0000
0000
0000
0000
0000
1001
0000
0000
0000
0100
0000
0000
0000
0010
0000
0000
0000
0001
0000
0000
0000
1000
0000
0000
0000
0100
0000
0000
0000
0010
0000
0000
0000
0001
0000
0000
0000
1000
0000
0000
0000
0100
0000
0000
0000
0010
0000
0000
0000
0001
0000
0000
0000
1001
0000
0000
0100
0000
0000
0010
0000
0000
0001
0000
0000
1000
0000
0000
0100
0000
0000
0010
0000
0000
0001
0000
0000
1000
0000
0000
0100
0000
0000
0010
0000
0000
0001
0000
0000
1000
0000
0000
0100
0000
0000
0010
0000
0000
0001
0000
0000
,
0001
0010
0100
1000
0001
0000
0010
0000
0000
0100
0000
0000
0001
0010
0100
1000
0001
0000
0010
0000
0000
0100
0000
0000
1001
0000
0000
0000
0000
0000
0010
0000
0000
0000
0000
0000
1000
0100
0010
0001
1000
0000
0100
0000
0000
0010
0000
0000
,
1000
0000
0100
0000
0010
0000
0001
0000
1000
0000
0000
0000
0100
0000
0000
0000
0000
0000
0010
0000
0000
0000
0000
0000
1001
0000
0000
0000
0000
0000
0000
0000
0000
0000
0000
0000
0100
0000
0000
0000
0000
0000
0000
0000
0000
0000
0000
0000
0001
0000
0010
0000
0100
0000
1000
0000
0000
0001
0000
0000
0100
0000
0000
0000
0000
0000
0010
0000
0000
0000
0000
0000
1000
0000
0100
0000
0010
0000
0001
0000
1000
0000
0000
0000
0100
0000
0000
0000
0000
0000
0010
0000
0000
0000
0000
0000
,
1001
0000
0100
0000
1001
0100
1000
0000
0110
0000
0001
0000
0110
1000
0010
0000
,
1001
0010
1000
0000
0110
0000
1000
0000
0202
0000
0000
0000
0000
0000
0303
0000
,
1001
0100
0010
1000
0001
1000
0010
0100
,
0010
1000
0001
1000
0010
0100
0001
1000
,
0100
0010
0001
0010
0100
1000
0001
0100
,
0010
1000
0001
0100
1000
0001
0100
0010
,
0100
1000
0001
0100
0010
0100
0001
1000
,
0010
0100
1000
0001
0100
0010
1000
0010
,
0100
0001
1000
0100
0010
0001
0100
0001
,
1000
0010
1000
0001
0010
0100
1000
0010
,
0100
0001
0010
0001
1000
0010
0100
0001
,
1000
0010
0100
1000
0001
0010
0100
1000
,
0001
0100
0010
1000
0100
1000
0010
0100
,
0001
0010
0001
1000
0100
0010
0001
0100
,
0001
1000
0100
1000
0010
0100
0001
0010
,
0100
1000
0010
0100
0001
1000
0100
0010
,
0001
1000
0001
0100
0010
1000
0010
0100
,
0001
1000
0010
0100
1000
0001
0100
0010
,
1001
0100
0010
1000
0101
0010
1000
0001
,
0100
0001
0010
1000
0001
0010
0100
0010
,
0100
1000
0001
0100
0010
0100
0001
0010
,
0100
1000
0001
0100
0010
1000
0001
0010
,
0100
0001
0100
1000
0001
0010
0100
0001
,
0010
0100
1000
0001
0100
0010
1000
0001
,
0010
0100
1000
0001
0010
0001
1000
0010
,
0100
0001
0010
0100
1000
0001
0100
0010
,
1000
0001
0100
0010
0001
0010
0100
1000
,
0100
0010
1000
0100
0010
0001
1000
0010
,
0100
0001
0010
0100
1000
0010
0100
0001
,
0010
0001
1000
0010
0100
0001
0010
0100
,
1000
0001
0010
0100
0001
0010
1000
0100
,
0001
0100
1000
0010
0100
0001
0010
1000
,
0100
0001
0010
0100
1000
0010
1000
0001
,
0100
0001
1000
0010
0100
0001
1000
0010
,
1001
0100
0010
0100
0001
1000
0010
0100
,
1001
0000
1001
0000
0110
1001
0110
0000
,
1000
0000
0000
0000
0100
0000
0000
0000
0010
0000
0000
0000
0001
0000
0000
0000
1000
0000
0000
0000
0100
0000
0000
0000
0010
0000
0000
0000
1000
0000
0000
0000
0001
0100
0010
0001
0100
1000
1000
0100
0001
0010
0010
0001
0100
0010
1000
0100
1001
0000
0100
0000
0010
0000
0001
0000
0100
0000
0010
0000
1000
0000
0100
0000
,
1001
0100
0010
0001
0100
0010
1000
0100
0001
0000
1000
0000
0010
0000
0001
0000
1010
0001
0100
1000
0010
0010
0001
0100
1000
0000
0001
0000
0100
0000
1000
0000
0011
0000
0011
0000
1100
0000
1100
0000
0011
0000
0011
0000
1100
0000
1100
0000
0002
0203
0320
0032
0203
0320
2030
3200
0302
2003
3020
0032
0203
0320
2030
3200
,
1302
0003
0100
0000
0010
0000
0001
0000
0100
0000
0010
0000
1000
0000
0100
0000
0001
1000
0010
0001
0100
0010
1000
0100
0001
1000
0000
0001
0010
0100
0000
0010
1000
0001
0100
0100
0010
1000
0001
0010
1000
0100
0000
0001
0100
0010
0000
0100
0001
1000
0000
0001
0010
0100
0000
1001
0100
0010
0000
0001
0000
0100
0000
0010
,
1000
0001
0100
0010
0010
1000
0001
0100
1000
0010
0000
0001
0100
1000
0000
0010
0001
0100
0010
0001
0100
0010
1000
0100
0001
1000
0000
0001
0010
0100
0000
0010
1100
0000
1100
0000
0011
0000
0011
0000
1100
0000
1100
0000
0011
0000
0011
0000
2000
3020
0230
0302
0023
0230
0302
0023
2030
3002
0203
2300
3020
0230
0302
0023
,
1031
0000
1000
0000
0100
0000
0001
0000
0010
0000
1000
0000
0001
0000
0010
0000
1000
0001
0100
1000
0010
0010
0001
0100
1000
0001
0000
0010
0100
0100
0000
1000
0001
0001
0010
0100
0100
0010
1000
0100
0001
1000
0000
0100
0010
0010
0000
0001
2000
3020
0230
2300
3020
0230
0302
0023
2030
3002
0003
0020
0130
2000
3000
0200
,
0302
0000
0000
2003
0000
0000
3020
0000
0000
0032
0000
0000
0203
0000
0000
0320
0000
0000
2030
0000
0000
3200
0000
0000
0302
0000
0000
2003
0000
0000
3100
0000
0000
0000
0000
0000
0010
0000
0000
0000
0000
0000
0001
0000
0000
0000
0000
0000
0100
0000
0000
0000
0000
0000
0010
0000
0000
0000
0000
0000
1000
0000
0000
0000
0000
0000
0001
0000
0000
0000
0000
0000
0100
0000
0000
0000
0000
0000
1000
0000
0000
0000
0000
0000
0010
0000
0000
0000
0000
0000
0100
0000
0000
0000
0000
0000
1001
0000
0000
0000
0000
0000
0000
0000
0100
0000
0000
0000
0000
0000
0000
0000
0110
0000
0000
0000
0000
0000
0000
0000
0010
0000
0000
0000
0000
0000
0000
0000
1001
0000
0000
0000
0000
0000
0000
0000
0001
0000
0000
0000
0000
0000
0000
0000
0110
0000
0000
0000
0000
0000
0000
0000
1000
0000
0000
0000
0000
0000
0000
0000
1001
0000
0000
0000
0000
0000
0000
0000
0010
0000
0000
0000
0000
0000
0000
0000
0110
0000
0000
0000
0000
0000
0000
0000
0100
0000
0000
0000
0000
0000
0000
0000
,
2002
0000
0000
3103
0000
0000
0000
0000
1000
0010
0000
0000
0110
0000
0000
0001
0000
0000
0000
0000
0000
0010
0000
0000
1001
0000
0000
0100
0000
0000
1000
0000
0000
0001
0000
0000
0010
0000
0000
0100
0000
0000
1000
0000
0000
0001
0000
0000
0110
0000
0000
0100
0000
0000
0000
0000
0000
0010
0000
0000
1001
0000
0000
1000
0000
0000
0000
0000
0000
0100
0000
0000
0110
0000
0000
0001
0000
0000
0000
0000
0000
0010
0000
0000
0000
0000
0000
0100
0000
0000
0000
0000
0000
0010
0000
0000
2002
0000
0000
3103
0000
0000
0000
0000
0000
0010
0000
0000
0110
0000
0000
0001
0000
0000
0000
0000
0000
0100
0000
0000
1001
0000
0000
0010
0000
0000
0000
0000
0000
1000
0000
0000
0000
0000
0000
0100
0000
0000
0000
0000
0000
0010
0000
0000
0110
0000
0000
0001
0000
0000
0010
0000
0000
0100
0000
0000
1001
0000
0000
0001
0000
0000
1000
0000
0000
0010
0000
0000
0110
0000
0000
0001
0000
0000
0100
0000
0000
0010
0000
0000
0100
0000
0000
1000
0000
0000
0010
0000
0000
0100
0000
0000
,
2002
0000
3223
0000
2332
0000
3023
0000
2230
3300
0000
0000
2200
3300
0000
0000
,
1001
0000
0000
0010
0100
0000
1010
0000
0010
0100
0000
0000
1101
0000
0010
0000
0101
0000
1010
0000
0001
0000
0100
0000
1010
0000
0010
0100
1000
0000
0101
0000
0010
0010
0001
0000
1100
0000
0010
0100
1000
0000
0101
0000
0010
0010
0001
0000
,
2200
0000
0000
3300
0022
0000
0000
0033
2200
0000
0000
3300
0022
0000
0000
0033
,
1000
0000
0001
0100
1000
0000
0010
0000
0001
0001
0100
0000
1010
0000
0011
0000
1000
0000
0110
0000
1000
0000
0100
0000
0011
0000
1000
0010
0001
0000
0110
0000
0100
0000
0011
0000
1000
0000
0001
0100
1000
0000
0110
0000
0010
0001
0001
0000
,
1100
0000
0000
0000
0000
0000
0000
0000
0110
0000
0000
0000
0000
0000
0000
0000
0011
0000
0000
0000
0000
0000
0000
0000
1010
0000
0000
0000
0000
0000
0000
0000
0101
0000
0000
0000
0000
0000
0000
0000
0110
0000
0000
0000
0000
0000
0000
0000
1001
0000
0000
0000
0000
0000
0100
0000
0000
0000
0000
0000
0010
0000
0000
0000
0000
0000
0001
0000
0000
0000
0000
0000
0100
0000
0000
0000
0000
0000
1000
0000
0000
0000
0000
0000
0000
0000
0000
0000
0001
0000
0010
0000
0000
0000
0000
0000
1010
0000
0000
0000
0000
0000
0100
0000
0000
0000
0000
0000
0000
0000
0000
0000
0000
0000
0001
0000
0000
0000
0000
0000
0100
0000
0000
0000
0000
0000
1000
0000
0000
0000
0000
0000
0010
0000
0000
0000
0000
0000
0100
0000
0000
0000
0000
0000
1001
0000
0000
1010
0000
0000
0001
0000
0000
1100
0000
0000
0001
0000
0000
1010
0000
0000
0001
0000
0000
1100
0000
0000
0001
0000
0000
1010
0000
0000
0001
0000
0000
1100
0000
0000
0001
0000
0000
1010
0000
0000
0001
0000
0000
1000
0000
0000
,
0110
0000
0000
0000
0000
0000
1000
0000
0000
0000
0000
0000
0100
0000
0000
0000
0000
0000
0010
0000
0000
0000
0000
0000
0001
0000
0000
0000
0000
0000
0010
0000
0000
0000
0000
0000
0100
0000
0000
0000
0000
0000
1000
0000
0010
0000
0000
0000
0001
0000
0000
0100
0000
0000
0000
0000
0000
0010
0000
0000
0000
0000
0000
0001
0000
0000
0000
0000
0000
1000
0000
0000
1000
0000
0000
0010
0000
0000
0100
0000
0000
0100
0000
0000
0010
0000
0000
0010
0000
0000
0001
0000
0000
1000
0000
0000
1000
0000
0000
0001
0000
0000
0000
0000
0100
0010
0000
0000
0000
0000
0000
0100
0001
0000
0000
0000
0000
1000
0000
0000
0010
0000
0000
0010
0000
0000
0000
0000
1000
0100
0000
0000
0000
0000
0000
0002
0100
0000
0003
0000
0000
0010
0000
0000
0001
0000
0000
0100
0000
0000
0000
0000
0000
1000
0000
0000
1000
0000
0000
0001
0000
0000
0000
0000
0000
0010
0000
0000
0100
0000
0000
0100
0000
0000
0000
0000
0000
0010
0000
0000
0010
0000
0000
2000
0000
0000
3100
0000
0000
0000
0000
0000
,
1011
0000
1000
0000
0001
0000
1100
0000
0001
0000
0010
0000
0100
0000
1000
0000
0101
0000
0100
0000
0010
0010
0000
1000
1100
0010
0000
0001
0000
0100
0000
0010
0001
1000
0010
0100
1000
0010
0000
0001
0100
0100
0000
0001
0010
0100
0000
0010
1001
1000
0000
0100
0000
0010
0000
0001
0010
0100
0000
0010
0000
1000
0000
0001
,
2200
0010
0001
0010
3301
0100
0010
1000
0011
0100
0010
0001
0100
0010
1000
0001
1100
0010
0001
1000
1100
0100
1000
0100
1022
0100
1100
1100
1133
1100
0110
0011
2011
3100
0200
1300
0020
0130
0002
0013
2000
3001
0000
0100
0010
0010
0000
0011
2200
0010
0000
0001
3300
0010
0000
0100
0002
1003
0020
0031
0200
0310
2000
3100
,
0002
1003
0000
0001
0100
0010
0000
1000
0022
0100
0000
1000
0033
0100
0000
0010
1100
0001
0000
1000
0001
0001
1000
1000
0011
0100
0010
0100
0110
0100
1000
0001
2002
0000
0000
0000
0000
0000
0000
0000
0000
0000
0000
0000
0000
0000
0000
0000
3MM3
0000
0000
0000
0000
0000
0000
0000
0000
0000
0000
0000
0000
0000
0000
0000
,
0000
0000
0000
0010
1000
0000
0000
0000
0100
0110
0000
0000
0001
0000
0000
0000
0010
0000
1001
0000
1000
1110
0000
0000
1111
0000
0000
1001
0100
0000
1102
0000
0010
1013
0000
0000
1000
0000
0000
1020
0000
0000
0030
0000
0010
2021
0000
0000
3231
0000
0000
1311
0010
0000
1111
0000
0100
1000
0000
0000
0111
0000
0000
0000
0010
0000
0000
0000
1100
0000
0000
0000
0100
0000
0000
0000
0010
0000
0000
0000
1111
0000
0000
0000
1110
0000
0000
0000
0011
0000
0000
0000
1110
0000
0000
0000
1001
0000
0000
0100
0000
0000
0010
0000
0000
0001
0000
0000
0100
0000
0000
1000
0000
0000
1000
0000
0000
0100
0000
0000
0001
0000
0000
0010
0000
0000
0010
0000
0000
0001
0000
0000
0100
0000
0000
0010
0000
0000
1000
0000
0000
0100
0000
0000
1001
0000
0000
0000
0000
0000
0100
0000
0000
0000
0000
0000
0010
0000
0000
0000
0000
0000
0001
0000
0000
0000
0000
0000
0100
0000
0000
0000
0000
0000
0010
0000
0000
0000
0000
0000
1000
0000
0000
0000
0000
0000
0100
0000
0000
0000
0000
0000
,
1001
0100
0010
0001
0100
0010
1000
0100
0001
0000
1000
0000
0010
0000
0001
0000
1010
0001
0100
1000
0010
0010
0001
0100
1000
0000
0001
0000
0100
0000
1000
0000
0011
0000
0011
0000
1100
0000
1100
0000
0011
0000
0011
0000
1100
0000
1100
0000
0002
0203
0320
0032
0203
0320
2030
3200
0302
2003
3020
0032
0203
0320
2030
3200
,
1302
0003
0100
0000
0010
0000
0001
0000
0100
0000
0010
0000
1000
0000
0100
0000
0001
1000
0010
0001
0100
0010
1000
0100
0001
1000
0000
0001
0010
0100
0000
0010
1000
0001
0100
0100
0010
1000
0001
0010
1000
0100
0000
0001
0100
0010
0000
0100
0001
1000
0000
0001
0010
0100
0000
1001
0100
0010
0000
0001
0000
0100
0000
0010
,
1000
0001
0100
0010
0010
1000
0001
0100
1000
0010
0000
0001
0100
1000
0000
0010
0001
0100
0010
0001
0100
0010
1000
0100
0001
1000
0000
0001
0010
0100
0000
0010
1100
0000
1100
0000
0011
0000
0011
0000
1100
0000
1100
0000
0011
0000
0011
0000
2000
3020
0230
0302
0023
0230
0302
0023
2030
3002
0203
2300
3020
0230
0302
0023
,
1031
0000
1000
0000
0100
0000
0001
0000
0010
0000
1000
0000
0001
0000
0010
0000
1000
0001
0100
1000
0010
0010
0001
0100
1000
0001
0000
0010
0100
0100
0000
1000
0001
0001
0010
0100
0100
0010
1000
0100
0001
1000
0000
0100
0010
0010
0000
0001
2000
3020
0230
2300
3020
0230
0302
0023
2030
3002
0003
0020
0130
2000
3000
0200
,
0302
0000
0000
2003
0000
0000
3020
0000
0000
0032
0000
0000
0203
0000
0000
0320
0000
0000
2030
0000
0000
3200
0000
0000
0302
0000
0000
2003
0000
0000
3100
0000
0000
0000
0000
0000
0010
0000
0000
0000
0000
0000
0001
0000
0000
0000
0000
0000
0100
0000
0000
0000
0000
0000
0010
0000
0000
0000
0000
0000
1000
0000
0000
0000
0000
0000
0001
0000
0000
0000
0000
0000
0100
0000
0000
0000
0000
0000
1000
0000
0000
0000
0000
0000
0010
0000
0000
0000
0000
0000
0100
0000
0000
0000
0000
0000
1001
0000
0000
0000
0000
0000
0000
0000
0100
0000
0000
0000
0000
0000
0000
0000
0110
0000
0000
0000
0000
0000
0000
0000
0010
0000
0000
0000
0000
0000
0000
0000
1001
0000
0000
0000
0000
0000
0000
0000
0001
0000
0000
0000
0000
0000
0000
0000
0110
0000
0000
0000
0000
0000
0000
0000
1000
0000
0000
0000
0000
0000
0000
0000
1001
0000
0000
0000
0000
0000
0000
0000
0010
0000
0000
0000
0000
0000
0000
0000
0110
0000
0000
0000
0000
0000
0000
0000
0100
0000
0000
0000
0000
0000
0000
0000
,
2002
0000
0000
3103
0000
0000
0000
0000
1000
0010
0000
0000
0110
0000
0000
0001
0000
0000
0000
0000
0000
0010
0000
0000
1001
0000
0000
0100
0000
0000
1000
0000
0000
0001
0000
0000
0010
0000
0000
0100
0000
0000
1000
0000
0000
0001
0000
0000
0110
0000
0000
0100
0000
0000
0000
0000
0000
0010
0000
0000
1001
0000
0000
1000
0000
0000
0000
0000
0000
0100
0000
0000
0110
0000
0000
0001
0000
0000
0000
0000
0000
0010
0000
0000
0000
0000
0000
0100
0000
0000
0000
0000
0000
0010
0000
0000
2002
0000
0000
3103
0000
0000
0000
0000
0000
0010
0000
0000
0110
0000
0000
0001
0000
0000
0000
0000
0000
0100
0000
0000
1001
0000
0000
0010
0000
0000
0000
0000
0000
1000
0000
0000
0000
0000
0000
0100
0000
0000
0000
0000
0000
0010
0000
0000
0110
0000
0000
0001
0000
0000
0010
0000
0000
0100
0000
0000
1001
0000
0000
0001
0000
0000
1000
0000
0000
0010
0000
0000
0110
0000
0000
0001
0000
0000
0100
0000
0000
0010
0000
0000
0100
0000
0000
1000
0000
0000
0010
0000
0000
0100
0000
0000
,
0000
0001
0010
0100
1000
0001
0100
0010
1000
0100
0010
0001
1000
0001
0100
0010
1000
0100
0010
1000
0001
0100
0010
1000
0100
0010
0001
0100
0010
1000
0001
0100
0010
0100
0110
1011
0100
0000
2100
3010
0010
0001
0111
1110
1110
0011
0100
0110
,
1001
0000
0000
0010
0100
0000
1010
0000
0010
0100
0000
0000
1101
0000
0010
0000
0101
0000
1010
0000
0001
0000
0100
0000
1010
0000
0010
0100
1000
0000
0101
0000
0010
0010
0001
0000
1100
0000
0010
0100
1000
0000
0101
0000
0010
0010
0001
0000
,
1000
0010
0100
0001
1000
0100
0010
0001
0100
0010
1000
0001
0100
0010
0001
1000
0100
0010
0001
0100
0010
1000
0001
0100
0010
1000
0001
0100
0010
1000
0100
0010
0001
1000
0100
0010
0100
0001
1000
0010
0100
0001
1100
0110
1000
0001
0010
0100
,
1010
0000
0011
0101
1000
0000
0010
0000
0001
0001
0100
0000
1010
0000
0011
0000
1000
0000
0110
0000
1000
0000
0100
0000
0011
0000
1000
0010
0001
0000
0110
0000
0100
0000
0011
0000
1000
0000
0001
0100
1000
0000
0110
0000
0010
0001
0001
0000
,
1100
0000
0000
0000
0000
0000
0000
0000
0110
0000
0000
0000
0000
0000
0000
0000
0011
0000
0000
0000
0000
0000
0000
0000
1010
0000
0000
0000
0000
0000
0000
0000
0101
0000
0000
0000
0000
0000
0000
0000
0110
0000
0000
0000
0000
0000
0000
0000
1001
0000
0000
0000
0000
0000
0100
0000
0000
0000
0000
0000
0010
0000
0000
0000
0000
0000
0001
0000
0000
0000
0000
0000
0100
0000
0000
0000
0000
0000
1000
0000
0000
0000
0000
0000
0000
0000
0000
0000
0001
0000
0010
0000
0000
0000
0000
0000
1010
0000
0000
0000
0000
0000
0100
0000
0000
0000
0000
0000
0000
0000
0000
0000
0000
0000
0001
0000
0000
0000
0000
0000
0100
0000
0000
0000
0000
0000
1000
0000
0000
0000
0000
0000
0010
0000
0000
0000
0000
0000
0100
0000
0000
0000
0000
0000
1001
0000
0000
1010
0000
0000
0001
0000
0000
1100
0000
0000
0001
0000
0000
1010
0000
0000
0001
0000
0000
1100
0000
0000
0001
0000
0000
1010
0000
0000
0001
0000
0000
1100
0000
0000
0001
0000
0000
1010
0000
0000
0001
0000
0000
1000
0000
0000
,
0110
0000
0000
0000
0000
0000
1000
0000
0000
0000
0000
0000
0100
0000
0000
0000
0000
0000
0010
0000
0000
0000
0000
0000
0001
0000
0000
0000
0000
0000
0010
0000
0000
0000
0000
0000
0100
0000
0000
0000
0000
0000
1000
0000
0010
0000
0000
0000
0001
0000
0000
0100
0000
0000
0000
0000
0000
0010
0000
0000
0000
0000
0000
0001
0000
0000
0000
0000
0000
1000
0000
0000
1000
0000
0000
0010
0000
0000
0100
0000
0000
0100
0000
0000
0010
0000
0000
0010
0000
0000
0001
0000
0000
1000
0000
0000
1000
0000
0000
0001
0000
0000
0000
0000
0100
0010
0000
0000
0000
0000
0000
0100
0001
0000
0000
0000
0000
1000
0000
0000
0010
0000
0000
0010
0000
0000
0000
0000
1000
0100
0000
0000
0000
0000
0000
0002
0100
0000
0003
0000
0000
0010
0000
0000
0001
0000
0000
0100
0000
0000
0000
0000
0000
1000
0000
0000
1000
0000
0000
0001
0000
0000
0000
0000
0000
0010
0000
0000
0100
0000
0000
0100
0000
0000
0000
0000
0000
0010
0000
0000
0010
0000
0000
2000
0000
0000
3100
0000
0000
0000
0000
0000
,
1011
0000
1000
0000
0001
0000
1100
0000
0001
0000
0010
0000
0100
0000
1000
0000
0101
0000
0100
0000
0010
0010
0000
1000
1100
0010
0000
0001
0000
0100
0000
0010
0001
1000
0010
0100
1000
0010
0000
0001
0100
0100
0000
0001
0010
0100
0000
0010
1001
1000
0000
0100
0000
0010
0000
0001
0010
0100
0000
0010
0000
1000
0000
0001
,
2200
0010
0001
0010
3301
0100
0010
1000
0011
0100
0010
0001
0100
0010
1000
0001
1100
0010
0001
1000
1100
0100
1000
0100
1022
0100
1100
1100
1133
1100
0110
0011
2011
3100
0200
1300
0020
0130
0002
0013
2000
3001
0000
0100
0010
0010
0000
0011
2200
0010
0000
0001
3300
0010
0000
0100
0002
1003
0020
0031
0200
0310
2000
3100
,
0002
1003
0000
0001
0100
0010
0000
1000
0022
0100
0000
1000
0033
0100
0000
0010
1100
0001
0000
1000
0001
0001
1000
1000
0011
0100
0010
0100
0110
0100
1000
0001
2002
0000
0000
0000
0000
0000
0000
0000
0000
0000
0000
0000
0000
0000
0000
0000
0000
0000
0000
0000
0000
0000
0000
0000
3003
0000
0000
0000
0000
0000
0000
0000
,
1010
0100
0010
1000
0001
1000
0010
0100
,
0010
1000
0001
1000
0010
0100
0001
1000
,
0100
0010
0001
0010
0100
1000
0001
0100
,
0010
1000
0001
0100
1000
0001
0100
0010
,
0100
1000
0001
0100
0010
0100
0001
1000
,
0010
0100
1000
0001
0100
0010
1000
0010
,
0100
0001
1000
0100
0010
0001
0100
0001
,
1000
0010
1000
0001
0010
0100
1000
0010
,
0100
0001
0010
0001
1000
0010
0100
0001
,
1000
0010
0100
1000
0001
0010
0100
1000
,
0001
0100
0010
1000
0100
1000
0010
0100
,
0001
0010
0001
1000
0100
0010
0001
0100
,
0001
1000
0100
1000
0010
0100
0001
0010
,
0100
1000
0010
0100
0001
1000
0100
0010
,
0001
1000
0001
0100
0010
1000
0010
0100
,
0001
1000
0010
0100
1000
0001
0100
0010
,
1001
0100
0010
1000
0101
0010
1000
0001
,
0100
0001
0010
1000
0001
0010
0100
0010
,
0100
1000
0001
0100
0010
0100
0001
0010
,
0100
1000
0001
0100
0010
1000
0001
0010
,
0100
0001
0100
1000
0001
0010
0100
0001
,
0010
0100
1000
0001
0100
0010
1000
0001
,
0010
0100
1000
0001
0010
0001
1000
0010
,
0100
0001
0010
0100
1000
0001
0100
0010
,
1000
0001
0100
0010
0001
0010
0100
1000
,
0100
0010
1000
0100
0010
0001
1000
0010
,
0100
0001
0010
0100
1000
0010
0100
0001
,
0010
0001
1000
0010
0100
0001
0010
0100
,
1000
0001
0010
0100
0001
0010
1000
0100
,
0001
0100
1000
0010
0100
0001
0010
1000
,
0100
0001
0010
0100
1000
0010
1000
0001
,
0100
0001
1000
0010
0100
0001
1000
0010
,
1001
0100
0010
0000
1001
0000
1000
0010
,
0100
1001
0010
1100
,
0001
0010
0100
0000
1001
0000
0001
0100
,
0010
0000
1000
0001
0100
0000
0110
0000
,
1000
0010
0001
0000
0110
0000
1000
0001
,
0010
1100
0001
1001
,
0100
0001
1000
0100
0010
0001
1000
0001
,
0100
0010
1000
0100
1000
0001
0100
0001
,
1100
0010
0001
0000
1001
0000
0100
0010
,
1000
0011
1000
0101
,
1000
0010
0001
0000
1010
0000
0001
0100
,
1000
0000
0010
0100
0001
0000
1010
0000
,
0100
0010
1000
0000
0101
0000
1000
0010
,
1001
0100
1010
0001
,
1001
0100
0010
0001
1100
0010
1000
0010
,
0101
0010
1000
0001
0110
0001
0100
0001
,
1MM1
0000
0000
0000
0000
0000
0000
0000
0000
0000
0000
0000
0000
0000
0000
0000
M000
0M00
00M0
000M
00M0
0M00
M000
0M00
00M0
0000
0000
0000
0000
0000
0000
0000
,
0110
0000
0000
0000
1100
0010
1001
0000
,
1001
0100
1010
0001
0110
1000
1001
0001
,
0110
0010
1100
1000
0011
1001
0110
0011
,
1001
0100
0110
1000
0011
0001
1100
0010
,
1001
0000
0000
0000
1000
0000
0000
0000
0110
0000
0000
0000
0001
0000
0000
0000
1100
0001
1000
0001
1000
0001
1000
0001
1010
0000
0000
0000
0100
0000
0000
0000
,
1001
0010
0110
0001
1100
0010
0011
1000
,
0101
0000
0000
0000
0010
0000
0000
0000
1001
0000
0000
0000
0100
0000
0000
0000
0110
0001
1000
0000
0010
0000
0000
0000
1100
0001
0010
0000
1000
0000
0000
0000
,
0011
1000
0100
0000
0010
0000
0000
0000
1010
0001
0100
0000
1000
0000
0000
0000
1001
0010
0100
0000
0001
0000
0000
0000
0110
1000
0001
0000
0100
0000
0000
0000
,
1001
0010
0100
0000
0010
0000
0000
0000
1001
0001
1000
0000
0010
0000
0000
0000
1100
0000
0000
0000
0001
0000
0000
0000
0110
0000
0000
0000
1000
0000
0000
0000
,
0101
0010
1010
0100
1001
0010
0110
1000
,
0011
1000
0100
0000
0010
0000
0000
0000
1100
0000
0000
0000
0001
0000
0000
0000
1001
0100
0001
0000
0010
0000
0000
0000
1010
0100
1000
0000
0010
0000
0000
0000
,
1001
0010
1100
0001
0011
1000
0110
0010
,
1001
0000
0000
0000
0000
0000
0000
0000
0000
0000
0000
0000
0000
0000
0000
0000
0000
0000
0000
0000
0000
0000
0000
0000
1100
0000
0000
0000
0000
0000
0000
0000
0000
0000
0000
0000
0000
0000
0000
0000
0000
0000
0000
0000
0000
0000
0000
0000
0101
0000
0000
0000
0000
0000
0000
0000
0000
0000
0000
0000
0000
0000
0000
0000
0000
0000
0000
0000
0000
0000
0000
0000
0010
0000
0000
0000
0000
0000
0000
0000
0000
0000
0000
0000
0000
0000
0000
0000
0000
0000
0000
0000
0000
0000
0000
0000
1001
0000
0000
0000
0100
0000
0000
0000
0010
0000
0000
0000
0001
0000
0000
0000
1000
0000
0000
0000
0100
0000
0000
0000
0010
0000
0000
0000
0001
0000
0000
0000
1000
0000
0000
0000
0100
0000
0000
0000
0010
0000
0000
0000
0001
0000
0000
0000
1001
0000
0000
0100
0000
0000
0010
0000
0000
0001
0000
0000
1000
0000
0000
0100
0000
0000
0010
0000
0000
0001
0000
0000
1000
0000
0000
0100
0000
0000
0010
0000
0000
0001
0000
0000
1000
0000
0000
0100
0000
0000
0010
0000
0000
0001
0000
0000
,
1100
0010
1001
0100
0110
0001
1100
0001
,
0011
0000
0000
0000
1000
0000
0000
0000
0110
0000
0000
0000
0001
0000
0000
0000
1001
0010
1000
0001
0100
0000
0000
0000
1010
0001
1000
0010
0100
0000
0000
0000
,
1001
0010
0100
0001
1000
0000
0000
0000
0110
1000
0001
0100
0001
0000
0000
0000
0101
0010
1000
0100
0010
0000
0000
0000
1001
0010
1000
0001
0100
0000
0000
0000
,
0110
1000
0001
0010
0100
0000
0000
0000
1010
0001
0100
0010
1000
0000
0000
0000
0220
0000
0000
0000
0000
0000
0000
0000
0000
0000
0000
0000
0000
0000
0000
0000
,
1331
0100
1010
0001
0110
1000
1001
0001
,
0110
0010
1100
1000
0011
1001
0110
0011
,
1001
0100
0110
1000
0011
0001
1100
0010
,
1001
0000
0000
0000
0100
0000
0000
0000
0101
0000
0000
0000
1000
0000
0000
0000
0110
0001
0100
0001
0100
0001
0100
0001
1010
0000
0000
0000
0100
0000
0000
0000
,
1001
0010
0110
0001
1100
0010
0011
1000
,
0101
0000
0000
0000
0010
0000
0000
0000
1001
0000
0000
0000
0100
0000
0000
0000
0110
0001
1000
0000
0010
0000
0000
0000
1100
0001
0010
0000
1000
0000
0000
0000
,
0011
1000
0100
0000
0010
0000
0000
0000
1010
0001
0100
0000
1000
0000
0000
0000
1001
0010
0100
0000
0001
0000
0000
0000
0110
1000
0001
0000
0100
0000
0000
0000
,
1001
0010
0100
0000
0010
0000
0000
0000
1001
0001
1000
0000
0010
0000
0000
0000
1100
0000
0000
0000
0001
0000
0000
0000
0110
0000
0000
0000
1000
0000
0000
0000
,
0101
0010
1010
0100
1001
0010
0110
1000
,
0011
1000
0100
0000
0010
0000
0000
0000
1100
0000
0000
0000
0001
0000
0000
0000
1001
0100
0001
0000
0010
0000
0000
0000
1010
0100
1000
0000
0010
0000
0000
0000
,
1001
0010
1100
0001
0011
1000
0110
0010
,
1001
0000
0000
0000
0000
0000
0000
0000
0000
0000
0000
0000
0000
0000
0000
0000
0000
0000
0000
0000
0000
0000
0000
0000
1100
0000
0000
0000
0000
0000
0000
0000
0000
0000
0000
0000
0000
0000
0000
0000
0000
0000
0000
0000
0000
0000
0000
0000
0101
0000
0000
0000
0000
0000
0000
0000
0000
0000
0000
0000
0000
0000
0000
0000
0000
0000
0000
0000
0000
0000
0000
0000
0010
0000
0000
0000
0000
0000
0000
0000
0000
0000
0000
0000
0000
0000
0000
0000
0000
0000
0000
0000
0000
0000
0000
0000
1001
0000
0000
0000
0100
0000
0000
0000
0010
0000
0000
0000
0001
0000
0000
0000
1000
0000
0000
0000
0100
0000
0000
0000
0010
0000
0000
0000
0001
0000
0000
0000
1000
0000
0000
0000
0100
0000
0000
0000
0010
0000
0000
0000
0001
0000
0000
0000
1001
0000
0000
0100
0000
0000
0010
0000
0000
0001
0000
0000
1000
0000
0000
0100
0000
0000
0010
0000
0000
0001
0000
0000
1000
0000
0000
0100
0000
0000
0010
0000
0000
0001
0000
0000
1000
0000
0000
0100
0000
0000
0010
0000
0000
0001
0000
0000
,
0001
0010
0100
1000
0001
0000
0010
0000
0000
0100
0000
0000
0001
0010
0100
1000
0001
0000
0010
0000
0000
0100
0000
0000
1001
0000
0000
0000
0000
0000
0010
0000
0000
0000
0000
0000
1000
0100
0010
0001
1000
0000
0100
0000
0000
0010
0000
0000
,
1000
0000
0100
0000
0010
0000
0001
0000
1000
0000
0000
0000
0100
0000
0000
0000
0000
0000
0010
0000
0000
0000
0000
0000
1001
0000
0000
0000
0000
0000
0000
0000
0000
0000
0000
0000
0100
0000
0000
0000
0000
0000
0000
0000
0000
0000
0000
0000
0001
0000
0010
0000
0100
0000
1000
0000
0000
0001
0000
0000
0100
0000
0000
0000
0000
0000
0010
0000
0000
0000
0000
0000
1000
0000
0100
0000
0010
0000
0001
0000
1000
0000
0000
0000
0100
0000
0000
0000
0000
0000
0010
0000
0000
0000
0000
0000
,
1001
0000
0100
0000
1001
0100
1000
0000
0110
0000
0001
0000
0110
1000
0010
0000
,
1001
0010
1000
0000
0110
0000
1000
0000
0202
0000
0000
0000
0000
0000
0000
0000
,
2323
0000
0000
0000
0000
0202
0000
0000
,
0000
0000
0000
0000
,
3333
0000
0000
0000
,
0000
0000
0000
0000
,
0000
0000
0000
0000
,
0000
0000
0000
0000
,
0000
0000
0000
0000
,
0000
0000
0000
0000
,
0000
0000
0000
0000
,
0000
0000
0000
0000
;
