#TITLE:Splash Hill Zone Act 2;
#SUBTITLE:Sonic 4\;
#ARTIST:Jun Senoue;
#TITLETRANSLIT:;
#SUBTITLETRANSLIT:;
#ARTISTTRANSLIT:;
#CREDIT:Owem;
#BANNER:;
#BACKGROUND:;
#LYRICSPATH:;
#CDTITLE:;
#MUSIC:Splash Hill Zone Act 2.ogg;
#OFFSET:-0.546;
#SAMPLESTART:48.546;
#SAMPLELENGTH:29.999;
#SELECTABLE:YES;
#BPMS:0.000=160.000;
#STOPS:;
#BGCHANGES:;
// cache tags:
#FIRSTBEAT:0.000;
#LASTBEAT:252.000;
#SONGFILENAME:Songs/Owem Extras -l/Splash Hill Zone Act 2 - [Owem]/Splash Hill Zone Act 2.sm;
#HASMUSIC:1;
#HASBANNER:0;
#MUSICLENGTH:98.560;
// end cache tags

//---------------dance-single - 16 (Owem)----------------
#NOTES:
     dance-single:
     16 (Owem):
     Challenge:
     16:
     1.000,1.000,0.203,0.832,1.000,915.000,20.000,82.000,0.000,4.000:
2000
3100
0010
0001
2001
0000
3020
0230
,
0301
2000
3200
0310
0002
0103
0020
1030
,
1002
1000
0203
0320
1030
0001
0100
0001
,
1000
0100
0010
0001
1000
0100
0010
0001
1000
0010
0100
0001
1000
0001
0010
0100
,
2000
3001
0100
0010
2010
0000
3002
0023
,
0130
0000
2000
0000
3020
0000
0130
0000
0002
0000
1003
0000
0200
0300
0100
0000
,
0120
0001
0032
2003
3010
0100
0010
1000
,
0001
0010
0100
1000
0001
0010
0100
1000
0100
0010
0001
1000
0010
1000
0001
0100
,
0010
1000
0010
0100
0001
1000
0010
1000
0100
0010
0001
1000
0100
1000
0010
0100
,
0010
1000
0001
0010
0001
0100
0010
1000
0010
0100
0001
1000
0010
1000
0100
0010
,
0001
1000
0100
1000
0001
0010
0001
0100
0010
1000
0010
0100
0001
1000
0100
1000
,
0010
0100
0010
1000
0001
0010
0001
0100
0010
1000
0010
0100
0001
1000
0010
1000
,
0100
0010
0001
1000
0100
1000
0001
0100
0010
1000
0010
0100
0001
1000
0100
1000
,
0001
0010
0001
0100
0010
1000
0010
0100
0001
1000
0010
1000
0100
0010
0001
1000
,
0100
1000
0001
0010
0001
0100
0010
1000
0010
0100
0010
1000
0001
0100
0001
0010
,
0100
1000
0001
0010
0001
0100
0010
1000
0010
0100
0001
1000
0100
0010
0002
0000
,
0000
1003
1010
0010
0100
0100
0001
2001
,
0000
3100
0010
0001
1000
0100
0010
0001
1000
0001
0100
0010
1000
0010
0100
0001
,
1000
0100
0010
0001
1000
0001
0100
0010
0100
0001
1000
0010
1000
0100
0010
0001
1000
0100
1000
0001
0010
0001
0100
0010
,
1000
0010
0100
0001
1000
0010
1000
0100
0010
0001
1000
0100
1000
0001
0010
0001
0100
0010
1000
0010
0100
0001
1000
0010
,
1000
0001
1000
0100
0010
0001
1000
0100
1000
0001
0100
0010
0100
0001
1000
0100
0010
0001
0010
0100
1000
0001
0010
0001
,
0100
0010
1000
0010
0100
0001
1000
0010
1000
0100
0010
0001
1000
0001
0100
0010
0000
0000
0100
0000
0000
0001
0000
0000
,
1000
0100
0010
0001
1000
0100
1000
0001
1000
0010
0100
0010
1000
0001
0100
0001
0010
0100
1000
0001
0010
0001
0100
0010
,
1000
0010
0100
0001
1000
0010
1000
0100
0010
0001
1000
0100
1000
0001
0010
0001
0100
0010
1000
0010
0100
0010
1000
0001
,
0100
0001
0010
0100
1000
0001
0010
0001
0100
0010
1000
0010
0100
0010
1000
0001
0100
0001
0010
0100
1000
0001
0010
0001
,
0100
0010
1000
0010
0100
0010
1000
0001
0100
0001
0010
0100
1000
0001
1000
0010
0000
0000
0100
0000
0000
0010
0000
0000
,
2000
3012
0203
0320
0030
2000
3110
0200
,
0000
0301
0010
0100
1000
0001
0010
0100
1000
0001
1000
0010
0100
0001
0100
0010
,
2000
3100
0010
0001
2001
0000
3020
0230
,
0301
2000
3200
0310
0002
0103
0020
1030
,
1002
1000
0203
0320
1030
0001
0100
0001
,
1000
0100
0010
0001
1000
0100
0010
0001
1000
0010
0100
0001
1000
0001
0010
0100
,
2000
3001
0100
0010
2010
0000
3002
0023
,
0130
0000
2000
0000
3020
0000
0130
0000
0002
0000
1003
0000
0200
0300
0100
0000
,
0120
0001
0032
2003
3010
0100
0010
1000
,
0001
0010
0100
1000
0001
0010
0100
1000
0100
0010
0001
1000
0010
1000
0001
0100
,
0010
1000
0010
0100
0001
1000
0010
1000
0100
0010
0001
1000
0100
1000
0010
0100
,
0010
1000
0001
0010
0001
0100
0010
1000
0010
0100
0001
1000
0010
1000
0100
0010
,
0001
1000
0100
1000
0001
0010
0001
0100
0010
1000
0010
0100
0001
1000
0100
1000
,
0010
0100
0010
1000
0001
0010
0001
0100
0010
1000
0010
0100
0001
1000
0010
1000
,
0100
0010
0001
1000
0100
1000
0001
0100
0010
1000
0010
0100
0001
1000
0100
1000
,
0001
0010
0001
0100
0010
1000
0010
0100
0001
1000
0010
1000
0100
0010
0001
1000
,
0100
1000
0001
0010
0001
0100
0010
1000
0010
0100
0010
1000
0001
0100
0001
0010
,
0100
1000
0001
0010
0001
0100
0010
1000
0010
0100
0001
1000
0100
0010
0002
0000
,
0000
1003
1010
0010
0100
0100
0001
2001
,
0000
3100
0010
0001
1000
0100
0010
0001
1000
0001
0100
0010
1000
0010
0100
0001
,
1000
0100
0010
0001
1000
0001
0100
0010
0100
0001
1000
0010
1000
0100
0010
0001
1000
0100
1000
0001
0010
0001
0100
0010
,
1000
0010
0100
0001
1000
0010
1000
0100
0010
0001
1000
0100
1000
0001
0010
0001
0100
0010
1000
0010
0100
0001
1000
0010
,
1000
0001
1000
0100
0010
0001
1000
0100
1000
0001
0100
0010
0100
0001
1000
0100
0010
0001
0010
0100
1000
0001
0010
0001
,
0100
0010
1000
0010
0100
0001
1000
0010
1000
0100
0010
0001
1000
0001
0100
0010
0000
0000
0100
0000
0000
0001
0000
0000
,
1000
0100
0010
0001
1000
0100
1000
0001
1000
0010
0100
0010
1000
0001
0100
0001
0010
0100
1000
0001
0010
0001
0100
0010
,
1000
0010
0100
0001
1000
0010
1000
0100
0010
0001
1000
0100
1000
0001
0010
0001
0100
0010
1000
0010
0100
0010
1000
0001
,
0100
0001
0010
0100
1000
0001
0010
0001
0100
0010
1000
0010
0100
0010
1000
0001
0100
0001
0010
0100
1000
0001
0010
0001
,
0100
0010
1000
0010
0100
0010
1000
0001
0100
0001
0010
0100
1000
0001
1000
0010
0000
0000
0100
0000
0000
0010
0000
0000
,
2000
3012
0203
0320
0030
2000
3110
0200
,
0000
0301
0010
0100
1000
0001
0010
0100
1000
0001
1000
0010
0100
0001
0100
0010
,
2000
3100
0010
0001
2001
0000
3020
0230
,
0301
2000
3200
0310
0002
0103
0020
1030
,
1002
1000
0203
0320
1030
0001
0100
0001
,
1000
0100
0010
0001
1000
0100
0010
0001
1000
0010
0100
0001
1000
0001
0010
0100
,
2000
3001
0100
0010
2010
0000
3002
0023
,
0130
0000
2000
0000
3020
0000
0130
0000
0002
0000
1003
0000
0200
0300
0010
0000
,
0012
0000
2003
3020
0000
0000
0000
0000
,
0030
0000
0000
0000
;
