#TITLE:One More Lovely;
#SUBTITLE:;
#ARTIST:Risk Junk;
#TITLETRANSLIT:;
#SUBTITLETRANSLIT:;
#ARTISTTRANSLIT:;
#CREDIT:;
#BANNER:../banner.png;
#BACKGROUND:../bg.png;
#LYRICSPATH:;
#CDTITLE:;
#MUSIC:One More Lovely.ogg;
#OFFSET:-1.213;
#SAMPLESTART:45.619;
#SAMPLELENGTH:19.400;
#SELECTABLE:YES;
#BPMS:0.000=200.000;
#STOPS:;
#BGCHANGES:;
// cache tags:
#FIRSTBEAT:2.000;
#LASTBEAT:353.750;
#SONGFILENAME:Songs/Cirque du Lykan/One More Lovely - [Zaia]/One More Lovely.sm;
#HASMUSIC:1;
#HASBANNER:1;
#MUSICLENGTH:112.718;
// end cache tags

//---------------dance-single - Zaia - 15(mid-high)----------------
#NOTES:
     dance-single:
     Zaia - 15(mid-high):
     Challenge:
     15:
     1.000,1.000,0.204,0.257,1.000,1166.000,23.000,29.000,0.000,0.000:
0000
0000
0000
0000
0000
0000
0000
0000
1000
0010
0100
0000
0001
0000
0000
0000
,
1001
1000
0100
1000
0010
0100
0001
1000
,
0010
1000
0100
1000
0010
0100
0001
1000
,
0010
1000
0100
1000
0010
0100
0010
1000
,
0001
0001
0010
0010
0100
0100
1001
0010
,
1001
0001
0100
0001
0010
0100
1000
0001
,
0010
0001
0100
0001
0010
0100
1000
0001
,
0010
0001
0100
0001
0010
0100
0010
0001
,
0000
0000
1000
0000
0010
0000
1000
0000
0001
0100
0000
0001
1000
0000
0001
0000
,
0010
0100
1000
0001
1000
0010
1000
0001
0010
0100
1000
0001
0100
0010
0100
0001
,
1000
0100
1000
0001
1000
0010
0100
0001
0010
0100
1000
0001
1000
0010
0100
0001
,
1000
0010
1000
0001
1000
0100
0010
0001
0100
0010
1000
0001
1000
0100
0010
0001
,
1000
0010
1000
0001
1000
0001
0010
0001
1000
0001
1000
0100
1000
0001
1000
0001
,
0100
0010
1000
0001
1000
0100
1000
0001
0100
0010
1000
0001
0010
0100
0010
0001
,
1000
0010
1000
0001
1000
0100
0010
0001
0100
0010
1000
0001
1000
0100
0010
0001
,
1000
0100
1000
0001
1000
0010
0100
0001
0010
0100
1000
0001
1000
0010
0100
0001
,
1000
0010
1000
0010
0100
0001
0100
0001
1000
0100
1000
0100
0010
0001
0010
0001
,
1000
0010
1000
0010
0100
0001
0100
0001
1000
0100
1000
0100
0010
0001
0010
0001
,
1000
0010
0000
0100
0001
1000
1000
0100
,
0010
0000
0001
0000
1000
0000
0001
0000
1000
0010
1000
0000
0100
0000
1000
0000
,
0001
0010
0001
0100
0001
1000
0010
1000
0100
1000
0001
0100
0010
0100
0001
1000
,
0100
1000
0010
1000
0001
0100
0001
0010
0001
1000
0100
0010
0001
1000
0001
0100
,
0010
1000
0100
1000
0001
0100
0001
0010
0001
1000
0100
0010
0001
1000
0010
0100
,
0001
0010
0001
1000
0010
1000
0100
1000
0001
0100
0010
1000
0001
1000
0100
1000
,
0001
0010
0001
0100
0001
1000
0010
1000
0100
1000
0001
0100
0010
0100
0001
1000
,
0100
1000
0010
1000
0001
0100
0001
0010
0001
1000
0100
0010
0001
1000
0001
0100
,
0010
1000
0100
1000
0001
0100
0001
0010
0001
1000
0100
0010
0001
1000
0010
0100
,
0001
0010
0001
1000
0010
1000
0100
1000
0001
0100
0010
1000
0001
0010
0001
1000
,
0010
0100
0001
0100
0001
1000
0010
0100
0001
0100
0001
1000
0100
0010
0100
1000
,
0001
0100
0010
0100
0001
1000
0100
0010
0001
1000
0010
0100
0001
1000
0010
1000
,
0100
0010
0001
0010
0001
1000
0100
0010
0001
0010
0001
1000
0010
0100
0010
1000
,
0001
0010
0100
0010
0001
1000
0010
0100
0001
1000
0100
0010
0001
1000
0001
0100
,
0010
1000
0010
1000
0001
0100
0010
1000
0010
1000
0001
0010
0100
0010
0001
1000
,
0010
0100
0010
1000
0001
0010
0100
1000
0001
0100
0010
1000
0001
0100
0001
0010
,
0100
1000
0100
1000
0001
0010
0100
1000
0100
1000
0001
0100
0010
0100
0001
1000
,
0100
0010
0100
1000
0001
0100
0010
1000
0001
1000
0010
0100
0001
1000
0100
1000
,
0001
0000
0000
0000
0000
0000
0000
0000
0100
0010
1000
0000
0002
0000
0003
0000
,
1000
0001
0010
0001
1000
0010
0100
0001
1000
0001
0010
0001
1000
0100
1000
0001
,
0100
0010
0100
0001
0010
0100
1000
0010
0100
0010
1000
0001
1000
0100
1000
0001
,
0010
0100
0010
0001
1000
0001
0100
0010
1000
0001
1000
0010
0100
0001
0010
0001
,
0100
0010
0100
0001
1000
0100
0010
0100
1000
0001
0100
0010
1000
0001
0010
0100
,
1000
0001
1000
0010
0100
0001
0100
0010
1000
0001
0010
0100
1000
0100
0010
0001
,
1000
0010
0100
0010
1000
0001
0100
0001
1000
0100
1000
0001
0100
0001
1000
0100
,
0010
0001
1000
0100
1000
0001
0100
0010
0100
0001
1000
0010
1000
0001
0010
0100
,
1000
0010
0100
0001
1000
0100
1000
0001
0010
0001
1000
0001
0100
0010
0100
0001
,
0010
0100
1000
0100
1000
0010
0100
0001
0100
0010
1000
0001
1000
0100
0010
0100
,
1000
0001
0100
0010
0100
0001
1000
0100
0010
0001
1000
0001
0100
0010
1000
0001
,
0010
0100
1000
0001
0010
0001
1000
0001
1000
0010
1000
0001
0100
0010
1000
0001
,
0010
0100
0010
0001
1000
0010
0100
0010
1000
0001
0010
0100
1000
0001
1000
0010
,
0100
0001
1000
0100
1000
0001
0010
0001
1000
0001
0100
0010
1000
0100
0010
0100
,
1000
0001
0100
0010
0100
0001
1000
0100
0010
0001
1000
0001
0100
0010
1000
0001
,
0010
0100
1000
0100
0010
0001
1000
0010
1000
0001
0100
0001
1000
0001
0010
0100
,
1000
0010
0100
0001
1000
0100
1000
0001
0100
0010
1000
0100
1000
0001
1000
0001
,
0100
0000
0010
0000
2000
3000
0001
0000
0020
0030
0001
0000
0200
0300
0010
0000
,
1000
0000
0100
0000
1000
0000
0002
0003
1000
0000
0020
0030
1000
0000
0200
0300
,
0010
0000
0001
0000
2000
3000
0001
0000
0200
0300
0001
0000
0020
0030
0110
0000
,
0000
1100
1001
0000
0101
0110
0000
1001
,
0001
0000
0100
0000
0002
0003
1000
0000
0200
0300
1000
0000
0020
0030
0100
0000
,
0001
0000
0020
0030
0001
0000
2000
3000
0001
0000
0200
0300
0001
0000
0101
0000
,
0000
1001
1100
0000
0011
0000
1001
0000
,
1010
0000
0000
0000
0110
0000
0000
1000
0010
0000
0000
0100
0001
0000
1000
0000
,
0011
0000
1000
0000
0002
0003
1000
0000
0200
0300
1000
0000
0002
0003
1000
0000
,
0010
0000
0200
0300
0010
0000
2000
3000
0010
0000
0200
0300
0010
0000
1000
0000
,
0001
0000
0010
0000
0002
0003
1000
0000
0002
0003
0010
0000
0001
0000
1001
0000
,
0000
1010
0110
0000
0101
1001
0000
1100
,
0100
0000
0010
0000
0002
0003
0010
0000
0200
0300
0010
0000
0002
0003
0010
0000
,
0100
0000
1000
0000
0001
0000
2000
3000
0010
0000
2000
3000
0100
0000
1000
0000
,
0000
0001
0000
0100
0000
0001
0000
1000
,
0000
0100
0000
0010
0000
0100
0000
1000
,
0001
0100
0010
1000
0001
0010
0100
1000
0001
0100
0010
1000
0001
1000
0010
0100
,
0001
0010
0100
1000
0001
0100
0010
1000
0001
0010
0100
1000
0001
1000
0100
0010
,
0001
1000
0001
0100
0001
1000
0001
0100
0010
1000
0001
1000
0010
1000
0001
1000
,
0100
0010
0001
1000
0001
0010
0001
1000
0100
1000
0001
1000
0100
1000
0010
0100
,
0001
1000
0001
0100
0010
1000
0001
1000
0100
1000
0001
0100
0001
0010
0100
1000
,
0001
0100
0010
1000
0001
0010
0001
1000
0010
1000
0001
1000
0010
0100
0010
1000
,
0001
0010
0100
1000
0010
0100
0001
1000
0100
1000
0001
0100
0001
1000
0001
0010
,
0100
1000
0001
1000
0010
0100
0001
1000
0100
1000
0001
1000
0001
0100
0001
1000
,
0010
0100
0001
0010
0100
1000
0001
0010
0001
1000
0100
1000
0001
0010
0001
0100
,
0001
0100
0010
0100
0001
1000
0100
0010
0001
1000
0010
0100
0001
1000
0010
1000
,
0100
0010
0001
0100
0010
1000
0001
0100
0001
1000
0010
1000
0001
0100
0001
0010
,
0001
0010
0100
0010
0001
1000
0010
0100
0001
1000
0100
0010
0001
1000
0100
1000
,
0001
0100
0001
1000
0100
0010
0001
1000
0100
1000
0001
0010
0001
1000
0100
1000
,
0010
1000
0010
0100
0010
1000
0001
0010
0100
1000
0001
0100
0010
1000
0001
0100
,
0001
0010
0100
1000
0010
0100
0001
1000
0010
0100
0001
0100
0001
1000
0010
1000
,
0100
0010
0001
1000
0100
1000
0001
0010
0001
1000
0001
0100
0001
1000
0010
1000
,
0100
0010
0001
1000
0100
1000
0001
0010
0001
1000
0001
0100
0001
1000
0100
1000
,
0010
0100
0001
0010
0001
0100
0001
0010
0001
1000
0010
1000
0100
1000
0010
1000
,
0100
0010
0100
1000
0001
0100
0010
1000
0001
1000
0100
0010
0001
1000
0001
0100
,
0010
0100
0001
0010
0100
1000
0001
0100
0000
0000
0000
0000
0000
0000
0000
0000
;

//---------------dance-single - Zaia - 14(low)----------------
#NOTES:
     dance-single:
     Zaia - 14(low):
     Hard:
     14:
     1.000,1.000,0.204,0.248,1.000,936.000,23.000,28.000,0.000,0.000:
0000
0000
0000
0000
0000
0000
0000
0000
1000
0010
0100
0000
0001
0000
0000
0000
,
1001
1000
0100
1000
0010
0100
0001
1000
,
0010
1000
0100
1000
0010
0100
0001
1000
,
0010
1000
0100
1000
0010
0100
0010
1000
,
0001
0001
0010
0010
0100
0100
1001
0010
,
1001
0001
0100
0001
0010
0100
1000
0001
,
0010
0001
0100
0001
0010
0100
1000
0001
,
0010
0001
0100
0001
0010
0100
0010
0001
,
0000
0000
1000
0000
0010
0000
1000
0000
0001
0100
0000
0001
1000
0000
0001
0000
,
0010
0100
1000
0001
1000
0010
1000
0001
0010
0100
1000
0001
0100
0010
0100
0001
,
1000
0100
1000
0001
1000
0010
0100
0001
0010
0100
1000
0001
1000
0010
0100
0001
,
1000
0010
1000
0001
1000
0100
0010
0001
0100
0010
1000
0001
1000
0100
0010
0001
,
1000
0010
1000
0001
1000
0001
0010
0001
1000
0001
1000
0100
1000
0001
1000
0001
,
0100
0010
1000
0001
1000
0100
1000
0001
0100
0010
1000
0001
0010
0100
0010
0001
,
1000
0010
1000
0001
1000
0100
0010
0001
0100
0010
1000
0001
1000
0100
0010
0001
,
1000
0100
1000
0001
1000
0010
0100
0001
0010
0100
1000
0001
1000
0010
0100
0001
,
1000
0010
1000
0010
0100
0001
0100
0001
1000
0100
1000
0100
0010
0001
0010
0001
,
1000
0010
1000
0010
0100
0001
0100
0001
1000
0100
1000
0100
0010
0001
0010
0001
,
1000
0010
0000
0100
0001
1000
1000
0100
,
0010
0000
0001
0000
1000
0000
0001
0000
1000
0010
1000
0000
0100
0000
1000
0000
,
0001
0010
0001
0100
0001
1000
0010
1000
0100
1000
0001
0100
0010
0100
0001
1000
,
0100
1000
0010
1000
0001
0100
0001
0010
0001
1000
0100
0010
0001
1000
0001
0100
,
0010
1000
0100
1000
0001
0100
0001
0010
0001
1000
0100
0010
0001
1000
0010
0100
,
0001
0010
0001
1000
0010
1000
0100
1000
0001
0100
0010
1000
0001
1000
0100
1000
,
0001
0010
0001
0100
0001
1000
0010
1000
0100
1000
0001
0100
0010
0100
0001
1000
,
0100
1000
0010
1000
0001
0100
0001
0010
0001
1000
0100
0010
0001
1000
0001
0100
,
0010
1000
0100
1000
0001
0100
0001
0010
0001
1000
0100
0010
0001
1000
0010
0100
,
0001
0010
0001
1000
0010
1000
0100
1000
0001
0100
0010
1000
0001
0010
0001
1000
,
0010
0000
0000
0100
,
0001
0010
0100
1000
,
0001
0000
0000
0100
,
0001
0010
0001
1000
,
0010
0000
0000
0100
,
0010
1000
0100
0010
,
0100
0000
0000
1000
,
0001
0010
0001
0100
0000
0010
0000
0000
,
1000
0000
0000
0000
0000
0000
0000
0000
0010
0100
0001
0000
2000
0000
3000
0000
,
0001
0100
0010
0100
0001
0100
0010
1000
,
0100
0010
0001
0010
0100
1000
0010
0100
,
0001
0010
0001
0100
0001
1000
0010
1000
,
0001
0010
0100
1000
0001
0100
0010
1000
,
0001
0010
0001
1000
0100
1000
0010
0100
,
0001
1000
0100
0010
0100
1000
0001
1000
,
0010
0100
0001
0100
0010
1000
0001
1000
,
0100
0010
0001
0100
0001
1000
0100
1000
,
0001
0010
0100
0010
0001
0010
0100
1000
,
0010
0100
0001
0100
0010
1000
0100
0010
,
0001
0100
0001
0010
0001
1000
0100
1000
,
0001
0100
0010
1000
0001
0010
0100
1000
,
0001
0100
0001
1000
0010
1000
0100
0010
,
0001
1000
0010
0100
0010
1000
0001
1000
,
0100
0010
0001
0010
0100
1000
0001
1000
,
0010
0000
0100
0000
0001
0000
0010
0000
0001
1000
0000
0001
0100
0000
0010
0000
,
1000
0000
0100
0000
2000
3000
0001
0000
0020
0030
0001
0000
0200
0300
0010
0000
,
1000
0000
0100
0000
1000
0000
0002
0003
1000
0000
0020
0030
1000
0000
0200
0300
,
0010
0000
0001
0000
2000
3000
0001
0000
0200
0300
0001
0000
0020
0030
0110
0000
,
0000
1100
1001
0000
0101
0110
0000
1001
,
0001
0000
0100
0000
0002
0003
1000
0000
0200
0300
1000
0000
0020
0030
0100
0000
,
0001
0000
0010
0000
0001
0000
2000
3000
0001
0000
0200
0300
0001
0000
0101
0000
,
0000
1001
1100
0000
0011
0000
1001
0000
,
1010
0000
0000
0000
0110
0000
0000
1000
0010
0000
0000
0100
0001
0000
1000
0000
,
0011
0000
1000
0000
0002
0003
1000
0000
0200
0300
1000
0000
0002
0003
1000
0000
,
0010
0000
0200
0300
0010
0000
2000
3000
0010
0000
0200
0300
0010
0000
1000
0000
,
0001
0000
0010
0000
0002
0003
1000
0000
0002
0003
0010
0000
0001
0000
1001
0000
,
0000
1010
0110
0000
0101
1001
0000
1100
,
0100
0000
0010
0000
0002
0003
0010
0000
0200
0300
0010
0000
0002
0003
0010
0000
,
0100
0000
1000
0000
0001
0000
2000
3000
0010
0000
2000
3000
0100
0000
1000
0000
,
0000
0001
0000
0100
0000
0001
0000
1000
,
0000
0100
0000
0010
0000
0100
0000
1000
,
0001
0100
0010
1000
0001
0010
0100
1000
0001
0100
0010
1000
0001
1000
0010
0100
,
0001
0010
0100
1000
0001
0100
0010
1000
0001
0010
0100
1000
0001
1000
0100
0010
,
0001
1000
0001
0100
0001
1000
0001
0100
0010
1000
0001
1000
0010
1000
0001
1000
,
0100
0010
0001
1000
0001
0010
0001
1000
0100
1000
0001
1000
0100
1000
0010
0100
,
0001
1000
0001
0100
0010
1000
0001
1000
0100
1000
0001
0100
0001
0010
0100
1000
,
0001
0100
0010
1000
0001
0010
0001
1000
0010
1000
0001
1000
0010
0100
0010
1000
,
0001
0010
0100
1000
0010
0100
0001
1000
0100
1000
0001
0100
0001
1000
0001
0010
,
0100
1000
0001
1000
0010
0100
0001
1000
0100
1000
0001
1000
0001
0100
0001
1000
,
0010
0100
0001
0010
0100
1000
0001
0010
0001
1000
0100
1000
0001
0010
0001
0100
,
0001
0100
0010
0100
0001
1000
0100
0010
0001
1000
0010
0100
0001
1000
0010
1000
,
0100
0010
0001
0100
0010
1000
0001
0100
0001
1000
0010
1000
0001
0100
0001
0010
,
0001
0010
0100
0010
0001
1000
0010
0100
0001
1000
0100
0010
0001
1000
0100
1000
,
0001
0100
0001
1000
0100
0010
0001
1000
0100
1000
0001
0010
0001
1000
0100
1000
,
0010
1000
0010
0100
0010
1000
0001
0010
0100
1000
0001
0100
0010
1000
0001
0100
,
0001
0010
0100
1000
0010
0100
0001
1000
0010
0100
0001
0100
0001
1000
0010
1000
,
0100
0010
0001
1000
0100
1000
0001
0010
0001
1000
0001
0100
0001
1000
0010
1000
,
0100
0010
0001
1000
0100
1000
0001
0010
0001
1000
0001
0100
0001
1000
0100
1000
,
0010
0100
0001
0010
0001
0100
0001
0010
0001
1000
0010
1000
0100
1000
0010
1000
,
0100
0010
0100
1000
0001
0100
0010
1000
0001
1000
0100
0010
0001
1000
0001
0100
,
0010
0100
0001
0010
0100
1000
0001
0100
0000
0000
0000
0000
0000
0000
0000
0000
;

//---------------dance-single - Zaia - 10(mid)----------------
#NOTES:
     dance-single:
     Zaia - 10(mid):
     Medium:
     10:
     0.895,0.902,0.293,0.248,0.084,645.000,33.000,28.000,0.000,0.000:
0000
0000
0000
0000
0000
0000
0000
0000
1000
0010
0100
0000
0001
0000
0000
0000
,
1001
1000
0100
1000
0010
0100
0001
1000
,
0010
1000
0100
1000
0010
0100
0001
1000
,
0010
1000
0100
1000
0010
0100
0010
1000
,
0001
0001
0010
0010
0100
0100
1001
0010
,
1001
0001
0100
0001
0010
0100
1000
0001
,
0010
0001
0100
0001
0010
0100
1000
0001
,
0010
0001
0100
0001
0010
0100
0010
0001
,
0000
0000
1000
0000
0010
0000
1000
0000
0001
0100
0000
0001
1000
0000
0001
0000
,
0010
0100
1000
0001
1000
0010
0100
0001
,
0010
0001
0100
0001
1000
0001
0010
0100
,
0010
0001
1000
0010
0100
0001
1000
0001
,
0010
0010
0100
0100
1000
1000
0110
0001
,
0110
1000
0001
0010
0001
0100
0010
1000
,
0100
0010
0001
0100
0001
0010
0100
1000
,
0001
0010
0001
0100
0010
1000
0001
0010
,
0110
1100
1001
0101
,
1010
0110
0101
1001
,
1000
0010
0000
0100
0001
1000
1000
0100
,
0010
0000
0001
0000
1000
0000
0001
0000
1000
0010
1000
0000
0100
0000
1000
0000
,
0001
0010
0100
1000
0001
0010
0001
0100
,
0010
1000
0010
0100
0001
1000
0100
1000
,
0001
0010
0001
0100
0001
1000
0010
1000
,
0100
0010
0100
1000
0010
0100
0001
1000
,
0100
0010
0100
1000
0001
0100
0010
0100
,
0001
0010
0100
1000
0010
0100
0001
1000
,
0100
1000
0001
0010
0001
0100
0010
1000
,
0100
1000
0001
0010
0100
1000
0001
0100
,
0010
0000
0000
0100
,
0001
0010
0100
1000
,
0001
0000
0000
0100
,
0001
0010
0001
1000
,
0010
0000
0000
0100
,
0010
1000
0100
0010
,
0100
0000
0000
1000
,
0001
0010
0001
0100
0000
0010
0000
0000
,
1000
0000
0000
0000
0000
0000
0000
0000
0010
0100
0001
0000
2000
0000
3000
0000
,
0001
0100
0010
0100
0001
0100
0010
1000
,
0100
0010
0001
0010
0100
1000
0010
0100
,
0001
0010
0001
0100
0001
1000
0010
1000
,
0001
0010
0100
1000
0001
0100
0010
1000
,
0001
0010
0001
1000
0100
1000
0010
0100
,
0001
1000
0100
0010
0100
1000
0001
1000
,
0010
0100
0001
0100
0010
1000
0001
1000
,
0100
0010
0001
0100
0001
1000
0100
1000
,
0001
0010
0100
0010
0001
0010
0100
1000
,
0010
0100
0001
0100
0010
1000
0100
0010
,
0001
0100
0001
0010
0001
1000
0100
1000
,
0001
0100
0010
1000
0001
0010
0100
1000
,
0001
0100
0001
1000
0010
1000
0100
0010
,
0001
1000
0010
0100
0010
1000
0001
1000
,
0100
0010
0001
0010
0100
1000
0001
1000
,
0010
0000
0100
0000
0001
0000
0010
0000
0001
1000
0000
0001
0100
0000
0010
0000
,
1000
0000
0100
0000
2000
3000
0001
0000
0020
0030
0001
0000
0200
0300
0010
0000
,
1000
0000
0100
0000
1000
0000
0002
0003
1000
0000
0020
0030
1000
0000
0200
0300
,
0010
0000
0001
0000
2000
3000
0001
0000
0200
0300
0001
0000
0020
0030
0110
0000
,
0000
1100
1001
0000
0101
0110
0000
1001
,
0001
0000
0100
0000
0002
0003
1000
0000
0200
0300
1000
0000
0020
0030
0100
0000
,
0001
0000
0010
0000
0001
0000
2000
3000
0001
0000
0200
0300
0001
0000
0101
0000
,
0000
1001
1100
0000
0011
0000
1001
0000
,
1010
0000
0000
0000
0110
0000
0000
1000
0010
0000
0000
0100
0001
0000
1000
0000
,
0011
0000
1000
0000
0002
0003
1000
0000
0200
0300
1000
0000
0002
0003
1000
0000
,
0010
0000
0200
0300
0010
0000
2000
3000
0010
0000
0200
0300
0010
0000
1000
0000
,
0001
0000
0010
0000
0002
0003
1000
0000
0002
0003
0010
0000
0001
0000
1001
0000
,
0000
1010
0110
0000
0101
1001
0000
1100
,
0100
0000
0010
0000
0002
0003
0010
0000
0200
0300
0010
0000
0002
0003
0010
0000
,
0100
0000
1000
0000
0001
0000
2000
3000
0010
0000
2000
3000
0100
0000
1000
0000
,
0000
0001
0000
0100
0000
0001
0000
1000
,
0000
0100
0000
0010
0000
0100
0000
1000
,
0001
0100
0001
1000
0001
0010
0100
1000
,
0001
1000
0010
1000
0001
0100
0010
0100
,
0001
1000
0001
1000
0100
0010
0100
0010
,
0001
0000
0000
0010
0000
0000
0001
0000
0000
0010
0000
0000
0100
0000
0000
1000
0000
0000
0001
0000
0010
0000
0001
0000
,
1000
0010
1000
0010
0100
0001
1000
0100
,
0010
0100
1000
0010
0100
0001
0010
0001
,
0100
0010
1000
0001
1000
0100
0010
0100
,
1000
0001
1000
0010
0100
0001
0010
0001
,
1000
0100
0010
0001
1000
0100
1000
0010
,
0100
0001
0100
0010
1000
0001
0010
0001
,
1000
0100
1000
0010
1000
0001
0100
0001
,
0010
0100
0010
0001
0100
0010
1000
0001
,
0010
0100
0010
0001
1000
0010
0100
0010
,
1000
0100
0010
0001
0100
0010
1000
0001
,
0010
0000
0001
0000
1000
0000
0100
0000
1000
0000
0010
0000
0100
0001
0100
0001
,
1000
0000
0100
0000
1000
0000
0010
0000
0100
0000
0001
0000
1000
0100
1000
0100
,
0010
0001
1000
0001
0100
0001
0010
0100
,
1000
0010
1000
0000
0001
0010
0001
0000
1000
0100
1000
0000
0001
0100
0001
0000
,
1000
0010
0100
0001
1000
0100
0010
0001
,
1000
0010
1000
0001
0000
0000
0000
0000
;
