#TITLE:Lost Woods;
#SUBTITLE:;
#ARTIST:Ephixa;
#TITLETRANSLIT:;
#SUBTITLETRANSLIT:;
#ARTISTTRANSLIT:;
#CREDIT:;
#BANNER:../Wubstream - ban.png;
#BACKGROUND:../Wubstream - bg.png;
#LYRICSPATH:;
#CDTITLE:;
#MUSIC:Ephixa - Lost Woods Dubstep Remix.ogg;
#OFFSET:0.022;
#SAMPLESTART:92.576;
#SAMPLELENGTH:12.000;
#SELECTABLE:YES;
#BPMS:0.000=140.000;
#STOPS:;
#BGCHANGES:;
// cache tags:
#FIRSTBEAT:16.000;
#LASTBEAT:535.000;
#SONGFILENAME:Songs/Wubstream/Lost Woods - [Rynker]/lost woods.sm;
#HASMUSIC:1;
#HASBANNER:1;
#MUSICLENGTH:233.147;
// end cache tags

//---------------dance-single - Rynker----------------
#NOTES:
     dance-single:
     Rynker:
     Challenge:
     17:
     1.000,1.000,0.000,0.120,1.000,2214.000,0.000,28.000,2.000,0.000:



0000
0000
0000
0000
,
0000
0000
0000
0000
,
0000
0000
0000
0000
,
0000
0000
0000
0000
,
1000
0100
0020
0030
1000
0100
0020
0030
,
0001
0100
0010
0100
0002
0000
0103
0001
,
0010
0100
2000
0000
0000
0000
3000
0001
,
0100
0010
2000
0000
0000
0000
0000
0000
,
3010
0100
0002
0000
0013
0100
2000
0000
,
3010
0100
0002
0000
0000
0000
0000
0000
,
0103
0010
2000
0000
3100
0010
0002
0000
,
0103
0010
2000
0000
0000
0000
0000
0000
,
3001
0010
0200
0000
1300
0010
0200
0000
,
0301
0010
0200
0000
0000
0000
0000
0000
,
1300
0010
0100
0001
0010
0100
1000
0010
,
0100
0000
0001
0000
0010
0000
0100
0000
1000
0000
0010
0000
0100
0001
0000
1000
,
0001
1000
0000
1000
0001
0010
0000
0010
,
0001
1000
0100
0100
M100
0000
0000
0000
,
1000
0100
0010
0001
1000
0100
0010
0001
1000
0001
1000
0001
0100
0010
1000
0001
0100
0010
1000
0001
1000
0001
1000
0001
,
0010
0100
1000
0100
0010
0001
1000
0010
0100
0010
1000
0001
0100
0001
0010
0100
0010
0100
1000
0100
0010
0001
1000
0010
,
0100
0001
0100
0010
0100
0001
1000
0100
0010
0001
0010
0100
1000
0001
0010
0100
1000
0001
1000
0001
1000
0010
0100
0001
,
0100
0010
1000
0001
1000
0100
0010
0001
1000
0010
0100
0001
0100
0010
1000
0001
1000
0001
0100
0010
0100
0001
1000
0001
,
1000
0100
0010
0001
1000
0100
0010
0001
1000
0001
1000
0001
0100
0010
1000
0001
0100
0010
1000
0001
1000
0001
1000
0001
,
0010
0100
1000
0001
1000
0010
0100
0001
1000
0100
0010
0001
0010
0100
1000
0100
0010
0001
1000
0010
0100
0001
1000
0100
,
1000
0001
0010
0001
1000
0010
0100
0001
1000
0001
0100
0010
0100
0001
1000
0010
0100
0001
1000
0001
1000
0100
0010
0001
,
1000
0010
0100
0001
0010
0100
1000
0100
0010
0001
1000
0100
1000
0001
0010
0100
1000
0100
0010
0001
1000
0001
1000
0100
,
0010
0001
1000
0100
1000
0001
0010
0001
1000
0100
1000
0001
0100
0010
1000
0010
0100
0001
1000
0100
0010
0001
1000
0001
,
0100
0010
1000
0010
0100
0001
1000
0100
0010
0001
1000
0001
0100
0010
0100
0010
1000
0001
1000
0001
0010
0001
1000
0010
,
1000
0100
0010
0001
1000
0001
0100
0001
0100
0010
1000
0010
0100
0001
1000
0010
0100
0001
1000
0001
1000
0100
0010
0001
,
0100
0010
1000
0010
0100
0001
1000
0001
0010
0100
1000
0100
0010
0001
1000
0001
1000
0100
0010
0001
0010
0100
1000
0001
,
1000
0001
0100
0010
0100
0001
1000
0001
1000
0100
0010
0001
1000
0100
1000
0001
0010
0100
1000
0001
1000
0010
0100
0001
,
0100
0010
1000
0001
1000
0010
0100
0001
1000
0010
0100
0010
1000
0100
0010
0001
0010
0100
1000
0001
0100
0010
0100
0001
,
1000
0001
0010
0100
1000
0100
0010
0001
1000
0100
1000
0001
0010
0100
1000
0001
1000
0001
0010
0100
1000
0001
0100
0010
,
0100
0001
1000
0100
0010
0100
1000
0001
0100
0010
0100
0001
1000
0100
0010
0100
1000
0001
0010
0100
0010
0001
1000
0001
,
0100
0010
0100
0001
1000
0010
0100
0001
0100
0001
0100
0010
1000
0001
0010
0100
0010
0001
1000
0001
1000
0001
1000
0010
,
0100
0010
0100
0001
1000
0100
0010
0001
1000
0001
0100
0010
0100
0001
1000
0010
0100
0010
1000
0001
1000
0001
0100
0010
,
0100
0001
1000
0100
1000
0100
0010
0001
1000
0100
1000
0001
0100
0010
0100
0001
1000
0010
0100
0001
0100
0010
1000
0001
,
0100
0010
1000
0001
1000
0001
0010
0100
1000
0100
0010
0001
1000
0100
1000
0001
0010
0100
1000
0100
0010
0001
1000
0001
,
1000
0010
0100
0001
1000
0001
0100
0010
1000
0001
0010
0100
1000
0100
0010
0001
1000
0001
0100
0010
0100
0001
1000
0001
,
1000
0010
0100
0001
0100
0010
1000
0010
0100
0001
1000
0001
0100
0010
0100
0001
1000
0001
1000
0010
0100
0010
1000
0001
,
1000
0100
0010
0100
1000
0100
0010
0001
1000
0001
0010
0100
0010
0001
1000
0001
0100
0010
0100
0001
1000
0010
0100
0001
,
1000
0100
0010
0001
1000
0100
1000
0001
0010
0100
1000
0001
0200
0000
0000
0000
0000
0000
0310
0000
0000
0000
0000
0000
,
1000
0100
0010
0001
1000
0100
0010
0001
1000
0001
1000
0001
0100
0010
1000
0001
0100
0010
1000
0001
1000
0001
1000
0001
,
0010
0100
1000
0100
0010
0001
1000
0010
0100
0010
1000
0001
0100
0001
0010
0100
0010
0100
1000
0100
0010
0001
1000
0010
,
0100
0001
0100
0010
0100
0001
1000
0100
0010
0001
0010
0100
1000
0001
0010
0100
1000
0001
1000
0001
1000
0010
0100
0001
,
0100
0010
1000
0001
1000
0100
0010
0001
1000
0010
0100
0001
0100
0010
1000
0001
1000
0001
0100
0010
0100
0001
1000
0001
,
1000
0100
0010
0001
1000
0100
0010
0001
1000
0001
1000
0001
0100
0010
1000
0001
0100
0010
1000
0001
1000
0001
1000
0001
,
0010
0100
1000
0001
1000
0010
0100
0001
1000
0100
0010
0001
0100
0010
0100
0010
0100
0001
1000
0010
0100
0001
1000
0100
,
1000
0010
0100
0001
0010
0100
1000
0001
1000
0001
0100
0010
0100
0001
1000
0010
0100
0001
1000
0001
1000
0100
0010
0001
,
1000
0010
0100
0001
0010
0100
1000
0100
0010
0001
1000
0100
1000
0001
0010
0100
1000
0100
0010
0001
1000
0001
1000
0100
,
0010
0001
1000
0010
0100
0001
1000
0001
1000
0001
1000
0010
0100
0001
1000
0010
0100
0001
1000
0100
1000
0100
1000
0100
,
0010
0001
1000
0010
0100
0001
1000
0100
0010
0001
0100
0010
0100
0001
0010
0100
0010
0100
1000
0001
0010
0001
1000
0010
,
1000
0100
0010
0001
1000
0001
0100
0001
0100
0010
1000
0010
0100
0001
1000
0010
0100
0001
1000
0001
1000
0100
0010
0001
,
0100
0010
1000
0010
0100
0001
1000
0001
0010
0100
1000
0100
0010
0001
1000
0001
1000
0100
0010
0001
0010
0100
1000
0001
,
1000
0001
0100
0010
0100
0001
1000
0001
1000
0100
0010
0001
1000
0100
1000
0001
0010
0100
1000
0001
1000
0001
0100
0010
,
0100
0010
1000
0001
1000
0010
0100
0001
1000
0010
0100
0001
1000
0100
0010
0001
0010
0100
1000
0001
0100
0010
0100
0001
,
0010
0001
0100
0010
1000
0100
0010
0001
1000
0100
1000
0001
0010
0100
1000
0001
1000
0001
0010
0100
1000
0001
0100
0010
,
0100
0001
1000
0100
0010
0100
1000
0001
0100
0010
0100
0001
1000
0010
0100
0010
1000
0001
0010
0100
0010
0001
1000
0001
,
0010
0001
0001
0001
1000
0100
0100
0100
,
1000
0010
0010
0010
1000
0001
0001
0001
,
1000
0100
0100
0100
0010
0001
0001
1000
,
0010
0100
0100
0100
0001
1000
1000
0001
,
0010
0100
0100
0100
0010
0001
0001
0001
,
1000
0010
0010
0010
0100
0001
0001
0001
,
1000
0100
0100
0100
0010
0001
0001
1000
,
0010
0100
0100
0100
0001
1000
1000
0100
,
0010
0001
0100
0000
0010
1000
0100
0000
,
0010
0001
0200
0000
0000
0000
0000
0000
,
0310
0100
0001
0000
0010
0100
1000
0000
,
0010
0100
0002
0000
0000
0000
0000
0000
,
1003
0100
0010
0000
0001
0100
0010
0000
,
1000
0100
0020
0000
0000
0000
0000
0000
,
0031
0100
0010
1000
0100
0010
0001
0100
,
0010
0000
1000
0000
0100
0000
0010
0000
0001
0000
0100
0000
0010
1000
0000
0001
,
1000
0001
0000
0001
1000
0100
0000
0100
,
1000
0001
0010
0010
001M
0000
0000
0000
,
0001
0010
0100
1000
0001
0010
0100
1000
0001
1000
0001
1000
0010
0100
0001
1000
0010
0100
0001
1000
0001
1000
0001
1000
,
0100
0010
0001
0010
0100
1000
0001
0100
0010
0100
0001
1000
0010
1000
0100
0010
0100
1000
0001
0010
0100
1000
0001
0100
,
0010
1000
0001
0100
0001
1000
0100
0010
0001
1000
0100
1000
0001
1000
0100
0010
0001
1000
0001
1000
0001
0100
0010
1000
,
0010
0100
0001
1000
0001
0010
0100
1000
0001
0100
0010
1000
0010
0100
0001
1000
0001
1000
0010
0100
0010
1000
0001
1000
,
0001
0010
0100
1000
0001
0010
0100
1000
0001
1000
0001
1000
0010
0100
0001
1000
0010
0100
0001
1000
0001
1000
0001
1000
,
0100
0010
0001
1000
0001
0100
0010
1000
0001
0010
0100
1000
0100
0010
0001
0010
0100
1000
0001
0100
0010
1000
0001
0010
,
0001
1000
0100
1000
0001
0100
0010
1000
0001
1000
0010
0100
0010
1000
0001
0100
0010
1000
0001
1000
0001
0010
0100
1000
,
0001
0100
0010
1000
0100
0010
0001
0010
0100
1000
0001
0010
0001
1000
0100
0010
0001
0010
0100
1000
0001
1000
0001
0010
,
0100
1000
0001
0010
0001
1000
0100
1000
0001
0010
0001
1000
0010
0100
0001
0100
0010
1000
0001
0010
0100
1000
0001
1000
,
0010
0100
0001
0100
0010
1000
0001
0010
0100
1000
0010
0100
0010
1000
0001
0100
0010
1000
0001
0010
0100
1000
0001
0100
,
0001
0010
0100
1000
0001
1000
0010
1000
0010
0100
0001
0100
0010
1000
0001
0100
0010
1000
0001
1000
0001
0010
0100
1000
,
0010
0100
0001
0100
0010
1000
0001
1000
0100
0010
0001
0010
0100
1000
0001
1000
0001
0010
0100
1000
0100
0010
0001
1000
,
0001
1000
0010
0100
0010
1000
0001
1000
0001
0010
0100
1000
0001
0010
0001
1000
0100
0010
0001
1000
0001
0100
0010
1000
,
0010
0100
0001
1000
0001
0100
0010
1000
0001
0100
0010
1000
0001
0010
0100
1000
0100
0010
0001
1000
0010
0100
0010
1000
,
0001
1000
0100
0010
0001
0010
0100
1000
0001
0010
0001
1000
0100
0010
0001
1000
0001
1000
0100
0010
0001
1000
0010
0100
,
0010
1000
0001
0010
0100
0010
0001
1000
0010
0100
0010
1000
0001
0010
0100
0010
0001
1000
0100
0010
0100
1000
0001
1000
,
0010
0100
0010
1000
0001
0100
0010
1000
0010
1000
0010
0100
0001
1000
0100
0010
0100
1000
0001
1000
0001
1000
0001
0100
,
0010
0100
0010
1000
0001
0010
0100
1000
0001
1000
0010
0100
0010
1000
0001
0100
0010
0100
0001
1000
0001
1000
0010
0100
,
0010
1000
0001
0010
0001
0010
0100
1000
0001
0010
0001
1000
0010
0100
0010
1000
0001
0100
0010
1000
0010
0100
0001
1000
,
0010
0100
0001
1000
0001
1000
0100
0010
0001
0010
0100
1000
0001
0010
0001
1000
0100
0010
0001
0010
0100
1000
0001
1000
,
0001
0100
0010
1000
0001
1000
0010
0100
0001
1000
0100
0010
0001
0010
0100
1000
0001
1000
0010
0100
0010
1000
0001
1000
,
0001
0100
0010
1000
0010
0100
0001
0100
0010
1000
0001
1000
0010
0100
0010
1000
0001
1000
0001
0100
0010
0100
0001
1000
,
0001
0010
0100
0010
0001
0010
0100
1000
0001
1000
0100
0010
0100
1000
0001
1000
0010
0100
0010
1000
0001
0100
0010
1000
,
0001
0010
0100
1000
0001
0010
0001
1000
0100
0010
0001
1000
0020
0000
0000
0000
0000
0000
0130
0000
0000
0000
0000
0000
,
0001
0010
0100
1000
0001
0010
0100
1000
0001
1000
0001
1000
0010
0100
0001
1000
0010
0100
0001
1000
0001
1000
0001
1000
,
0100
0010
0001
0010
0100
1000
0001
0100
0010
0100
0001
1000
0010
1000
0100
0010
0100
0010
0001
0010
0100
1000
0001
0100
,
0010
1000
0010
0100
0010
1000
0001
0010
0100
1000
0100
0010
0001
1000
0100
0010
0001
1000
0001
1000
0001
0100
0010
1000
,
0010
0100
0001
1000
0001
0010
0100
1000
0001
0100
0010
1000
0010
0100
0001
1000
0001
1000
0010
0100
0010
1000
0001
1000
,
0001
0010
0100
1000
0001
0010
0100
1000
0001
1000
0001
1000
0010
0100
0001
1000
0010
0100
0001
1000
0001
1000
0001
1000
,
0100
0010
0001
1000
0001
0100
0010
1000
0001
0010
0100
1000
0010
0100
0010
0100
0010
1000
0001
0100
0010
1000
0001
0010
,
0001
0100
0010
1000
0100
0010
0001
1000
0001
1000
0010
0100
0010
1000
0001
0100
0010
1000
0001
1000
0001
0010
0100
1000
,
0001
0100
0010
1000
0100
0010
0001
0010
0100
1000
0001
0010
0001
1000
0100
0010
0001
0010
0100
1000
0001
1000
0001
0010
,
0100
1000
0001
0100
0010
1000
0001
1000
0001
1000
0001
0100
0010
1000
0001
0100
0010
1000
0001
0010
0001
0010
0001
0010
,
0100
1000
0001
0100
0010
1000
0001
0010
0100
1000
0010
0100
0010
1000
0100
0010
0100
0010
0001
1000
0100
1000
0001
0100
,
0001
0010
0100
1000
0001
1000
0010
1000
0010
0100
0001
0100
0010
1000
0001
0100
0010
1000
0001
1000
0001
0010
0100
1000
,
0010
0100
0001
0100
0010
1000
0001
1000
0100
0010
0001
0010
0100
1000
0001
1000
0001
0010
0100
1000
0100
0010
0001
1000
,
0001
1000
0010
0100
0010
1000
0001
1000
0001
0010
0100
1000
0001
0010
0001
1000
0100
0010
0001
1000
0001
1000
0010
0100
,
0010
0100
0001
1000
0001
0100
0010
1000
0001
0100
0010
1000
0001
0010
0100
1000
0100
0010
0001
1000
0010
0100
0010
1000
,
0100
1000
0010
0100
0001
0010
0100
1000
0001
0010
0001
1000
0100
0010
0001
1000
0001
1000
0100
0010
0001
1000
0010
0100
,
0010
1000
0001
0010
0100
0010
0001
1000
0010
0100
0010
1000
0001
0100
0010
0100
0001
1000
0100
0010
0100
1000
0001
1000
,
0100
1000
1000
1000
0001
0010
0010
0010
,
0001
0100
0100
0100
0001
1000
1000
1000
,
0001
0010
0010
0010
0100
1000
1000
0001
,
0100
0010
0010
0010
1000
0001
0001
1000
,
0100
0010
0010
0010
0100
1000
1000
1000
,
0001
0100
0100
0100
0010
1000
1000
1000
,
0001
0010
0010
0010
0100
1000
1000
0001
,
0100
0010
0010
0010
1000
0001
0001
0010
,
0100
1000
0020
0000
0130
0001
0020
0000
,
0130
1000
0020
0000
0000
0000
0000
0030
,
1000
0010
0200
0000
0301
0010
0200
0000
,
1300
0010
0200
0000
0000
0000
0000
0300
,
0001
1000
0020
0000
1030
0001
0020
0000
,
0031
1000
0200
0000
0000
0000
0000
0300
,
1000
0010
0100
0010
1000
0010
0100
0010
,
1000
0000
0001
0000
0010
0000
0100
0000
1000
0000
0001
0000
0010
0100
0000
1000
,
0001
1000
0000
1000
0010
0100
0000
0001
,
0010
0001
1000
1000
1000
0000
0001
0000
;

//---------------dance-single - Rynker----------------
#NOTES:
     dance-single:
     Rynker:
     Hard:
     15:
     1.000,1.000,0.000,0.103,1.000,1790.000,0.000,24.000,2.000,0.000:




0000
0000
0000
0000
,
0000
0000
0000
0000
,
0000
0000
0000
0000
,
0000
0000
0000
0000
,
1000
0100
0020
0030
1000
0100
0020
0030
,
0001
0100
0010
0100
0002
0000
0103
0001
,
0010
0100
2000
0000
0000
0000
3000
0001
,
0100
0010
2000
0000
0000
0000
0000
0000
,
3010
0100
0001
0000
0010
0100
1000
0000
,
0010
0100
0002
0000
0000
0000
0000
0000
,
0103
0010
1000
0000
0100
0010
0001
0000
,
0100
0010
2000
0000
0000
0000
0000
0000
,
3001
0010
0100
0000
1000
0010
0100
0000
,
0001
0010
0200
0000
0000
0000
0000
0000
,
1300
0010
0100
0001
0010
0100
1000
0010
,
0100
0000
0001
0000
0010
0000
0100
0000
1000
0000
0010
0000
0100
0001
0000
1000
,
0001
1000
0000
1000
0001
0010
0000
0010
,
0001
1000
0100
0100
M100
0000
0000
0000
,
1000
0100
0010
0001
1000
0100
0010
0001
1000
0001
1000
0001
0100
0010
1000
0001
0100
0010
1000
0001
1000
0001
1000
0001
,
0010
0100
1000
0100
0010
0001
1000
0010
0100
0010
1000
0001
0100
0001
0010
0100
0010
0100
1000
0100
0010
0001
1000
0010
,
0100
0001
0100
0010
0100
0001
1000
0100
0010
0001
0010
0100
1000
0001
0010
0100
1000
0001
1000
0001
1000
0010
0100
0001
,
0100
0010
1000
0001
1000
0100
0010
0001
1000
0010
0100
0001
0100
0010
1000
0001
1000
0001
0100
0010
0100
0001
1000
0001
,
1000
0100
0010
0001
1000
0100
0010
0001
1000
0001
1000
0001
0100
0010
1000
0001
0100
0010
1000
0001
1000
0001
1000
0001
,
0010
0100
1000
0001
1000
0010
0100
0001
1000
0100
0010
0001
0010
0100
1000
0100
0010
0001
1000
0010
0100
0001
1000
0100
,
1000
0001
0010
0001
1000
0010
0100
0001
1000
0001
0100
0010
0100
0001
1000
0010
0100
0001
1000
0001
1000
0100
0010
0001
,
1000
0010
0100
0001
0010
0100
1000
0100
0010
0001
1000
0100
1000
0001
0010
0100
1000
0100
0010
0001
1000
0001
1000
0100
,
0010
0001
1000
0100
1000
0001
0010
0001
1000
0100
1000
0001
0100
0010
1000
0010
0100
0001
1000
0100
0010
0001
1000
0001
,
0100
0010
1000
0010
0100
0001
1000
0100
0010
0001
0100
0010
0100
0001
1000
0010
0100
0001
1000
0100
0010
0001
1000
0010
,
1000
0100
0010
0001
1000
0001
0100
0001
0100
0010
1000
0010
0100
0001
1000
0010
0100
0001
1000
0001
1000
0100
0010
0001
,
0100
0010
1000
0010
0100
0001
1000
0001
0010
0100
1000
0100
0010
0001
1000
0001
1000
0100
0010
0001
0010
0100
1000
0001
,
1000
0001
0100
0000
0001
1000
0100
0000
,
1000
0001
0100
0010
1000
0000
0010
0100
,
0001
1000
0200
0000
0000
0000
0300
0010
,
0001
1000
0002
0000
0000
0000
0003
0000
,
1000
0010
0100
0000
0001
1000
0100
0000
,
0010
0001
2000
0000
0000
0000
0000
3000
,
0001
0100
0010
0000
1000
0100
0010
0000
,
0001
0100
0020
0000
0000
0000
0000
0030
,
1000
0001
0100
0000
0010
1000
0001
0000
,
0010
0100
2000
0000
0000
0000
3000
0000
,
0100
0010
0001
0010
0100
1000
0001
0100
,
0010
0000
0000
1000
0000
0000
0001
0000
0000
0100
0000
0000
0001
0100
0010
1000
0100
0010
0001
0000
0000
0000
0000
0000
,
1000
0100
0010
0001
1000
0100
0010
0001
1000
0001
1000
0001
0100
0010
1000
0001
0100
0010
1000
0001
1000
0001
1000
0001
,
0010
0100
1000
0100
0010
0001
1000
0010
0100
0010
1000
0001
0100
0001
0010
0100
0010
0100
1000
0100
0010
0001
1000
0010
,
0100
0001
0100
0010
0100
0001
1000
0100
0010
0001
0010
0100
1000
0001
0010
0100
1000
0001
1000
0001
1000
0010
0100
0001
,
0100
0010
1000
0001
1000
0100
0010
0001
1000
0010
0100
0001
0100
0010
1000
0001
1000
0001
0100
0010
0100
0001
1000
0001
,
1000
0100
0010
0001
1000
0100
0010
0001
1000
0001
1000
0001
0100
0010
1000
0001
0100
0010
1000
0001
1000
0001
1000
0001
,
0010
0100
1000
0001
1000
0010
0100
0001
1000
0100
0010
0001
0100
0010
0100
0010
0100
0001
1000
0010
0100
0001
1000
0100
,
1000
0010
0100
0001
0010
0100
1000
0001
1000
0001
0100
0010
0100
0001
1000
0010
0100
0001
1000
0001
1000
0100
0010
0001
,
1000
0010
0100
0001
0010
0100
1000
0100
0010
0001
1000
0100
1000
0001
0010
0100
1000
0100
0010
0001
1000
0001
1000
0100
,
0010
0001
1000
0010
0100
0001
1000
0001
1000
0001
1000
0010
0100
0001
1000
0010
0100
0001
1000
0100
1000
0100
1000
0100
,
0010
0001
1000
0010
0100
0001
1000
0100
0010
0001
0100
0010
0100
0001
0010
0100
0010
0100
1000
0001
0010
0001
1000
0010
,
1000
0100
0010
0001
1000
0001
0100
0001
0100
0010
1000
0010
0100
0001
1000
0010
0100
0001
1000
0001
1000
0100
0010
0001
,
0100
0010
1000
0010
0100
0001
1000
0001
0010
0100
1000
0100
0010
0001
1000
0001
1000
0100
0010
0001
0010
0100
1000
0001
,
1000
0001
0100
0010
0100
0001
1000
0001
1000
0100
0010
0001
1000
0100
1000
0001
0010
0100
1000
0001
1000
0001
0100
0010
,
0100
0010
1000
0001
1000
0010
0100
0001
1000
0010
0100
0001
1000
0100
0010
0001
0010
0100
1000
0001
0100
0010
0100
0001
,
0010
0001
0100
0010
1000
0100
0010
0001
1000
0100
1000
0001
0010
0100
1000
0001
1000
0001
0010
0100
1000
0001
0100
0010
,
0100
0001
1000
0100
0010
0100
1000
0001
0100
0010
0100
0001
1000
0010
0100
0010
1000
0001
0010
0100
0010
0001
1000
0001
,
0010
0001
0001
0001
1000
0100
0100
0100
,
1000
0010
0010
0010
1000
0001
0001
0001
,
1000
0100
0100
0100
0010
0001
0001
1000
,
0010
0100
0100
0100
0001
1000
1000
0001
,
0010
0100
0100
0100
0010
0001
0001
0001
,
1000
0010
0010
0010
0100
0001
0001
0001
,
1000
0100
0100
0100
0010
0001
0001
1000
,
0010
0100
0100
0100
0001
1000
1000
0100
,
0010
0001
0100
0000
0010
1000
0100
0000
,
0010
0001
0200
0000
0000
0000
0000
0000
,
0310
0100
0001
0000
0010
0100
1000
0000
,
0010
0100
0002
0000
0000
0000
0000
0000
,
1003
0100
0010
0000
0001
0100
0010
0000
,
1000
0100
0020
0000
0000
0000
0000
0000
,
0031
0100
0010
1000
0100
0010
0001
0100
,
0010
0000
1000
0000
0100
0000
0010
0000
0001
0000
0100
0000
0010
1000
0000
0001
,
1000
0001
0000
0001
1000
0100
0000
0100
,
1000
0001
0010
0010
01M0
0000
0000
0000
,
1000
0100
0010
0001
1000
0100
0010
0001
1000
0001
1000
0001
0100
0010
1000
0001
0100
0010
1000
0001
1000
0001
1000
0001
,
0010
0100
1000
0100
0010
0001
1000
0010
0100
0010
1000
0001
0100
0001
0010
0100
0010
0100
1000
0100
0010
0001
1000
0010
,
0100
0001
0100
0010
0100
0001
1000
0100
0010
0001
0010
0100
1000
0001
0010
0100
1000
0001
1000
0001
1000
0010
0100
0001
,
0100
0010
1000
0001
1000
0100
0010
0001
1000
0010
0100
0001
0100
0010
1000
0001
1000
0001
0100
0010
0100
0001
1000
0001
,
1000
0100
0010
0001
1000
0100
0010
0001
1000
0001
1000
0001
0100
0010
1000
0001
0100
0010
1000
0001
1000
0001
1000
0001
,
0010
0100
1000
0001
1000
0010
0100
0001
1000
0100
0010
0001
0010
0100
1000
0100
0010
0001
1000
0010
0100
0001
1000
0100
,
1000
0001
0010
0001
1000
0010
0100
0001
1000
0001
0100
0010
0100
0001
1000
0010
0100
0001
1000
0001
1000
0100
0010
0001
,
1000
0010
0100
0001
0010
0100
1000
0100
0010
0001
1000
0100
1000
0001
0010
0100
1000
0100
0010
0001
1000
0001
1000
0100
,
0010
0001
1000
0100
1000
0001
0010
0001
1000
0100
1000
0001
0100
0010
1000
0010
0100
0001
1000
0100
0010
0001
1000
0001
,
0100
0010
1000
0010
0100
0001
1000
0100
0010
0001
0100
0010
0100
0001
1000
0010
0100
0001
1000
0100
0010
0001
1000
0010
,
1000
0100
0010
0001
1000
0001
0100
0001
0100
0010
1000
0010
0100
0001
1000
0010
0100
0001
1000
0001
1000
0100
0010
0001
,
0100
0010
1000
0010
0100
0001
1000
0001
0010
0100
1000
0100
0010
0001
1000
0001
1000
0100
0010
0001
0010
0100
1000
0001
,
1000
0001
0100
0000
0001
1000
0100
0000
,
1000
0001
0100
0010
1000
0000
0010
0100
,
0001
1000
0200
0000
0000
0000
0300
0010
,
0001
1000
0002
0000
0000
0000
0003
0000
,
1000
0010
0100
0000
0001
1000
0100
0000
,
0010
0001
2000
0000
0000
0000
0000
3000
,
0001
0100
0010
0000
1000
0100
0010
0000
,
0001
0100
0020
0000
0000
0000
0000
0030
,
1000
0001
0100
0000
0010
1000
0001
0000
,
0010
0100
2000
0000
0000
0000
3000
0000
,
0100
0010
0001
0010
0100
1000
0001
0100
,
0010
0000
0000
1000
0000
0000
0001
0000
0000
0100
0000
0000
0001
0100
0010
1000
0100
0010
0001
0000
0000
0000
0000
0000
,
1000
0100
0010
0001
1000
0100
0010
0001
1000
0001
1000
0001
0100
0010
1000
0001
0100
0010
1000
0001
1000
0001
1000
0001
,
0010
0100
1000
0100
0010
0001
1000
0010
0100
0010
1000
0001
0100
0001
0010
0100
0010
0100
1000
0100
0010
0001
1000
0010
,
0100
0001
0100
0010
0100
0001
1000
0100
0010
0001
0010
0100
1000
0001
0010
0100
1000
0001
1000
0001
1000
0010
0100
0001
,
0100
0010
1000
0001
1000
0100
0010
0001
1000
0010
0100
0001
0100
0010
1000
0001
1000
0001
0100
0010
0100
0001
1000
0001
,
1000
0100
0010
0001
1000
0100
0010
0001
1000
0001
1000
0001
0100
0010
1000
0001
0100
0010
1000
0001
1000
0001
1000
0001
,
0010
0100
1000
0001
1000
0010
0100
0001
1000
0100
0010
0001
0100
0010
0100
0010
0100
0001
1000
0010
0100
0001
1000
0100
,
1000
0010
0100
0001
0010
0100
1000
0001
1000
0001
0100
0010
0100
0001
1000
0010
0100
0001
1000
0001
1000
0100
0010
0001
,
1000
0010
0100
0001
0010
0100
1000
0100
0010
0001
1000
0100
1000
0001
0010
0100
1000
0100
0010
0001
1000
0001
1000
0100
,
0010
0001
1000
0010
0100
0001
1000
0001
1000
0001
1000
0010
0100
0001
1000
0010
0100
0001
1000
0100
1000
0100
1000
0100
,
0010
0001
1000
0010
0100
0001
1000
0100
0010
0001
0100
0010
0100
0001
0010
0100
0010
0100
1000
0001
0010
0001
1000
0010
,
1000
0100
0010
0001
1000
0001
0100
0001
0100
0010
1000
0010
0100
0001
1000
0010
0100
0001
1000
0001
1000
0100
0010
0001
,
0100
0010
1000
0010
0100
0001
1000
0001
0010
0100
1000
0100
0010
0001
1000
0001
1000
0100
0010
0001
0010
0100
1000
0001
,
1000
0001
0100
0010
0100
0001
1000
0001
1000
0100
0010
0001
1000
0100
1000
0001
0010
0100
1000
0001
1000
0001
0100
0010
,
0100
0010
1000
0001
1000
0010
0100
0001
1000
0010
0100
0001
1000
0100
0010
0001
0010
0100
1000
0001
0100
0010
0100
0001
,
0010
0001
0100
0010
1000
0100
0010
0001
1000
0100
1000
0001
0010
0100
1000
0001
1000
0001
0010
0100
1000
0001
0100
0010
,
0100
0001
1000
0100
0010
0100
1000
0001
0100
0010
0100
0001
1000
0010
0100
0010
1000
0001
0010
0100
0010
0001
1000
0001
,
0010
0001
0001
0001
1000
0100
0100
0100
,
1000
0010
0010
0010
1000
0001
0001
0001
,
1000
0100
0100
0100
0010
0001
0001
1000
,
0010
0100
0100
0100
0001
1000
1000
0001
,
0010
0100
0100
0100
0010
0001
0001
0001
,
1000
0010
0010
0010
0100
0001
0001
0001
,
1000
0100
0100
0100
0010
0001
0001
1000
,
0010
0100
0100
0100
0001
1000
1000
0100
,
0010
0001
0100
0000
0010
1000
0100
0000
,
0010
0001
0200
0000
0000
0000
0000
0000
,
0310
0100
0001
0000
0010
0100
1000
0000
,
0010
0100
0002
0000
0000
0000
0000
0000
,
1003
0100
0010
0000
0001
0100
0010
0000
,
1000
0100
0020
0000
0000
0000
0000
0000
,
0031
0100
0010
1000
0100
0010
0001
0100
,
0010
0000
1000
0000
0100
0000
0010
0000
0001
0000
0100
0000
0010
1000
0000
0001
,
1000
0001
0000
0001
1000
0100
0000
0100
,
1000
0001
0010
0010
0010
0000
0100
0000
;

//---------------dance-single - Rynker----------------
#NOTES:
     dance-single:
     Rynker:
     Medium:
     12:
     0.899,0.947,0.000,0.086,1.000,1447.000,0.000,20.000,2.000,0.000:

0000
0000
0000
0000
,
0000
0000
0000
0000
,
0000
0000
0000
0000
,
0000
0000
0000
0000
,
1000
0100
0020
0030
1000
0100
0020
0030
,
0001
0100
0010
0100
0002
0000
0103
0001
,
0010
0100
2000
0000
0000
0000
3000
0001
,
0100
0010
2000
0000
0000
0000
0000
0000
,
3010
0100
0001
0000
0010
0100
1000
0000
,
0010
0100
0002
0000
0000
0000
0000
0000
,
0103
0010
1000
0000
0100
0010
0001
0000
,
0100
0010
2000
0000
0000
0000
0000
0000
,
3001
0010
0100
0000
1000
0010
0100
0000
,
0001
0010
0200
0000
0000
0000
0000
0000
,
1300
0010
0100
0001
0010
0100
1000
0010
,
0100
0000
0001
0000
0010
0000
0100
0000
1000
0000
0010
0000
0100
0001
0000
1000
,
0001
1000
0000
1000
0001
0010
0000
0010
,
0001
1000
0100
0100
M100
0000
0000
0000
,
1000
0001
0100
0010
1000
0001
1000
0001
0010
0100
0010
0001
1000
0100
1000
0100
,
0010
0001
1000
0001
0100
0010
1000
0100
0010
0100
0010
0100
1000
0100
1000
0010
,
0100
0001
0010
0001
0100
0001
1000
0001
1000
0001
1000
0001
1000
0001
0100
0010
,
1000
0100
0010
0100
1000
0010
0100
0010
0100
0010
0100
0010
0100
0010
0100
0001
,
0010
0100
1000
0100
0010
0100
0010
0100
1000
0010
0100
0001
0010
0001
0010
0001
,
0100
0010
1000
0100
0010
0100
1000
0010
0100
0001
0100
0001
0010
0100
1000
0010
,
0100
0010
1000
0100
0010
0100
0010
0001
1000
0100
1000
0100
0010
0100
1000
0001
,
0100
0010
1000
0001
0010
0100
0010
0100
0010
0100
0010
0100
1000
0100
1000
0001
,
0100
0010
1000
0010
0100
0001
0010
0001
0100
0010
1000
0100
1000
0001
0010
0001
,
0100
0010
1000
0001
0010
0001
0100
0010
1000
0001
1000
0001
1000
0100
0010
0001
,
0100
0010
1000
0100
0010
0001
1000
0001
1000
0001
1000
0001
1000
0001
0100
0010
,
1000
0100
0010
0100
1000
0010
0100
0010
0100
0001
0100
0001
0100
0001
1000
0001
,
1000
0001
0100
0000
0001
1000
0100
0000
,
1000
0001
0100
0010
1000
0000
0010
0100
,
0001
1000
0200
0000
0000
0000
0300
0010
,
0001
1000
0002
0000
0000
0000
0003
0000
,
1000
0010
0100
0000
0001
1000
0100
0000
,
0010
0001
2000
0000
0000
0000
0000
3000
,
0001
0100
0010
0000
1000
0100
0010
0000
,
0001
0100
0020
0000
0000
0000
0000
0030
,
1000
0001
0100
0000
0010
1000
0001
0000
,
0010
0100
2000
0000
0000
0000
3000
0000
,
0100
0010
0001
0010
0100
1000
0001
0100
,
0010
0000
0000
1000
0000
0000
0001
0000
0000
0100
0000
0000
0001
0100
0010
1000
0001
1000
0001
0000
0000
0000
0000
0000
,
1000
0100
0010
0100
1000
0001
1000
0001
0100
0001
0010
0100
1000
0001
1000
0001
,
0100
0010
1000
0100
1000
0010
0100
0001
0010
0001
0010
0001
0100
0010
1000
0100
,
1000
0001
0010
0100
0010
0001
1000
0010
1000
0001
0100
0010
0100
0001
0100
0010
,
1000
0100
0010
0001
1000
0010
0100
0001
1000
0001
1000
0010
1000
0010
1000
0001
,
0100
0010
1000
0100
0010
0001
0010
0001
0100
0010
1000
0001
0010
0001
0010
0100
,
1000
0010
0100
0001
1000
0100
0010
0001
1000
0001
1000
0010
0100
0001
1000
0100
,
0010
0001
0100
0010
1000
0001
0100
0010
1000
0010
0100
0001
1000
0100
0010
0001
,
1000
0001
0100
0010
1000
0001
0100
0010
0100
0001
1000
0100
1000
0001
0010
0100
,
1000
0100
1000
0001
0100
0001
0100
0010
1000
0100
0010
0001
0100
0001
0100
0010
,
0100
0010
1000
0100
0010
0001
1000
0100
1000
0001
1000
0001
1000
0010
0100
0001
,
0100
0010
1000
0001
1000
0001
0100
0010
0100
0001
1000
0010
1000
0010
1000
0001
,
0010
0100
0010
0001
0100
0010
1000
0001
1000
0010
1000
0100
1000
0001
1000
0001
,
1000
0010
0100
0001
0010
0100
0010
0100
0010
0001
0100
0010
1000
0100
1000
0100
,
1000
0010
0100
0001
1000
0001
0010
0100
1000
0010
1000
0010
1000
0001
1000
0010
,
0100
0001
0100
0010
1000
0001
0010
0001
0010
0100
0010
0001
0010
0001
1000
0010
,
1000
0001
0100
0010
0100
0001
1000
0100
0010
0001
1000
0001
0100
0001
1000
0010
,
0100
0001
0001
0001
1000
0100
0100
0100
,
1000
0010
0010
0010
1000
0001
0001
0001
,
1000
0100
0100
0100
0010
0001
0001
1000
,
0010
0100
0100
0100
0001
1000
1000
0001
,
0010
0100
0100
0100
0010
0001
0001
0001
,
1000
0010
0010
0010
0100
0001
0001
0001
,
1000
0100
0100
0100
0010
0001
0001
1000
,
0010
0100
0100
0100
0001
1000
1000
0100
,
0010
0001
0100
0000
0010
1000
0100
0000
,
0010
0001
0200
0000
0000
0000
0000
0000
,
0310
0100
0001
0000
0010
0100
1000
0000
,
0010
0100
0002
0000
0000
0000
0000
0000
,
1003
0100
0010
0000
0001
0100
0010
0000
,
1000
0100
0020
0000
0000
0000
0000
0000
,
0031
0100
0010
1000
0100
0010
0001
0100
,
0010
0000
1000
0000
0100
0000
0010
0000
0001
0000
0100
0000
0010
1000
0000
0001
,
1000
0001
0000
0001
1000
0100
0000
0100
,
1000
0001
0010
0010
01M0
0000
0000
0000
,
1000
0001
0100
0010
1000
0001
1000
0001
0010
0100
1000
0001
0100
0010
1000
0010
,
0100
0001
0010
0100
1000
0010
0100
0001
0010
0001
0010
0001
1000
0100
0010
0001
,
1000
0001
0100
0010
1000
0001
0100
0001
1000
0100
0010
0001
1000
0001
1000
0001
,
0100
0010
1000
0100
0010
0001
1000
0010
0100
0001
1000
0001
1000
0001
1000
0010
,
0100
0001
1000
0100
0010
0001
1000
0001
0100
0010
1000
0100
0010
0001
1000
0100
,
1000
0010
0100
0001
0010
0100
1000
0010
0100
0001
0100
0001
0010
0100
1000
0100
,
0010
0001
1000
0001
0100
0010
1000
0001
0100
0001
0100
0001
0100
0001
1000
0100
,
0010
0100
1000
0001
0100
0010
0100
0010
1000
0010
1000
0010
1000
0010
1000
0010
,
0100
0001
0010
0100
1000
0001
1000
0001
0100
0010
1000
0100
0010
0100
0010
0100
,
1000
0010
0100
0001
0010
0100
1000
0001
0010
0001
0010
0001
1000
0010
0100
0010
,
1000
0100
0010
0100
1000
0001
1000
0001
0100
0001
1000
0001
1000
0001
0100
0001
,
1000
0010
0100
0010
1000
0010
1000
0100
0010
0100
0010
0100
0010
0100
0010
0100
,
1000
0010
0100
0001
0010
0100
1000
0100
1000
0010
0100
0001
0010
0100
1000
0100
,
1000
0010
0100
0001
0010
0100
1000
0010
0100
0001
0100
0001
0010
0001
0100
0010
,
1000
0100
0010
0100
1000
0001
1000
0001
0010
0001
0100
0001
1000
0001
1000
0100
,
0010
0100
1000
0010
0100
0001
0100
0001
0010
0001
0100
0001
0100
0001
0100
0001
,
1000
0100
0010
0100
1000
0001
1000
0001
0100
0010
1000
0001
0100
0001
0100
0001
,
1000
0100
0010
0001
1000
0001
1000
0001
0010
0001
1000
0001
0100
0001
0100
0001
,
1000
0100
0010
0100
1000
0010
0100
0001
0010
0001
0100
0010
1000
0100
0010
0100
,
1000
0010
0100
0001
1000
0100
0010
0100
1000
0001
1000
0001
1000
0001
1000
0010
,
0100
0001
1000
0100
0010
0100
1000
0100
0010
0001
1000
0001
1000
0001
0010
0001
,
1000
0010
0100
0010
1000
0001
0100
0001
0010
0100
1000
0100
1000
0001
0100
0010
,
1000
0001
0010
0100
1000
0001
0100
0010
,
1000
0000
0000
0001
0000
0000
0010
0000
0000
0001
0000
0000
1000
0100
0010
0001
0100
0010
1000
0000
0000
0000
0000
0000
,
0001
0100
0010
1000
0001
0100
0001
0100
0001
1000
0100
0010
0100
1000
0100
1000
,
0001
0100
0010
1000
0001
0010
0100
1000
0001
0100
0001
0100
0001
1000
0010
0100
,
0010
1000
0100
0010
0100
1000
0001
1000
0001
0100
0001
1000
0001
1000
0001
1000
,
0100
0010
0100
1000
0010
0100
0001
0010
0100
1000
0100
1000
0001
1000
0001
1000
,
0001
0100
0010
1000
0001
0100
0001
0100
0001
1000
0100
0010
0100
1000
0100
1000
,
0001
0100
0010
1000
0001
0010
0100
1000
0010
0100
0010
0100
0010
1000
0001
0010
,
0100
1000
0100
0010
0001
1000
0001
0100
0001
1000
0100
1000
0100
1000
0001
0100
,
0010
1000
0010
0100
0001
1000
0001
1000
0100
0010
0100
1000
0100
1000
0100
1000
,
0001
0100
0010
1000
0100
0010
0100
0010
0001
1000
0010
1000
0100
0010
0100
0010
,
0001
1000
0010
0100
0001
0010
0100
1000
0001
0100
0001
0100
0010
1000
0001
0010
,
0100
1000
0010
0100
0001
1000
0001
1000
0001
0100
0001
1000
0001
1000
0100
0010
,
0100
1000
0010
0100
0001
0010
0100
1000
0010
1000
0100
1000
0100
1000
0100
0010
,
0100
1000
0001
0100
0010
0100
0010
1000
0100
0010
0001
0100
0010
0100
0010
1000
,
0100
0010
0100
1000
0010
0100
0001
0010
0100
1000
0100
1000
0010
1000
0001
0100
,
0010
0100
0001
1000
0100
0010
0100
1000
0001
0100
0001
1000
0010
0100
0010
1000
,
0100
1000
0001
0010
0100
1000
0100
0010
0002
0000
0000
0000
0000
0000
0000
0000
,
0003
1000
1000
1000
0001
0010
0010
0010
,
0001
0100
0100
0100
0001
1000
1000
1000
,
0001
0010
0010
0010
0100
1000
1000
0001
,
0100
0010
0010
0010
1000
0001
0001
1000
,
0100
0010
0010
0010
0100
1000
1000
1000
,
0001
0100
0100
0100
0010
1000
1000
1000
,
0001
0010
0010
0010
0100
1000
1000
0001
,
0100
0010
0010
0010
1000
0001
0001
0010
,
0100
1000
0010
0000
0100
0001
0010
0000
,
0100
1000
0020
0000
0000
0000
0000
0000
,
0130
0010
1000
0000
0100
0010
0001
0000
,
0100
0010
2000
0000
0000
0000
0000
0000
,
3001
0010
0100
0000
1000
0010
0100
0000
,
0001
0010
0200
0000
0000
0000
0000
0000
,
1300
0010
0100
0001
0010
0100
1000
0010
,
0100
0000
0001
0000
0010
0000
0100
0000
1000
0000
0010
0000
0100
0001
0000
1000
,
0001
1000
0000
1000
0001
0010
0000
0010
,
0001
1000
0100
0100
0100
0000
1000
0000
;
