#TITLE:Ajuga;
#SUBTITLE:;
#ARTIST:you;
#TITLETRANSLIT:;
#SUBTITLETRANSLIT:;
#ARTISTTRANSLIT:;
#CREDIT:;
#BANNER:ajuga bn.png;
#BACKGROUND:ajuga bg.png;
#LYRICSPATH:;
#CDTITLE:;
#MUSIC:Ajuga.ogg;
#OFFSET:0.009;
#SAMPLESTART:80.640;
#SAMPLELENGTH:15.359;
#SELECTABLE:YES;
#BPMS:0.000=250.000;
#STOPS:;
#BGCHANGES:;
// cache tags:
#FIRSTBEAT:60.000;
#LASTBEAT:576.250;
#SONGFILENAME:Songs/SPEEEDCOOOORE 4/Ajuga - [CondorTalon]/Ajuga.sm;
#HASMUSIC:1;
#HASBANNER:1;
#MUSICLENGTH:144.246;
// end cache tags

//---------------dance-single - CondorTalon----------------
#NOTES:
     dance-single:
     CondorTalon:
     Challenge:
     16:
     1.000,1.000,0.915,0.042,0.735,878.000,132.000,6.000,2.000,0.000:
0000
0000
0000
0000
,
0000
0000
0000
0000
,
0000
0000
0000
0000
,
0000
0000
0000
0000
,
0000
0000
0000
0000
,
0000
0000
0000
0000
,
0000
0000
0000
0000
,
0000
0000
0000
0000
,
0000
0000
0000
0000
,
0000
0000
0000
0000
,
0000
0000
0000
0000
,
0000
0000
0000
0000
,
0000
0000
0000
0000
,
0000
0000
0000
0000
,
0000
0000
0000
0000
,
2002
0000
0000
0000
0000
3003
0100
0000
,
1001
1100
0110
0011
,
1001
1010
0101
0110
,
1001
1100
0011
1001
,
1100
0000
0101
0000
1001
0000
1000
0100
,
0110
0011
1001
0110
,
1001
0000
1100
0000
0100
0010
0001
1000
,
1001
0000
0000
0000
0101
0000
0000
0000
0110
0000
0000
0010
0000
0000
1000
0000
,
1010
0000
0000
0000
1001
0000
0000
0000
0001
0000
0001
0000
1000
0010
0100
0010
,
2000
0000
0000
3000
1001
0000
0011
0000
,
0110
0000
1001
0000
0101
0000
0100
0001
,
0010
0000
0001
0000
1001
0000
0000
0000
1010
0000
0000
1000
0000
0000
0001
0000
,
0011
0000
1010
0000
0101
0000
0100
0010
,
1010
0000
0000
0000
1100
0000
0000
0000
1001
0000
0000
0000
0001
0010
0100
0000
,
1000
0001
0000
1000
1010
0000
1001
0000
,
0101
0000
0110
0000
0010
1000
1001
0000
,
0001
0010
0100
1000
0100
0000
1000
0000
0001
0000
0100
0000
0010
1000
0001
0010
,
0001
0000
1000
0000
0010
0000
0000
0000
0100
0001
1000
0100
0010
0000
0001
0000
,
0000
4000
3010
0000
0010
0000
0100
0001
,
1000
0100
0010
0001
1000
0001
0100
0010
1000
0001
0100
0001
1000
0000
0010
1000
,
0004
0000
0103
0010
1000
0001
1000
0100
,
0010
0100
1000
0001
1000
0010
0100
0001
4000
0000
3100
0000
0010
0000
0100
0000
,
1000
0000
0001
0000
0000
0000
0100
0000
0000
0000
0010
0000
1000
0100
0010
0001
,
1000
0001
0100
0000
0040
0000
1030
0100
,
0010
0100
1000
0001
0000
0100
0040
0000
,
1030
0000
0100
0000
0010
0000
0001
0000
0000
0000
0000
0000
0100
0010
1000
0001
,
0010
0400
1300
0000
0004
0103
0040
0430
,
0301
0000
0000
0000
1000
0000
0000
0000
0100
0010
0001
1000
0001
0000
0100
0001
,
4000
0000
0000
0000
3100
0000
0010
0000
0100
0000
0010
0000
0001
1000
0010
1000
,
0010
0000
0100
0001
1000
0000
0040
0000
0000
0000
1030
0001
0010
0000
0100
0000
,
1000
0000
0001
0000
0100
0000
0000
0000
0010
0000
1000
0000
0001
0000
1000
0001
,
1000
0000
0000
0000
0100
0000
0000
0000
0010
0001
0010
0000
0001
0000
1000
0010
,
1000
1000
0100
0010
,
0001
0010
0001
0010
0100
1000
0100
1000
,
0001
0100
0010
0100
0001
1000
0010
1000
,
0001
0010
0100
1000
0100
0010
0001
0010
,
0001
1000
0010
0100
0001
1000
0100
0010
,
0001
0010
0100
1000
0001
0100
0010
0100
,
0001
1000
0001
1000
0100
0010
0001
0010
,
0100
1000
0001
0100
0010
1000
0100
1000
,
0010
1000
0001
0010
0100
0010
0001
0100
,
0001
0010
0100
1000
,
0010
0100
0010
1000
,
0001
0010
0100
0010
,
0001
1000
0010
0100
,
0001
0010
0001
1000
,
0010
1000
0010
0100
,
0001
0010
0100
1000
,
0100
0010
0001
1000
,
0001
1000
0010
0100
,
0101
0001
0010
0100
,
1000
0001
0100
0010
,
1010
1000
0100
0010
,
0001
1000
0010
0100
,
0101
0001
0010
0100
,
1000
0001
1000
0100
,
0110
0010
0001
1000
,
0010
0100
0001
0100
,
0110
0010
1000
0100
,
0010
0001
1000
0001
,
1001
1000
0010
1000
,
0100
0000
0010
0000
0010
0000
0001
1000
,
0000
0001
0100
0000
0010
0000
1000
0100
,
0010
0000
0001
0000
0001
0000
1000
0001
,
0MM0
1000
0001
0000
1000
0000
1100
0000
,
0011
1001
1010
0011
,
0110
1001
1010
0110
,
0101
1100
0011
0101
,
1010
0000
0011
0000
1001
0000
1000
0100
,
1100
1001
0110
1001
,
0101
0000
1100
0000
1000
0010
0100
0010
,
1010
0000
0000
0000
0011
0000
0000
0000
0110
0000
0000
0100
0000
0000
1000
0000
,
1001
0000
0000
0000
0011
0000
0000
0000
0001
0000
0001
0000
1000
0100
0010
0001
,
2000
0000
0000
3000
1001
0000
0101
0000
,
0000
0000
0110
0000
1001
0000
0001
0010
,
0100
0000
0010
0000
0011
0000
0000
0000
1001
0000
0000
1000
0000
0000
0010
0000
,
1010
0000
0011
0000
0101
0000
0100
0001
,
1001
0000
0000
0000
0110
0000
0000
0000
1001
0000
0000
0000
0001
1000
0010
0000
,
1000
0010
0000
0100
0101
0000
1100
0000
,
0110
0000
0011
0000
0001
1000
1001
0000
,
0001
0010
0100
1000
0100
0000
1000
0000
0001
0000
0100
0000
0010
1000
0001
0010
,
0100
0000
0010
0000
0001
0000
0000
0000
0100
0001
1000
0100
0010
0000
0100
0000
,
0000
4000
3001
0000
0001
0000
0100
0001
,
1000
0100
0010
0100
1000
0001
0100
0001
0100
0010
0100
0001
1000
0000
0100
0010
,
0004
0000
0103
0010
1000
0010
1000
0100
,
1000
0001
1000
0010
0100
0001
1000
0100
0040
0000
0031
0000
1000
0000
0001
0000
,
0100
0000
0010
0000
0000
0000
1000
0000
0000
0000
0100
0000
0010
0001
1000
0010
,
0100
0001
0100
0000
0004
0000
1003
0010
,
0100
0010
1000
0001
0000
1000
0400
0000
,
1300
0000
0001
0000
0100
0000
0010
0000
0000
0000
0000
0000
1000
0010
1000
0001
,
1000
0400
0310
0000
0004
1003
0004
4003
,
3100
0000
0000
0000
0010
0000
0000
0000
0001
1000
0001
0010
0100
0000
1000
0001
,
0400
0000
0000
0000
0310
0000
1000
0000
0001
0000
1000
0000
0001
0010
0001
1000
,
0010
0000
0100
0001
1000
0000
0400
0000
0000
0000
0310
0001
0010
0000
0001
0000
,
1000
0000
0004
0000
0000
0000
0103
0000
0000
0000
0010
0000
1000
0001
0010
0100
,
1000
0000
0040
0000
0000
0000
0000
0000
1030
0001
1000
0000
0010
0000
1000
0100
,
1000
0100
0010
0000
0001
0000
1000
0000
,
0001
0000
0010
0000
0100
0000
0000
0000
1000
0001
1000
0010
0100
0000
0001
0000
,
0000
0040
0130
0000
0100
0000
1000
0001
,
1000
0010
0100
0010
1000
0001
0010
0100
0010
0001
1000
0010
1000
0000
0001
0010
,
0400
0000
1300
0001
1000
1000
0010
0010
,
1000
0001
0010
0100
0010
0001
1000
0001
0400
0000
0301
0000
1000
0000
0010
0000
,
1000
0000
0001
0000
0000
0000
0010
0000
0000
0000
0100
0000
1000
0001
0100
0010
,
1000
0001
0010
0000
0400
0000
1300
0001
,
0010
0100
0010
0001
0000
1000
0040
0000
,
0130
0000
0001
0000
1000
0000
0001
0000
0000
0000
0000
0000
0010
0100
1000
0100
,
0010
0004
0103
0000
0004
1003
0400
0340
,
0130
0000
0000
0000
1000
0000
0000
0000
0001
0100
0001
0100
0010
0000
1000
0001
,
0040
0000
0000
0000
0130
0000
1000
0000
0010
0000
1000
0000
0100
0010
0001
1000
,
0001
0000
0100
0010
1000
0000
0004
0000
0000
0000
0013
0100
1000
0000
0001
0000
,
0100
0000
0004
0000
0000
0000
1003
0000
0000
0000
0100
0000
1000
0001
0100
0001
,
1000
0000
0004
0000
0000
0000
0000
0000
0013
0100
1000
0000
0001
0000
1000
0000
,
0040
0030
0000
0000
0000
0000
0000
0000
0400
0000
0300
0000
0000
0000
0000
0000
0004
0000
0000
0003
0000
0000
0000
0000
0000
0000
0000
0000
0000
0000
0000
0000
0400
0000
0000
0000
0300
0000
0000
0000
0000
0000
0000
0000
0000
0000
0000
0000
0004
0000
0000
0000
0000
0000
0000
0000
0000
0000
0000
0000
0000
0000
0000
0000
,
1003
0100
0010
0001
1000
0001
0100
0010
1000
0001
0010
0100
0010
0001
0010
0100
,
1000
0001
1000
0010
0100
0010
1000
0001
1000
0100
0040
0030
0001
1000
0004
0003
,
1000
0100
1000
0001
0010
0100
1000
0001
0400
0300
0010
1000
0004
0000
0000
0003
,
0010
0100
1000
0100
1000
0001
0010
0001
1000
0010
0100
0001
0100
0010
1000
0001
,
1000
0100
1000
0001
0100
0010
0100
0001
4000
0000
0000
3000
0001
0010
0100
1000
,
0001
0100
0010
0100
0001
1000
0001
1000
0100
0010
0004
0003
1000
0010
0400
0300
,
0001
1000
0001
0010
0100
0010
0004
0003
1000
0010
0100
0001
4000
3000
0100
0010
,
0001
1000
0001
1000
0010
0100
0040
0030
1000
0001
0400
0300
0010
1000
0001
0100
,
0001
1000
0001
0010
0100
1000
0001
0010
0001
1000
0010
1000
0010
0100
0001
1000
,
0001
0010
0100
1000
0100
0010
0100
1000
0001
1000
0040
0030
0100
0001
4000
3000
,
0001
0010
0100
0010
0001
0010
0100
1000
0004
0003
0010
0100
0040
0000
0000
0030
,
0001
1000
0010
1000
0001
0010
0100
0010
0001
1000
0100
0010
0001
0010
0001
1000
,
0010
0100
0001
1000
0001
0010
0100
1000
0004
0000
0000
0003
1000
0010
0100
0001
,
1000
0100
0010
0100
1000
0100
0010
0001
1000
0010
1000
0001
0100
0010
0100
0001
,
4000
0004
0000
0000
0000
0000
0000
0000
3003
0000
0000
0000
1000
0000
0001
0000
,
0000
1000
0000
0010
0000
0100
0000
0001
,
2002
3003
0000
0000
0000
0000
0000
0000
0000
0000
0000
0000
0000
0000
0000
0000
;

//---------------dance-single - CondorTyler----------------
#NOTES:
     dance-single:
     CondorTyler:
     Hard:
     13:
     0.981,1.000,0.936,0.042,0.686,833.000,135.000,6.000,2.000,0.000:
0000
0000
0000
0000
,
0000
0000
0000
0000
,
0000
0000
0000
0000
,
0000
0000
0000
0000
,
0000
0000
0000
0000
,
0000
0000
0000
0000
,
0000
0000
0000
0000
,
0000
0000
0000
0000
,
0000
0000
0000
0000
,
0000
0000
0000
0000
,
0000
0000
0000
0000
,
0000
0000
0000
0000
,
0000
0000
0000
0000
,
0000
0000
0000
0000
,
0000
0000
0000
0000
,
2002
0000
0000
0000
0000
3003
0100
0000
,
1001
1100
0110
0011
,
1001
1010
0101
0110
,
1001
1100
0011
1001
,
1100
0000
0101
0000
1001
0000
1000
0100
,
0110
0011
1001
0110
,
1001
0000
1100
0000
0100
0010
0001
1000
,
1001
0000
0000
0000
0101
0000
0000
0000
0110
0000
0000
0010
0000
0000
1000
0000
,
1010
0000
0000
0000
1001
0000
0000
0000
0001
0000
0001
0000
1000
0010
0100
0010
,
2000
0000
0000
3000
1001
0000
0011
0000
,
0110
0000
1001
0000
0101
0000
0100
0001
,
0010
0000
0001
0000
1001
0000
0000
0000
1010
0000
0000
1000
0000
0000
0001
0000
,
0011
0000
1010
0000
0101
0000
0100
0010
,
1010
0000
0000
0000
1100
0000
0000
0000
1001
0000
0000
0000
0001
0010
0100
0000
,
1000
0001
0000
1000
1010
0000
1001
0000
,
0101
0000
0110
0000
0010
1000
1001
0000
,
0001
0010
0100
1000
0100
0000
1000
0000
0001
0000
0100
0000
0010
1000
0001
0010
,
0001
0000
1000
0000
0010
0000
0000
0000
0100
0001
1000
0100
0010
0000
0001
0000
,
0000
4000
3010
0000
0010
0000
0100
0001
,
1000
0100
0010
0001
1000
0001
0100
0010
1000
0001
0100
0001
1000
0000
0010
1000
,
0004
0000
0103
0010
1000
0001
1000
0100
,
0010
0100
1000
0001
1000
0010
0100
0001
4000
0000
3100
0000
0010
0000
0100
0000
,
1000
0000
0001
0000
0000
0000
0100
0000
0000
0000
0010
0000
1000
0100
0010
0001
,
1000
0001
0100
0000
0040
0000
1030
0100
,
0010
0100
1000
0001
0000
0100
0040
0000
,
1030
0000
0100
0000
0010
0000
0001
0000
0000
0000
0000
0000
0100
0010
1000
0001
,
0010
0400
1300
0000
0004
0103
0040
0430
,
0301
0000
0000
0000
1000
0000
0000
0000
0100
0010
0001
1000
0001
0000
0100
0001
,
4000
0000
0000
0000
3100
0000
0010
0000
0100
0000
0010
0000
0001
1000
0010
1000
,
0010
0000
0100
0001
1000
0000
0040
0000
0000
0000
1030
0001
0010
0000
0100
0000
,
1000
0000
0001
0000
0100
0000
0000
0000
0010
0000
1000
0000
0001
0000
1000
0001
,
1000
0000
0000
0000
0100
0000
0000
0000
0010
0001
0010
0000
0001
0000
1000
0010
,
1000
1000
0100
0010
,
0001
0010
0001
0010
0100
1000
0100
1000
,
0001
0100
0010
0100
0001
1000
0010
1000
,
0001
0010
0100
1000
0100
0010
0001
0010
,
0001
1000
0010
0100
0001
1000
0100
0010
,
0001
0010
0100
1000
0001
0100
0010
0100
,
0001
1000
0001
1000
0100
0010
0001
0010
,
0100
1000
0001
0100
0010
1000
0100
1000
,
0010
1000
0001
0010
0100
0010
0001
0100
,
0001
0010
0100
1000
,
0010
0100
0010
1000
,
0001
0010
0100
0010
,
0001
1000
0010
0100
,
0001
0010
0001
1000
,
0010
1000
0010
0100
,
0001
0010
0100
1000
,
0100
0010
0001
1000
,
0001
1000
0010
0100
,
0101
0001
0010
0100
,
1000
0001
0100
0010
,
1010
1000
0100
0010
,
0001
1000
0010
0100
,
0101
0001
0010
0100
,
1000
0001
1000
0100
,
0110
0010
0001
1000
,
0010
0100
0001
0100
,
0110
0010
1000
0100
,
0010
0001
1000
0001
,
1001
1000
0010
1000
,
0100
0000
0010
0000
0010
0000
0001
1000
,
0000
0001
0100
0000
0010
0000
1000
0100
,
0010
0000
0001
0000
0001
0000
1000
0001
,
0MM0
1000
0001
0000
1000
0000
1100
0000
,
0011
1001
1010
0011
,
0110
1001
1010
0110
,
0101
1100
0011
0101
,
1010
0000
0011
0000
1001
0000
1000
0100
,
1100
1001
0110
1001
,
0101
0000
1100
0000
1000
0010
0100
0010
,
1010
0000
0000
0000
0011
0000
0000
0000
0110
0000
0000
0100
0000
0000
1000
0000
,
1001
0000
0000
0000
0011
0000
0000
0000
0001
0000
0001
0000
1000
0100
0010
0001
,
2000
0000
0000
3000
1001
0000
0101
0000
,
0000
0000
0110
0000
1001
0000
0001
0010
,
0100
0000
0010
0000
0011
0000
0000
0000
1001
0000
0000
1000
0000
0000
0010
0000
,
1010
0000
0011
0000
0101
0000
0100
0001
,
1001
0000
0000
0000
0110
0000
0000
0000
1001
0000
0000
0000
0001
1000
0010
0000
,
1000
0010
0000
0100
0101
0000
1100
0000
,
0110
0000
0011
0000
0001
1000
1001
0000
,
0001
0010
0100
1000
0100
0000
1000
0000
0001
0000
0100
0000
0010
1000
0001
0010
,
0100
0000
0010
0000
0001
0000
0000
0000
0100
0001
1000
0100
0010
0000
0100
0000
,
0000
4000
3001
0000
0001
0000
0100
0001
,
1000
0100
0010
0100
1000
0001
0100
0001
0100
0010
0100
0001
1000
0000
0100
0010
,
0004
0000
0103
0010
1000
0010
1000
0100
,
1000
0001
1000
0010
0100
0001
1000
0100
0040
0000
0031
0000
1000
0000
0001
0000
,
0100
0000
0010
0000
0000
0000
1000
0000
0000
0000
0100
0000
0010
0001
1000
0010
,
0100
0001
0100
0000
0004
0000
1003
0010
,
0100
0010
1000
0001
0000
1000
0400
0000
,
1300
0000
0001
0000
0100
0000
0010
0000
0000
0000
0000
0000
1000
0010
1000
0001
,
1000
0400
0310
0000
0004
1003
0004
4003
,
3100
0000
0000
0000
0010
0000
0000
0000
0001
1000
0001
0010
0100
0000
1000
0001
,
0400
0000
0000
0000
0310
0000
1000
0000
0001
0000
1000
0000
0001
0010
0001
1000
,
0010
0000
0100
0001
1000
0000
0400
0000
0000
0000
0310
0001
0010
0000
0001
0000
,
1000
0000
0004
0000
0000
0000
0103
0000
0000
0000
0010
0000
1000
0001
0010
0100
,
1000
0000
0040
0000
0000
0000
0000
0000
1030
0001
1000
0000
0010
0000
1000
0100
,
1000
0100
0010
0000
0001
0000
1000
0000
,
0001
0000
0010
0000
0100
0000
0000
0000
1000
0001
1000
0010
0100
0000
0001
0000
,
0000
0040
0130
0000
0100
0000
1000
0001
,
1000
0010
0100
0010
1000
0001
0010
0100
0010
0001
1000
0010
1000
0000
0001
0010
,
0400
0000
1300
0001
1000
1000
0010
0010
,
1000
0001
0010
0100
0010
0001
1000
0001
0400
0000
0301
0000
1000
0000
0010
0000
,
1000
0000
0001
0000
0000
0000
0010
0000
0000
0000
0100
0000
1000
0001
0100
0010
,
1000
0001
0010
0000
0400
0000
1300
0001
,
0010
0100
0010
0001
0000
1000
0040
0000
,
0130
0000
0001
0000
1000
0000
0001
0000
0000
0000
0000
0000
0010
0100
1000
0100
,
0010
0004
0103
0000
0004
1003
0400
0340
,
0130
0000
0000
0000
1000
0000
0000
0000
0001
0100
0001
0100
0010
0000
1000
0001
,
0040
0000
0000
0000
0130
0000
1000
0000
0010
0000
1000
0000
0100
0010
0001
1000
,
0001
0000
0100
0010
1000
0000
0004
0000
0000
0000
0013
0100
1000
0000
0001
0000
,
0100
0000
0004
0000
0000
0000
1003
0000
0000
0000
0100
0000
1000
0001
0100
0001
,
1000
0000
0004
0000
0000
0000
0000
0000
0013
0100
1000
0000
0001
0000
1000
0000
,
0040
0030
0000
0000
0000
0000
0000
0000
0400
0000
0300
0000
0000
0000
0000
0000
0004
0000
0000
0003
0000
0000
0000
0000
0000
0000
0000
0000
0000
0000
0000
0000
0400
0000
0000
0000
0300
0000
0000
0000
0000
0000
0000
0000
0000
0000
0000
0000
0004
0000
0000
0000
0000
0000
0000
0000
0000
0000
0000
0000
0000
0000
0000
0000
,
1003
0100
0010
0001
1000
0010
0100
0001
0010
0100
1000
0001
,
1000
0000
0000
0000
0010
0000
0000
0000
0100
0000
0000
0000
0001
0000
0000
0000
0010
0000
0000
0000
0100
0000
0000
0000
1000
0000
0000
0000
0000
0000
0040
0000
0000
0030
0000
0000
0100
0000
0000
0000
0000
0000
0040
0000
0000
0030
0000
0000
,
1000
0000
0001
0000
0010
0000
0100
0000
0010
0000
0001
0000
1000
0000
0000
0010
0000
0000
0400
0000
0000
0000
0000
0000
,
0310
1000
0001
0010
0100
1000
0001
1000
0010
0100
0001
0010
,
0100
1000
0001
0100
0010
1000
0400
0000
0000
0310
0001
1000
,
0010
0000
0000
0000
0100
0000
0000
0000
0001
0000
0000
0000
1000
0000
0000
0000
0100
0000
0000
0000
0010
0000
0000
0000
0001
0000
0000
0000
0000
0000
0400
0000
0000
0300
0000
0000
0010
0000
0000
0000
0000
0000
0400
0000
0000
0300
0000
0000
,
0001
0000
0000
0000
1000
0000
0000
0000
0100
0000
0000
0000
0010
0000
0000
0000
0000
0000
0004
0000
0000
0003
0000
0000
0010
0000
0000
0000
0100
0000
0000
0000
1000
0000
0000
0000
0004
0000
0000
0003
1000
0000
0000
0000
0100
0000
0000
0000
,
0010
0000
0000
0000
0001
0000
0000
0000
1000
0000
0000
0000
0010
0000
0000
0000
0000
0000
0400
0000
0000
0300
0000
0000
0001
0000
0000
0000
0000
0000
0400
0000
0000
0300
0000
0000
0010
0000
0000
0000
1000
0000
0000
0000
0001
0000
0000
0000
,
0010
0100
1000
0010
0100
0001
0010
0100
1000
0001
0100
0010
,
1000
0000
0000
0000
0001
0000
0000
0000
0010
0000
0000
0000
0100
0000
0000
0000
1000
0000
0000
0000
0010
0000
0000
0000
0100
0000
0000
0000
0000
0000
0004
0000
0000
0003
0000
0000
1000
0000
0000
0000
0000
0000
0004
0000
0000
0003
0000
0000
,
0100
0010
1000
0100
0010
0001
0100
0010
1000
0004
0000
0000
,
1003
0010
0100
0001
1000
0100
0010
0100
1000
0001
1000
0010
,
0100
0001
0010
0100
0010
0001
4000
0000
0000
3001
0010
0100
,
1000
0001
0100
0010
0100
0001
1000
0100
0010
0001
0100
0010
,
1000
0000
0100
0000
0010
0000
0001
1000
,
0000
0010
0000
0100
0000
0001
0000
1000
,
2002
3003
0000
0000
0000
0000
0000
0000
0000
0000
0000
0000
0000
0000
0000
0000
;
