#TITLE:Over The Hills and Far Away;
#SUBTITLE:Over the Hills and Far Away (2001);
#ARTIST:NightWish;
#TITLETRANSLIT:;
#SUBTITLETRANSLIT:;
#ARTISTTRANSLIT:;
#CREDIT:;
#BANNER:Banner.JPG;
#BACKGROUND:4774_Nightwish-Over_The_Hills_And_Far_Away-Front.jpg;
#LYRICSPATH:;
#CDTITLE:Afro-cdtitle.png;
#MUSIC:Over the hills and far away.mp3;
#OFFSET:0.040;
#SAMPLESTART:99.980;
#SAMPLELENGTH:11.880;
#SELECTABLE:YES;
#BPMS:0.000=135.500,61.000=135.800,259.500=135.700,259.875=135.800,304.000=135.480,383.000=137.180,399.000=135.480,454.000=136.000,493.000=135.460,494.333=135.400,495.000=136.060,505.000=136.321,516.000=137.901,528.000=136.481,532.000=136.481,584.000=136.000;
#STOPS:;
#BGCHANGES:;
// cache tags:
#FIRSTBEAT:1.000;
#LASTBEAT:598.000;
#SONGFILENAME:Songs/Astronomic Metal Collection/OTHAFA (leadafro)/01 Track 1.sm;
#HASMUSIC:1;
#HASBANNER:1;
#MUSICLENGTH:303.546;
// end cache tags

//---------------dance-single - ----------------
#NOTES:
     dance-single:
     :
     Challenge:
     11:
     1.000,1.000,1.000,0.026,1.000,1353.000,769.000,8.000,0.000,3.000:
0000
0000
0000
1000
0100
0010
1001
0010
1000
0100
0001
0010
,
0101
1000
0100
0001
0010
0100
1010
0100
0010
1000
0010
0100
,
1010
0100
0010
0001
0100
0010
1100
0010
0001
0010
1000
0010
,
1001
0010
1000
0001
0100
0010
1100
0010
0100
1000
0010
0001
,
1100
0001
0010
0100
1000
0001
1100
0010
0001
0010
1000
0010
,
1001
0010
1000
0001
0100
0010
1100
0010
0100
1000
0010
0001
,
1100
0001
0010
0100
1000
0001
1100
0001
0010
0100
0010
0001
,
0110
1000
0010
0001
0010
1000
0011
0100
0010
1000
0010
0100
,
1001
0010
0001
1000
0001
0010
0101
1000
0001
0100
0001
0010
,
1100
0001
1000
0010
0100
0001
1100
0001
1000
0010
0100
0001
,
1010
0100
1000
0001
1000
0010
0101
1000
0100
0010
0001
1000
,
0101
0010
0100
1000
0001
0100
0011
1000
0010
0100
0001
0010
,
1010
0100
1000
0001
1000
0010
0101
1000
0100
0010
0001
1000
,
0101
0010
0100
1000
0001
0100
0011
1000
0010
0100
0001
0010
,
1010
0100
1000
0001
1000
0010
0101
1000
0100
0010
0001
1000
,
0101
0010
0100
1000
0101
1010
0011
1100
0011
1100
0011
0110
,
1100
0110
0011
1001
0100
0100
0010
0100
0100
1000
0100
0100
,
0010
0001
1001
1001
0010
0010
0100
1000
1000
0010
0001
0100
,
0011
1000
0100
0011
0100
0100
0010
0001
0001
0010
0100
0100
,
1001
0010
0010
1000
1000
0100
0100
0010
0001
0010
1000
0010
,
0001
0010
0100
1001
0100
0100
0001
0001
1000
1000
0001
0010
,
1001
0100
0010
0101
0010
1000
1000
0100
0001
0001
0100
0100
,
1001
0010
0100
0011
1000
1000
0100
0100
1000
0100
0001
0001
,
0110
1000
0100
0011
0110
1100
1001
0011
0110
1100
0110
0011
,
0110
1100
0110
1001
0000
0000
1000
0000
0000
0110
0000
1100
,
0110
0000
0000
0110
0000
0000
1100
0000
0000
0011
0000
1100
,
0011
0000
0000
1001
0000
0110
1001
0000
0000
1010
0000
0101
,
1010
0000
0000
0110
0000
1100
0011
0000
0000
0110
0000
0101
,
1010
0000
0011
1001
0000
0000
1001
0000
0000
1100
0000
0011
,
1010
0000
0000
1001
0000
0000
0011
0000
0000
1100
0000
0011
,
0101
0000
0101
1010
0000
0000
1001
0000
0000
1001
0000
0000
,
0101
0000
0000
1001
0000
0000
1000
0100
0010
0001
0110
0011
,
1100
0110
0011
0110
0000
0000
1100
0000
0000
1001
0000
0011
,
0101
0000
0000
1001
0000
1010
0101
0000
0000
1100
0000
0110
,
1001
0000
1001
0110
0000
0000
1100
0000
0000
0011
0000
1100
,
1001
0000
0000
1100
0000
0000
1001
0000
0000
0110
0000
1010
,
0011
0000
0011
1010
0000
0000
1001
0000
0000
0011
0000
0110
,
1001
0000
0000
0011
0000
0000
0101
0000
0000
1100
0000
1010
,
0101
0000
0110
1001
0000
0000
1001
0000
0000
0011
0000
0000
,
1001
0000
0000
0000
0000
0000
1000
0010
0100
0001
1100
0000
0110
0000
0011
0000
0110
0000
1100
0000
0011
0000
0110
0000
,
1100
0011
0110
1001
0000
0000
1001
0000
0000
1001
0000
1010
,
0101
1010
0000
1001
0000
1100
1001
1100
0000
0011
0000
0110
,
1001
0110
1000
1001
0000
0000
0011
0000
0000
1001
0000
0110
,
1100
0011
0000
1100
0000
0000
1001
0000
0011
1010
0000
0010
,
0101
1100
0110
1001
0000
0000
1100
0000
0000
1001
0000
0101
,
1100
1001
0000
0101
0000
0000
1001
0000
0000
1100
0000
1010
,
0101
1010
0000
1001
0000
0000
0110
0000
0000
1001
0000
0110
,
1100
0110
0000
1100
0000
0000
1001
0000
0000
1001
0110
1100
,
0110
1001
0110
0011
1000
1000
0101
0010
0010
0100
1000
1000
,
0110
0001
0001
0010
1001
0110
1001
0110
1001
0110
1001
1100
,
0110
0011
1100
0110
0000
0000
0011
0000
0000
1100
0000
0011
,
0110
0000
0011
1001
0000
1100
1001
0000
0000
1001
0000
1100
,
0101
0000
0011
1010
0000
0101
1010
0011
0000
1001
0000
0110
,
1001
0110
0000
1001
0000
0011
1100
0011
0001
1000
0100
0001
,
0010
0100
0010
1001
0000
1100
0011
0000
0011
1010
0000
1100
,
0110
1001
0000
0011
0000
1100
0110
1001
0000
1010
0000
0110
,
0011
1100
0000
1001
0000
0011
0101
1010
0000
1001
0000
1001
,
1010
1100
0011
1100
0000
1100
1001
0011
0100
1100
0110
0011
,
0110
1100
0101
1100
0000
0000
1100
0000
0000
1001
0000
0011
,
1100
0000
0000
1001
0000
0000
1001
0000
0000
1001
0000
1100
,
0011
0000
0011
1100
0000
0000
1001
0000
0000
0011
0000
0110
,
1001
0000
0000
1010
0000
0011
1001
0000
0000
1100
0000
1100
,
1010
0100
0010
1001
0000
0000
0011
0000
0000
1001
0000
0101
,
1100
0000
0000
1010
0000
1001
0101
0000
0000
1010
0000
0101
,
1010
0010
0110
0011
0000
0000
1010
0000
1010
0101
0000
0000
,
1001
0000
0101
1010
0011
0110
1100
0011
0101
1100
0011
0110
,
1100
0110
0011
1001
0000
0000
0101
0000
1010
0101
0000
0101
,
1100
0110
0000
0101
0000
0011
0110
0000
0000
1100
0000
1010
,
1100
0110
0000
1001
0000
0101
0011
0000
0110
1010
0000
1001
,
1010
0110
0000
1001
0000
1001
0011
0000
1010
0011
0000
1001
,
0110
0011
0100
1001
0000
0000
0110
0000
0000
1100
0000
1010
,
0110
0101
0000
1001
0000
0000
1001
0000
0000
0011
0000
1001
,
0110
1001
0000
1010
0000
0000
0101
0000
0000
0110
0000
1100
,
0011
0110
0000
1001
0000
1100
0011
0000
0000
1100
0000
0011
,
1010
0101
0010
1001
0000
1001
0101
0101
0101
1001
0000
1001
,
1010
1010
1010
1001
0000
1001
0110
0110
0110
1001
0010
0100
,
1001
0010
0100
0010
1000
0100
0011
1000
0001
0010
1000
0100
,
0011
0100
1000
0001
0100
0010
0101
0010
0100
1000
0100
0001
,
1100
0010
0001
1000
0100
0001
0110
1000
0100
0001
0100
1000
,
0101
0010
1000
0001
1100
0011
1100
0110
0011
1001
0010
0100
,
1001
0010
0100
1000
0001
0010
1100
0001
0010
0100
1000
0001
,
1010
0100
0010
0001
1000
0010
0101
1000
0010
1001
1001
0011
,
0000
0101
0000
1010
1010
0000
0110
0011
0110
1001
0000
0110
,
1001
0000
1100
0110
0011
1100
0011
0110
1100
1001
0010
0010
,
1001
0100
0100
0010
0001
0001
1010
0100
0100
0001
0010
0010
,
1001
0100
0100
0001
0110
0010
1100
0001
0001
1000
0100
0100
,
0011
1000
1000
0001
0010
0010
1001
0100
0100
1000
0100
0010
,
1001
0010
0100
0010
0011
0010
1001
0010
0100
1001
0110
0110
,
1001
1010
1010
0101
0011
0011
0110
1001
1001
0011
1100
1100
,
0110
0101
0101
1010
0110
0110
1001
0011
0011
1001
0110
0110
,
1010
0101
0101
1001
0110
0110
0011
1100
1100
0101
1010
1010
,
1001
0011
0011
1100
0101
0101
1010
0110
0110
1000
1000
0100
,
0010
0000
0100
0010
1000
0001
0100
0010
1000
0011
0110
0011
,
1100
0000
0010
0100
1000
0010
1000
0000
0000
0001
0100
0010
,
1000
0000
0001
0010
0100
1000
0010
1000
0001
1000
0100
1000
,
0100
0010
0001
1000
0001
0010
0010
0000
0100
1001
0100
0100
,
0011
1000
1000
0100
0010
0010
1001
0100
0100
0001
0010
0010
,
1100
0001
0001
0010
0100
0100
0011
0000
0000
1001
0011
0011
,
0100
0011
1100
0110
0011
1001
0011
0110
1100
1001
1100
0110
,
0011
1100
0110
1100
0011
1100
0011
0110
1100
1001
0001
0010
,
1001
0010
0001
0100
1000
0001
1010
0100
0010
0002
0013
0100
,
1001
0000
0000
0000
0010
0000
0000
0000
0100
0000
0000
0000
2000
0000
0000
0000
0000
0000
0000
0000
0000
0000
0000
0000
3001
0100
1000
0001
0200
0000
0300
0000
0000
0000
0000
0000
0001
0000
0010
0000
0100
0000
1000
0000
0001
0000
0100
0000
,
0010
1000
0001
0010
0100
1000
0001
0100
0010
1000
0001
0010
0100
1000
0001
0100
0010
1000
0001
0010
0100
1000
0001
0100
,
0010
1000
0001
0010
0100
1000
0002
0000
0000
0000
0000
0000
0000
0000
0000
0000
0000
0000
0103
0000
0100
0000
0101
0000
,
0010
0010
0000
1001
0010
0010
1100
0010
0010
1001
0100
0100
,
0011
0000
1000
0000
1000
0000
0201
0000
0000
0000
0000
0000
0001
0000
0010
0000
0300
0000
0001
0010
1000
0001
0010
1000
,
0001
0100
1000
0001
0010
1000
0001
0010
1000
0001
0010
1000
0001
0100
1000
0001
0100
1000
0002
0000
0010
0000
0010
0000
,
0010
0000
0010
0000
0010
0003
0011
0000
0110
0000
1100
0000
0110
0000
1001
0000
0000
0000
1000
0000
0100
0000
0001
0000
,
1100
0010
0100
0010
1000
0100
1010
0001
1000
0001
0100
0010
,
1001
0010
0100
1000
0001
0100
0011
1000
0011
1001
0100
0010
,
1001
0010
1000
0010
0001
0100
0011
1000
0010
0011
0011
0011
,
1010
1010
1010
0101
0101
0101
1001
1001
1001
0100
0010
1000
,
0011
0100
0010
1000
0001
1000
0110
0001
0100
0010
1000
0010
,
0101
0010
1000
0010
0100
0010
1001
0010
1001
1000
1001
1001
,
1001
0000
0011
0011
0011
0000
1010
1010
1010
0000
0101
0101
,
0101
0010
1001
1001
1001
0100
0010
0001
0010
1001
0000
0000
,
0010
0000
1000
0001
0000
0000
0011
0000
0000
1001
0000
0000
,
0010
0000
0000
1010
0000
0000
0000
0000
1000
0100
0000
0000
,
0001
1100
0011
1100
,
1001
0000
0000
0101
0000
0000
0000
0000
1000
0010
0000
0000
,
0001
0000
0100
1001
0000
0000
1000
0000
0000
0110
0000
0000
,
1001
0000
0000
0011
0000
0000
0000
0000
1000
1010
0000
0000
,
0101
0000
0000
0011
0000
0000
1010
0000
0000
0110
1000
0010
,
1001
0010
1000
0110
0001
0010
1100
0000
1100
1100
0000
0000
,
1000
0000
0000
0001
0000
0011
0110
1001
0000
1001
0000
0011
,
1100
0000
0000
1001
0000
0101
0011
1100
0000
1000
0000
0000
,
1001
0000
0000
1001
0000
0101
0011
1100
0000
1100
0000
1100
,
0101
0000
0000
1001
0000
0011
1100
0101
1010
1001
0000
0000
,
1001
0000
0000
1100
0000
0101
0011
1100
0000
1001
0000
0000
,
0011
0000
0000
1000
0000
0011
1010
0101
0000
1001
0000
0000
,
0110
0000
0000
0101
0000
1001
0110
1001
0000
1100
0000
0000
,
0011
0000
0000
1001
1001
0101
1100
0011
0110
1001
0000
0000
,
1001
0000
0000
0011
0000
0101
1010
0101
0000
1100
0000
0000
,
0110
0000
0000
0011
0000
0110
1100
0011
0000
1001
0000
0000
,
0011
0000
0000
1001
0000
1100
0110
0011
0000
1001
0000
0000
,
0101
0000
0000
0011
0000
0011
0110
1100
0011
1001
0000
0000
,
1001
0000
0000
1001
0000
1010
0101
0011
0000
0011
0000
0011
,
0110
1100
0000
1001
0000
1100
0101
0011
0000
0011
0000
0011
,
0110
0000
0000
1001
0000
1100
1001
1100
0000
0011
1100
0011
,
0110
1100
0110
1001
1100
1100
0011
0110
0110
1001
0000
0000
,
1100
0000
0000
1001
0000
1100
1001
0110
0000
1010
0000
0000
,
0101
0000
0000
1001
0000
0110
0011
1001
0000
1100
0000
0000
,
1001
0000
0000
0101
0000
1100
0011
0110
0000
0110
0000
0000
,
1001
0000
0000
0101
0000
1100
0011
1100
1100
0110
0000
0000
,
1001
0000
0000
1001
0000
1100
0101
1100
0000
0011
0000
0011
,
0110
1100
0000
1100
0000
0011
1001
0000
0000
0101
0000
0000
,
0011
0000
0000
0110
0000
1001
0110
0011
1100
0110
0011
0110
,
1001
0110
0011
2002
0010
0010
0010
0000
0000
0000
0000
0000
,
0000
0000
0000
0000
,
0000
0000
3003
0000
;
