#TITLE:katekyoshi hitman reborn 7th ending;
#SUBTITLE:ameato;
#ARTIST:w-inds;
#TITLETRANSLIT:;
#SUBTITLETRANSLIT:;
#ARTISTTRANSLIT:;
#CREDIT:;
#BANNER:banner.png;
#BACKGROUND:bg.png;
#LYRICSPATH:;
#CDTITLE:;
#MUSIC:Ameato.mp3;
#OFFSET:0.140;
#SAMPLESTART:63.900;
#SAMPLELENGTH:14.500;
#SELECTABLE:YES;
#BPMS:0.000=103.980,81.000=51.980,97.000=207.961;
#STOPS:;
#BGCHANGES:0.000=Katekyo Hitman Reborn 7th ED.avi=1.000=1=0=0,
180.500=bg.png=1.000=1=0=0,
99999=-nosongbg-=1.000=0=0=0 // don't automatically add -songbackground-
;
// cache tags:
#FIRSTBEAT:1.000;
#LASTBEAT:180.500;
#SONGFILENAME:Songs/toune 1 (2010)/Ameato/Ameato.sm;
#HASMUSIC:1;
#HASBANNER:1;
#MUSICLENGTH:89.526;
// end cache tags

//---------------dance-single - ----------------
#NOTES:
     dance-single:
     :
     Hard:
     6:
     0.498,0.479,0.235,0.659,0.168,232.000,21.000,59.000,0.000,0.000:
0000
0000
0000
0000
0000
0000
0000
0000
0000
0000
0000
0000
1000
0000
0000
0000
0000
0000
0100
0000
0000
0000
0000
0000
0020
0000
0000
0000
0000
0000
0000
0030
0000
0000
0000
0000
0000
0000
0000
1000
0000
0000
0100
0000
0000
0000
0000
0000
,
0001
0000
0000
0000
0000
0000
0000
0000
0000
0000
0000
0000
1000
0000
0000
0000
0000
0000
0010
0000
0000
0000
0000
0000
0200
0000
0000
0000
0000
0000
0000
0300
0000
0000
0000
0000
0000
0000
0000
0001
0000
0000
0010
0000
0000
0000
0000
0000
,
1000
0000
0000
0000
0000
0000
0001
0000
0000
0000
0000
0000
0100
0000
0000
0000
0000
0000
0010
0000
0000
0000
0000
0000
0200
0000
0000
0000
0000
0000
0000
0300
0000
0000
0000
0000
0000
0000
0000
0001
0000
0000
1000
0000
0000
0000
0000
0000
,
0010
0000
0000
0000
0100
0000
0000
0010
0100
0000
0000
0001
0010
0000
0000
1010
,
0000
0000
0000
0000
1001
0000
0000
0000
0100
0000
0000
0001
0100
0000
0010
0000
,
1000
0000
0000
0000
1100
0000
0000
0000
0100
0000
0000
0001
1000
0000
0010
0000
,
0100
0000
0101
0010
1000
0100
0000
0001
,
0010
0100
0000
1000
0100
0010
1000
0001
,
0100
0000
0000
0000
0110
0000
0000
0000
1010
0000
0000
1000
0001
0000
0100
0000
,
0001
0000
0000
0000
1001
0000
0000
0000
1000
0000
0000
0010
1000
0000
0100
0000
,
0001
0000
1000
0000
0010
0000
0000
0000
0110
0000
0000
0100
0001
0000
0010
0000
,
1000
0000
0000
0000
1001
0000
0000
0000
0010
0000
0000
1000
0010
0000
0100
0000
,
0001
0000
0100
0000
0010
0000
0000
0000
1000
0000
0100
0000
0001
0000
1000
0010
,
1000
0000
0000
0000
0001
0000
0010
0000
1000
0000
0000
0001
0100
0000
0010
0000
,
1000
0000
0010
0000
0100
0000
0001
0000
0100
0000
0000
0001
0010
0000
1000
0000
,
0001
0000
0100
0000
0010
0000
0001
0000
0010
0000
0000
1000
0001
0000
0100
0000
,
0010
0000
0100
0000
0001
0000
1000
0000
0010
0000
0000
1000
0100
0000
0001
0000
,
1000
0000
0010
0000
1000
0000
0100
0000
0001
0000
0000
1000
0010
0000
1000
0000
,
0100
0000
0001
0000
1000
0000
0010
0000
0100
0000
0000
0001
0010
0000
1000
0000
,
0001
0000
0000
0000
1000
0000
0010
0000
0100
0000
0000
0001
1000
0000
0010
0000
,
1000
0100
0001
1000
0000
0010
0100
0010
,
0000
0000
0000
0000
1000
0000
0000
0000
0100
0000
0000
0000
0010
0000
0000
0000
1000
0000
0000
0001
0010
0000
1000
0000
0100
0000
0000
0000
0001
0000
0000
0000
,
1000
0000
0010
1000
0010
1000
0000
0000
0000
1001
0000
0000
0001
0100
0000
0000
,
0010
0000
0100
0000
0000
0000
0000
0001
0010
0000
1000
0000
0000
0000
0000
0000
0001
0000
0100
0000
0000
0000
0000
0000
0010
0000
0000
0000
1000
0000
0000
0000
,
0100
0000
0000
0001
0000
0000
1000
0000
0000
0000
0000
0000
0020
0000
0000
0000
0000
0030
0000
0000
0000
0110
0000
0000
,
0000
0100
0001
0000
1000
0010
0000
2020
,
0000
0000
3030
0000
0000
0000
2002
0000
3003
0000
0000
0000
0002
0000
0003
0000
0000
0000
0001
0000
0000
1000
0000
0000
,
0000
0000
0000
0010
0000
0000
0100
0000
0000
0000
0000
0000
0001
0000
0000
0020
0000
0000
0000
0000
0030
0000
0000
0000
,
0220
0000
0330
0000
0000
0000
0200
0000
0000
0000
0000
0300
0000
0000
0000
0202
0000
0000
0000
0000
0303
0000
0000
0000
,
0002
0003
0000
2000
3000
0000
0020
0030
0000
2000
3000
0000
,
0200
0000
0300
0000
0000
0000
0002
0000
0003
0000
0000
0000
1000
0000
0000
0010
0000
0000
0000
0000
0000
0100
0000
0000
,
0001
0000
0000
2000
0000
0000
0000
3000
0000
2002
0000
0000
,
0000
3003
0000
0202
0303
0000
0020
0030
0000
2000
3000
0000
,
0020
0030
0000
0200
0300
0000
0002
0003
0000
0200
0300
0000
,
0020
0030
0000
0002
0003
0000
0020
0030
0000
2000
3000
0000
,
0002
0003
0000
0200
0300
0000
2000
3000
0000
0200
0300
0000
,
0002
0003
0000
2000
3000
0000
0020
0030
0000
0200
0300
0000
,
0020
0030
0000
0200
0300
0000
0002
0003
0000
2000
3000
0000
,
0020
0030
0000
2000
0000
0000
0000
3000
0000
2002
0000
0000
,
0000
0000
3003
0000
0000
0000
0202
0000
0000
0000
0000
0303
0000
0000
0000
0220
0000
0000
0000
0000
0330
0000
0000
0000
,
0200
0300
0000
2200
0000
0000
0000
0000
0000
0000
0000
0000
,
0000
0000
0000
0000
,
0000
0000
0000
0000
,
0000
0000
0000
0000
,
0000
0000
0000
0000
,
0000
3300
0000
0000
0000
0000
0000
0000
;
