#TITLE:Supersonic;
#SUBTITLE:;
#ARTIST:Music Instructor feat.Flying Steps;
#TITLETRANSLIT:;
#SUBTITLETRANSLIT:;
#ARTISTTRANSLIT:;
#CREDIT:;
#BANNER:supersonic banner.JPG;
#BACKGROUND:focus640.jpg;
#LYRICSPATH:;
#CDTITLE:;
#MUSIC:Music Instructor Feat. Flying Steps - Super Sonic.mp3;
#OFFSET:0.000;
#SAMPLESTART:29.459;
#SAMPLELENGTH:12.000;
#SELECTABLE:YES;
#BPMS:0.000=136.990;
#STOPS:;
#BGCHANGES:;
// cache tags:
#FIRSTBEAT:6.000;
#LASTBEAT:506.000;
#SONGFILENAME:Songs/longs versions/sonic/Supersonic.sm;
#HASMUSIC:1;
#HASBANNER:1;
#MUSICLENGTH:226.228;
// end cache tags

//---------------dance-single - ----------------
#NOTES:
     dance-single:
     :
     Hard:
     9:
     0.625,0.783,0.314,0.071,0.420,902.000,71.000,16.000,0.000,0.000:
0000
0000
0000
0000
,
0000
0000
0020
0000
,
0000
0000
0000
0000
0000
0000
0000
0030
,
1000
0100
1000
0100
1000
0000
2000
0000
0000
0000
0000
0000
0000
0000
0000
0000
,
0000
0000
0000
0000
0000
0000
0000
3000
,
0001
0010
0001
0010
0001
0000
0002
0000
0000
0000
0000
0000
0000
0000
0000
0000
,
0000
0000
0000
0000
0000
0000
0000
0003
,
1000
0100
0010
0100
1000
0000
2000
0000
0100
0000
3000
0000
0000
0000
0100
0000
,
1000
0000
0000
0000
0000
0000
0100
0000
1000
0000
1000
0000
0010
0100
0000
0100
,
0010
0100
1000
1000
0000
0100
0010
0000
,
0010
0100
0000
1000
0000
0100
0010
0000
,
0010
0100
0100
0001
0000
1000
0100
0000
,
0100
1000
0000
1000
0000
0100
0010
0000
,
0100
0010
0010
0001
0000
0010
0100
0000
,
0100
0010
0000
0001
0000
0010
0100
0000
,
0100
1000
1000
0100
0000
0010
0001
0000
,
0001
0010
0000
1000
0000
0100
0010
0000
,
0001
0010
0100
1000
0100
0000
0100
0100
,
0010
0001
0200
0000
0000
0301
0010
0000
,
0100
0010
0100
1000
0100
0000
0001
0001
,
0100
0010
0200
0000
0000
0301
1000
0000
,
1000
0001
1000
1001
0000
0000
0001
0100
,
0001
0100
0010
0000
0000
0100
1000
0000
,
0100
0010
1000
0100
0010
0000
0001
0010
,
0100
0010
0001
0000
0000
0010
0100
0000
,
0100
0000
0010
0000
1000
0000
1000
0100
1000
0000
0100
0000
0001
0010
0001
0000
,
0010
0000
1000
0100
1000
0100
1000
0000
0100
0010
0100
0000
0010
0000
0001
0010
,
1000
0000
1000
0100
1000
0100
0010
0001
0010
0000
0001
0000
0010
0000
1000
0100
,
1000
0000
0100
0000
0010
0100
0010
0100
0000
0010
0001
0010
0100
0000
1000
0100
,
1000
0001
1000
0001
1000
0000
0110
0000
1000
0000
0100
0000
0000
0000
0010
0000
,
0001
0010
0000
0100
1000
0000
1100
0000
0100
0000
0010
0000
0000
0000
0100
0000
,
0001
0010
0000
0010
0001
0000
0011
0000
0100
0000
0010
0000
0000
0000
0100
0000
,
1000
0010
0000
0100
1000
0000
0110
0000
0100
0000
0010
0000
0000
0000
1000
0000
,
0100
0001
0000
0010
1000
0000
0101
0000
0001
0000
2000
0000
0000
0000
3020
0000
,
0000
0000
0000
1030
0000
0010
0001
0000
,
0010
0000
0000
1000
0000
0100
0000
0000
,
0001
0000
0010
0100
0000
0000
1000
0000
0000
0000
0100
0000
0000
0000
0000
0000
,
1000
0000
0100
0010
0000
0000
1001
0000
0000
0000
1100
0000
0100
0000
0000
0000
,
0110
0001
0000
1001
0000
0011
0010
0000
,
1001
0100
0010
0100
0010
0000
1000
0100
1000
0000
0001
0010
0001
0000
1000
0100
,
1000
0000
0100
0010
0100
0010
0001
0010
0001
0000
1000
0100
1000
0000
0100
0010
,
0100
0000
0001
0010
0001
0000
1001
0100
1000
0100
1000
0000
0010
0001
0000
0010
,
0001
0000
1000
0000
0100
0000
0010
0001
0010
0001
0010
0000
0100
1000
0000
0100
,
1000
0000
0100
0000
0010
0000
0100
0010
0100
0010
0100
0000
0001
0010
0000
0100
,
1000
0000
1100
0000
0011
0000
0100
0001
0010
0100
0001
0000
0100
0001
0000
0001
,
0100
0000
1100
0000
0011
0000
0100
1000
0010
0100
1000
0000
1000
0100
0000
0100
,
1000
0000
1001
0000
0110
0000
0010
0100
1000
0100
0001
0000
0001
0010
0000
0100
,
0001
0000
0011
0000
1100
0000
0001
0100
1000
0100
0001
0000
0001
1000
0000
1000
,
0001
0000
0101
0000
1010
0000
1000
0100
1000
0010
1000
0000
1000
0100
0000
0100
,
0010
0000
0011
0000
0110
0000
0100
0010
0001
1000
0100
0000
0010
0010
0000
0100
,
0100
0000
1100
0000
0110
0000
0001
0001
0001
0001
0001
0000
1000
1000
0000
1000
,
1000
0000
1010
0000
0101
0000
1000
0100
0010
0001
0010
0000
0100
0010
0000
0100
,
0010
0000
0011
0000
0110
0000
0100
1000
0100
1000
0010
0000
0100
0001
0000
0100
,
0001
0000
0011
0000
1010
0000
0101
0000
0000
0000
0000
0000
0000
0000
0100
1000
,
0100
1000
0010
0000
0001
0000
0000
0000
0000
0000
2000
0000
0000
0000
0000
0000
,
0000
3200
0000
0000
0000
1300
0000
0001
,
0100
0000
1000
0000
0010
0002
0000
0000
,
0000
0003
1000
0000
0100
0000
0000
0010
,
0000
0001
0200
0000
0000
0000
0000
0000
,
0000
0000
0300
0000
0000
0000
1000
0100
1000
0000
0001
0010
0001
0000
1000
0100
,
1000
0000
0100
0010
0100
0010
0001
0010
0001
0000
1000
0100
1000
0000
0100
0010
,
0100
1000
0100
0010
0001
0001
0010
0000
,
0100
0010
0000
1000
0000
0100
0010
0000
,
0001
0100
0100
1000
0000
0010
0100
0000
,
0100
0010
0000
0001
0000
0010
1000
0000
,
1000
0010
0010
1000
0000
0100
0100
0000
,
0010
0010
0000
1000
0000
0100
0001
0000
,
0001
0100
0100
0011
0000
0010
1000
0000
,
1000
0100
0000
0001
0000
0001
0010
0000
,
0100
1000
1000
1001
0000
0000
0010
0001
,
0010
1000
0100
0000
0000
0001
0010
0000
,
1000
0100
1000
0100
0010
0000
0100
0010
,
0001
0010
0100
0000
0000
1000
0010
0000
,
1000
0100
0010
1001
0000
0000
0001
0010
,
0001
0100
0001
0000
0000
0100
0010
0000
,
0010
0001
0010
0001
0010
0000
1000
0100
,
0010
0100
1000
0000
0000
0100
0001
0000
,
0001
0010
0100
1001
0000
1000
0000
0100
,
0000
0010
0001
0000
0000
0000
1000
0100
,
0010
0001
0010
0000
0000
0001
0000
0010
,
0000
0100
1000
0000
0000
0000
0001
0010
,
0100
1000
0100
1100
0000
0010
0000
0100
,
0000
0010
0001
0000
0000
0000
0001
0010
,
0001
0010
0001
0000
0000
1000
0000
0100
,
0000
1000
0100
0000
0000
0000
0100
0010
,
0100
0000
0010
0000
0100
0000
0010
0100
0000
0100
0010
0000
0100
0010
0000
0010
,
0100
0000
0010
0000
0000
0000
0001
0010
0000
0010
0001
0000
0001
0010
0000
0010
,
0001
0000
0100
0000
0000
0000
1000
0100
0000
0100
1000
0000
1000
0100
0000
0100
,
1000
0000
0010
0000
0000
0000
0001
0100
0000
0100
0001
0000
0001
0100
0000
0100
,
2002
0000
0000
0000
0000
3003
0100
0010
0100
0010
0100
0000
0001
0010
0000
0010
,
0001
0000
0001
0000
0010
0000
0100
1000
0100
1000
0100
0000
0010
0100
0000
0010
,
0100
0000
0001
0000
1000
0000
0010
0100
1000
0100
0010
0000
0001
0010
0000
0001
,
0010
0000
1000
0000
0100
0000
1000
0100
1000
0010
0001
0000
0010
0100
0000
0010
,
0100
1100
0101
0011
0000
0100
0011
0000
,
1100
0000
0000
0110
0000
0000
1000
0001
,
1000
0100
0010
0011
0000
1000
0110
0000
,
1001
0000
0000
0110
0000
0000
0001
0010
,
0100
0000
0010
0000
0001
0000
1000
0100
0010
0001
0010
0000
1000
1000
0000
0100
,
0100
0000
0011
0000
1100
0000
0001
0010
0100
1000
0100
0000
0001
0001
0000
0010
,
0010
0000
1100
0000
0011
0000
0100
0010
0001
1000
0100
0000
0010
1000
0000
0010
,
1000
0000
1100
0000
0101
0000
0010
0001
1000
0100
0010
0000
0001
0100
0000
0010
,
1000
0000
1010
0000
0110
0000
1001
0100
1000
0100
1000
0000
0100
0010
0000
0100
,
0010
0000
0100
0000
0010
0000
0001
0010
0001
0000
0001
0000
0010
0001
0000
0000
,
0100
0010
0100
0000
0011
0000
1100
0010
0001
0010
0001
0000
0100
1000
0000
0100
,
1000
0000
0010
0000
0001
0000
1000
0100
1000
0100
1000
0000
0010
0001
0000
0001
,
0010
0000
0100
0000
1000
0000
1001
0100
0010
0100
0010
0000
0001
0010
0000
0100
,
1000
0000
1000
0000
0100
0000
0010
0100
0001
0010
0100
0000
1000
0100
1000
0000
,
0011
0000
0000
0000
1100
0000
0011
0001
0010
0000
1000
0100
1000
0000
0010
0001
,
0010
0010
0100
1000
0100
0000
0010
0001
0010
0000
0100
1000
0100
0000
0100
0010
,
0001
1000
0100
0010
0001
1000
0100
0000
,
0100
1000
0000
0010
0000
0001
1000
0000
,
1000
0001
0001
1000
0100
1000
0100
0000
,
0010
0001
0000
1000
0000
0100
0010
0000
,
0010
0100
0100
0010
0001
1000
0100
0000
,
0100
0010
0000
0001
0000
0010
0010
0000
,
0100
0100
0010
0001
0010
0100
1000
0000
,
1000
0100
0000
0010
0000
0001
0010
0000
,
0010
0001
0001
0010
0100
1000
0100
0010
,
0001
0100
1000
0000
0000
1000
0010
0000
,
0001
0010
0001
0100
0010
0000
1000
0100
,
0010
0001
0010
0000
0000
1000
0100
0000
,
0010
0001
0010
1001
0000
0000
1000
0010
,
1000
0100
1000
0000
0000
0010
0101
0000
,
1000
0000
0100
0000
0010
0000
0001
0000
0010
0000
1000
0100
1000
0100
1000
0000
,
0010
0001
0000
0001
0010
0000
1100
0000
0011
0000
0001
0010
0001
0010
0001
0000
,
0100
1000
0000
1000
0100
0000
0011
0000
0220
0000
0000
0000
0000
0000
0000
0000
,
0000
0000
0330
0000
;

//---------------dance-single - Few 1/16 beats----------------
#NOTES:
     dance-single:
     Few 1/16 beats:
     Medium:
     7:
     0.522,0.587,0.376,0.071,0.004,725.000,85.000,16.000,0.000,0.000:
0000
0000
0000
0000
,
0000
0000
0020
0000
,
0000
0000
0000
0000
0000
0000
0000
0030
,
1000
0100
1000
2000
0000
0000
0000
0000
,
0000
0000
0000
0000
0000
0000
0000
3000
,
0001
0010
0001
0002
0000
0000
0000
0000
,
0000
0000
0000
0000
0000
0000
0000
0003
,
1000
0010
1000
2000
0100
3000
0000
0110
,
0001
0000
0000
0110
1000
0000
0010
0100
,
0010
0100
1000
1000
0000
0100
1000
0000
,
0100
1000
0000
0001
0000
0010
0010
0000
,
0010
0100
0100
0001
0000
1000
0100
0000
,
0100
1000
0000
1000
0000
0100
0010
0000
,
0100
0010
0010
0001
0000
0010
0100
0000
,
0100
0010
0000
0001
0000
0010
0100
0000
,
0100
1000
1000
0100
0000
0010
0001
0000
,
0001
0010
0000
1000
0000
0100
0010
0000
,
0001
0010
0100
1000
0100
0000
0100
0100
,
0010
0001
0200
0000
0000
0301
0010
0000
,
0100
0010
0100
1000
0100
0000
0001
0001
,
0100
0010
0200
0000
0000
0301
1000
0000
,
1000
0001
1000
1001
0000
0000
0001
0100
,
0001
0100
0010
0000
0000
0100
1000
0000
,
0100
0010
1000
0100
0010
0000
0001
0010
,
0100
0010
0001
0000
0000
0010
0100
0000
,
0100
0010
1000
0100
1000
0100
0001
0001
,
0010
1000
0100
1000
0100
0010
0010
0001
,
1000
0001
1000
0010
0010
0001
0010
1000
,
0100
0100
0010
0100
0010
0001
0100
1000
,
0100
0001
1000
0110
1000
0100
0000
0010
,
0001
0010
1000
1100
0100
0010
0000
0100
,
0001
0010
0001
0011
0100
0010
0000
0100
,
1000
0010
1000
0110
0100
0010
0000
1000
,
0100
0010
1000
0101
0001
2000
0000
3020
,
0000
0000
0000
1030
0000
0010
0001
0000
,
0010
0000
0000
1000
0000
0100
0000
0000
,
0001
0010
0000
1000
0000
0100
0000
0000
,
1000
0100
0000
1001
0000
1100
0100
0000
,
0110
0001
0000
1001
0000
0011
0010
0000
,
1001
0010
0110
0100
1100
0010
0011
1000
,
1000
0100
0110
0001
0001
1000
1000
0100
,
0100
0001
0001
1001
1100
1000
0010
0000
,
0001
1000
0100
0010
0011
0010
0100
1000
,
1000
0100
0010
0100
0100
0100
0001
0100
,
1000
1100
0011
0100
0010
0001
0100
0000
,
0100
1100
0011
0100
0010
1000
1000
0000
,
1000
1001
0110
0010
1000
0001
0001
0000
,
0001
0011
1100
0001
1000
0001
0001
0000
,
0001
0101
1010
1000
0001
1000
1000
0000
,
0010
0011
0110
0100
0001
0100
0010
0000
,
0100
1100
0110
0001
0011
1100
1000
0000
,
1000
1010
0101
1000
0010
0010
0100
0000
,
0010
0011
0110
0100
0100
0010
0100
0000
,
0001
0011
1010
0101
0000
0000
0000
0100
,
0100
0010
0001
0000
0000
2000
0000
0000
,
0000
3200
0000
0000
0000
1300
0000
0001
,
0100
0000
1000
0000
0010
0002
0000
0000
,
0000
0003
1000
0000
0100
0000
0000
0010
,
0000
0001
0200
0000
0000
0000
0000
0000
,
0000
0300
0000
1000
1000
0001
0001
1000
,
1000
0100
0110
0001
0001
1000
1000
0100
,
0101
1000
0100
0010
0001
0001
0010
0000
,
0100
0010
0000
1000
0000
0100
0010
0000
,
0001
0100
0100
1000
0000
0010
0100
0000
,
0100
0010
0000
0001
0000
0010
1000
0000
,
1000
0010
0010
1000
0000
0100
0100
0000
,
0010
0010
0000
1000
0000
0100
0001
0000
,
0001
0100
0100
0011
0000
0010
1000
0000
,
1000
0100
0000
0001
0000
0001
0010
0000
,
0100
1000
1000
1001
0000
0000
0010
0001
,
0010
1000
0100
0000
0000
0001
0010
0000
,
1000
0100
1000
0100
0010
0000
0100
0010
,
0001
0010
0100
0000
0000
1000
0010
0000
,
1000
0100
0010
1001
0000
0000
0001
0010
,
0001
0100
0001
0000
0000
0100
0010
0000
,
0010
0001
0010
0001
0010
0000
1000
0100
,
0010
0100
1000
0000
0000
0100
0001
0000
,
0001
0010
0100
1001
0000
1000
0000
0100
,
0000
0010
0001
0000
0000
0000
1000
0100
,
0010
0001
0010
0000
0000
0001
0000
0010
,
0000
0100
1000
0000
0000
0000
0001
0010
,
0100
1000
0100
1100
0000
0010
0000
0100
,
0000
0010
0001
0000
0000
0000
0001
0010
,
0001
0010
0001
0000
0000
1000
0000
0100
,
0000
1000
0100
0000
0000
0000
0100
0010
,
0100
0010
0100
0010
0000
0010
0100
0000
,
0100
0010
0000
0001
0000
0001
0001
0000
,
0001
0100
0000
1000
0000
1000
1000
0000
,
1000
0010
0000
0001
0000
0001
0001
0000
,
2002
0000
0000
0000
0000
3003
0100
0000
1100
0000
0100
0000
0001
0000
0010
0000
,
0001
0001
0010
0100
0101
0100
0010
1000
,
0100
0001
1000
0010
1000
0010
0001
0100
,
0010
1000
0100
1000
1000
0001
0010
0000
,
0100
1100
0101
0011
0000
0100
0011
0000
,
1100
0000
0000
0110
0000
0000
1000
0001
,
1000
0100
0010
0011
0000
1000
0110
0000
,
1001
0000
0000
0110
0000
0000
0001
0010
,
0100
0010
0001
1000
0010
0010
1000
0000
,
0100
0011
1100
0001
0100
0100
0001
0000
,
0010
1100
0011
0100
0001
0100
0010
0000
,
1000
1100
0101
0010
1000
0010
0001
0000
,
1000
1010
0110
1001
1000
1000
0100
0000
,
0010
0100
0010
0001
0001
0001
0010
0000
,
0100
0100
0011
1100
0001
0001
0100
0000
,
1000
0010
0001
1000
1000
1000
0010
0000
,
0010
0100
1000
1001
0010
0010
0001
0000
,
1000
1000
0100
0010
0001
0100
1000
1000
,
0011
0000
1100
0011
0010
1000
1000
0010
,
0010
0100
0100
0010
0010
0100
0100
0100
,
0001
1000
0100
0010
0001
1000
0100
0000
,
0100
1000
0000
0010
0000
0001
1000
0000
,
1000
0001
0001
1000
0100
1000
0100
0000
,
0010
0001
0000
1000
0000
0100
0010
0000
,
0010
0100
0100
0010
0001
1000
0100
0000
,
0100
0010
0000
0001
0000
0010
0010
0000
,
0100
0100
0010
0001
0010
0100
1000
0000
,
1000
0100
0000
0010
0000
0001
0010
0000
,
0010
0001
0001
0010
0100
1000
0100
0010
,
0001
0100
1000
0000
0000
1000
0010
0000
,
0001
0010
0001
0100
0010
0000
1000
0100
,
0010
0001
0010
0000
0000
1000
0100
0000
,
0010
0001
0010
1001
0000
0000
1000
0010
,
1000
0100
1000
0000
0000
0010
0101
0000
,
1000
0100
0010
0001
0010
1000
1000
1000
,
0010
0001
0010
1100
0011
0001
0001
0001
,
0100
1000
0000
1000
0100
0000
0011
0000
0220
0000
0000
0000
0000
0000
0000
0000
,
0000
0000
0330
0000
;

//---------------dance-single - Less half beats----------------
#NOTES:
     dance-single:
     Less half beats:
     Easy:
     5:
     0.438,0.503,0.292,0.066,0.000,612.000,66.000,15.000,0.000,0.000:
0000
0000
0000
0000
,
0000
0000
0020
0000
,
0000
0000
0000
0000
0000
0000
0000
0030
,
1000
0100
1000
2000
0000
0000
0000
0000
,
0000
0000
0000
0000
0000
0000
0000
3000
,
0001
0010
0001
0002
0000
0000
0000
0000
,
0000
0000
0000
0000
0000
0000
0000
0003
,
1000
0010
1000
2000
0100
3000
0000
0110
,
0001
0000
0000
0110
1000
0000
0010
0100
,
0010
0000
1000
1000
0000
0100
1000
0000
,
0100
1000
0000
0001
0000
0000
0010
0000
,
0010
0100
0100
0001
0000
0000
0100
0000
,
0100
1000
0000
1000
0000
0000
0010
0000
,
0100
0010
0010
0001
0000
0000
0100
0000
,
0100
0010
0000
0001
0000
0000
0100
0000
,
0100
1000
1000
0100
0000
0000
0001
0000
,
0001
0010
0000
1000
0000
0000
0010
0000
,
0001
0010
0100
1000
0100
0000
0100
0000
,
0010
0001
0200
0000
0000
0301
0010
0000
,
0100
0000
0100
1000
0100
0000
0001
0001
,
0100
0000
0200
0000
0000
0301
1000
0000
,
1000
0000
1000
1001
0000
0000
0001
0100
,
0001
0000
0010
0000
0000
0100
1000
0000
,
0100
0000
1000
0100
0010
0000
0001
0010
,
0100
0000
0001
0000
0000
0010
0100
0000
,
0100
0000
1000
0100
1000
0100
0001
0001
,
0010
0000
0100
1000
0100
0010
0010
0001
,
1000
0000
1000
0010
0010
0001
0010
1000
,
0100
0000
0010
0100
0010
0001
0100
1000
,
0100
0000
1000
0110
1000
0100
0000
0010
,
0001
0000
1000
1100
0100
0010
0000
0100
,
0001
0000
0001
0011
0100
0010
0000
0100
,
1000
0000
1000
0110
0100
0010
0000
1000
,
0100
0000
1000
0101
0001
2000
0000
3020
,
0000
0000
0000
1030
0000
0010
0001
0000
,
0010
0000
0000
1000
0000
0100
0000
0000
,
0001
0010
0000
1000
0000
0100
0000
0000
,
1000
0100
0000
0000
0100
0010
0100
0000
,
0110
0000
0000
1001
0000
0011
0010
0000
,
1001
0000
0110
0100
1100
0000
0011
0000
,
1000
0100
0110
0001
0001
1000
1000
0000
,
0100
0001
0001
0000
1100
1000
0010
0000
,
0001
0000
0100
0010
0011
0000
0100
1000
,
1000
0000
0010
0100
0100
0000
0001
0100
,
1100
0000
0011
0100
0010
0000
0100
0000
,
0100
1000
0011
0000
0010
0000
1000
0000
,
1000
1000
0110
0010
1000
0001
0001
0000
,
0001
0000
1100
0001
1000
0000
0001
0000
,
0001
0000
1010
0000
0001
1000
1000
0000
,
0010
0000
0101
0000
0001
0100
0010
0000
,
0100
0000
0110
0000
0011
1100
1000
0000
,
1000
0000
0101
1000
0010
0000
0100
0000
,
0010
0000
0110
0000
0100
0010
0100
0000
,
0001
0000
1010
0101
0000
0000
0000
0100
,
0100
0000
0001
0000
0000
2000
0000
0000
,
0000
3000
0000
0000
0000
1000
0000
0001
,
0100
0000
1000
0000
0010
0002
0000
0000
,
0000
0003
1000
0000
0100
0000
0000
0010
,
0000
0200
0000
0000
,
0000
0300
0000
1000
1000
0001
0001
1000
,
1000
0000
0110
0001
0001
1000
1000
0100
,
0101
0000
0100
0010
0001
0001
0010
0000
,
0100
0000
0000
1000
0000
0100
0010
0000
,
0001
0000
0100
1000
0000
0010
0100
0000
,
0100
0000
0000
0001
0000
0010
1000
0000
,
1000
0000
0010
1000
0000
0100
0100
0000
,
0010
0000
0000
1000
0000
0100
0001
0000
,
0001
0000
0100
0011
0000
0010
1000
0000
,
1000
0000
0000
0001
0000
0001
0010
0000
,
0100
0000
1000
1001
0000
0000
0010
0001
,
0010
0000
0100
0000
0000
0001
0010
0000
,
1000
0000
1000
0100
0010
0000
0100
0010
,
0001
0000
0100
0000
0000
1000
0010
0000
,
1000
0000
0010
1001
0000
0000
0001
0010
,
0001
0000
0001
0000
0000
0100
0010
0000
,
0010
0000
0010
0001
0010
0000
1000
0100
,
0010
0000
1000
0000
0000
0100
0001
0000
,
0001
0000
0100
1001
0000
1000
0000
0100
,
0000
0000
0001
0000
0000
0000
1000
0100
,
0010
0000
0010
0000
0000
0001
0000
0010
,
0000
0000
1000
0000
0000
0000
0001
0010
,
0100
0000
0100
1100
0000
0010
0000
0100
,
0000
0000
0001
0000
0000
0000
0001
0010
,
0001
0000
0001
0000
0000
1000
0000
0100
,
0000
0000
0100
0000
0000
0000
0100
0010
,
0100
0000
0100
0010
0000
0010
0100
0000
,
0100
0000
0000
0001
0000
0001
0001
0000
,
0001
0000
0000
1000
0000
1000
1000
0000
,
1000
0000
0000
0001
0000
0001
0001
0000
,
2002
0000
0000
0000
0000
3003
0100
0000
1100
0000
0100
0000
0001
0000
0010
0000
,
0001
0000
0010
0100
0101
0100
0010
1000
,
0100
0000
1000
0010
1000
0010
0001
0100
,
0010
0000
0100
1000
1000
0001
0010
0000
,
0100
0000
0101
0011
0000
0100
0011
0000
,
1100
0000
0000
0110
0000
0000
1000
0001
,
1000
0000
0010
0011
0000
1000
0110
0000
,
1001
0000
0000
0110
0000
0000
0001
0010
,
0100
0000
0001
1000
0010
0010
1000
0000
,
0100
0000
1100
0001
0100
0100
0001
0000
,
0010
0000
0011
0100
0001
0100
0010
0000
,
1000
0000
0101
0010
1000
0010
0001
0000
,
1000
0000
0110
1001
1000
1000
0100
0000
,
0010
0000
0010
0001
0001
0001
0010
0000
,
0100
0000
0011
1100
0001
0001
0100
0000
,
1000
0000
0001
1000
1000
1000
0010
0000
,
0010
0000
1000
1001
0010
0010
0001
0000
,
1000
0000
0100
0010
0001
0100
1000
1000
,
0011
0000
1100
0011
0010
1000
1000
0010
,
0010
0000
0100
0010
0010
0100
0100
0100
,
0001
0000
0100
0010
0001
1000
0100
0000
,
0100
0000
0000
0010
0000
0001
1000
0000
,
1000
0000
0001
1000
0100
1000
0100
0000
,
0010
0000
0000
1000
0000
0100
0010
0000
,
0010
0000
0100
0010
0001
1000
0100
0000
,
0100
0010
0000
0000
0000
0010
0010
0000
,
0100
0100
0010
0000
0010
0100
1000
0000
,
1000
0100
0000
0000
0000
0001
0010
0000
,
0010
0001
0001
0000
0100
1000
0100
0010
,
0001
0100
1000
0000
0000
1000
0010
0000
,
0001
0010
0001
0000
0010
0000
1000
0100
,
0010
0001
0010
0000
0000
1000
0100
0000
,
0010
0001
0010
0000
0000
0000
1000
0010
,
1000
0100
1000
0000
0000
0010
0101
0000
,
1000
0100
0010
0000
0010
1000
1000
1000
,
0010
0001
0010
0000
0011
0001
0001
0001
,
0100
1000
0100
0011
0220
0000
0000
0000
,
0000
0000
0330
0000
;
