#TITLE:Moment;
#SUBTITLE:;
#ARTIST:The Rage In Z;
#TITLETRANSLIT:;
#SUBTITLETRANSLIT:;
#ARTISTTRANSLIT:;
#CREDIT:Jekefka;
#BANNER:;
#BACKGROUND:momentbackground.jpg;
#LYRICSPATH:;
#CDTITLE:;
#MUSIC:Moment.mp3;
#OFFSET:-0.005;
#SAMPLESTART:100.000;
#SAMPLELENGTH:12.000;
#SELECTABLE:YES;
#BPMS:0.000=115.010;
#STOPS:;
#BGCHANGES:;
// cache tags:
#FIRSTBEAT:0.000;
#LASTBEAT:319.500;
#SONGFILENAME:Songs/toune 6/Moment/Moment.sm;
#HASMUSIC:1;
#HASBANNER:0;
#MUSICLENGTH:169.435;
// end cache tags

//---------------dance-single - ----------------
#NOTES:
     dance-single:
     :
     Challenge:
     1:
     0.766,0.943,1.000,0.136,0.062,605.000,270.000,23.000,0.000,28.000:
2000
0000
0000
0000
,
0200
0000
0000
0000
,
3002
0000
0000
0000
,
2300
0000
0000
0000
,
0023
0000
0000
0000
,
3002
0000
0000
0000
,
0230
0000
0000
0000
,
0023
0000
0000
0000
,
1331
0100
0010
0001
1001
0010
0100
1000
,
1001
1001
0010
0010
1001
1001
0100
0100
,
0100
1000
0010
0001
0010
1000
0100
0001
,
1010
1010
1000
1000
0101
0101
0001
0001
,
2000
0010
0001
0010
0001
0100
0001
0100
,
3002
0010
1000
0010
1000
0100
1000
0100
,
2003
0100
0010
0001
0010
0001
0010
0100
,
3011
0011
0010
0010
1100
1100
0100
0100
,
1000
0000
1000
0001
1000
0001
1000
0001
1000
0000
0100
0000
0010
0000
0001
0000
,
0010
0100
1000
0010
0010
0100
0001
0010
,
1000
0000
1000
0001
1000
0001
1000
0001
1000
0000
0010
0000
0100
0000
0010
0000
,
1001
1010
1001
0101
0110
1100
0110
0011
,
1001
0010
1001
0010
1001
1000
0100
0010
,
1001
0100
1001
0100
1001
0001
0010
0100
,
1001
0000
0001
1000
0001
1000
0001
1000
0001
0000
0010
0000
0100
0000
1000
0000
,
0010
0100
0010
0100
0100
0010
0100
0010
,
1001
1001
0010
1001
1001
0100
1001
1001
,
0110
0110
1000
0110
0110
0001
0110
0110
,
1100
0110
0011
0110
1100
0110
0011
0110
,
1001
0010
1001
0100
1001
0010
0100
0010
,
1100
1100
0001
1100
1100
0001
1100
1100
,
0011
0011
1000
0011
0011
1000
0011
0011
,
1010
1010
0100
1010
1010
0100
1010
1010
,
0011
0110
1100
0110
0011
0110
1100
0110
,
2000
0001
0100
0001
0010
0001
0010
0001
,
3020
1000
0001
1000
1000
0001
1000
0001
,
2030
0100
0010
0001
0010
0100
0001
0100
,
3002
0100
1000
0010
1000
0100
1000
0010
,
2003
0100
0010
0100
0100
0010
0100
0010
,
3200
1000
0001
0001
1000
1000
0001
0001
,
2300
0010
0001
0010
0001
0100
0001
0100
,
0002
0010
0100
0100
0010
0010
0100
0100
,
3013
0100
1000
0010
0001
0100
1000
0010
,
0001
0010
1000
0100
0001
0010
1000
0100
,
1010
0001
0100
1000
1010
0001
0010
1000
,
0101
1000
0100
0001
0101
1000
0010
0001
,
1001
0010
1100
0001
1010
0100
0011
1000
,
1001
1001
0110
0110
1100
1100
0011
0011
,
0110
1010
1100
1001
0011
0101
0110
1001
,
1010
1010
1100
1100
1010
1010
1001
1001
,
1001
0010
1101
1101
1101
1011
1011
0100
,
1001
0100
1011
1011
1011
1101
1101
0010
,
1100
0010
1100
0011
1100
0011
1100
0010
,
0011
0100
0011
1100
0011
1100
0011
0100
,
1010
0000
1000
0010
1000
0010
1000
0010
1000
0000
0010
0000
0001
0000
0010
0000
,
0101
0000
0001
0100
0001
0100
0001
0100
0001
0000
0100
0000
1000
0000
0100
0000
,
1001
0000
1000
0001
1000
0001
1000
0001
1000
0000
0010
0000
0100
0000
1000
0000
,
0001
0000
0001
1000
0001
1000
0001
1000
0001
0000
1010
0000
1001
0000
0101
0000
,
1001
1001
0010
1001
1001
0100
1001
1001
,
0110
0110
1000
0110
0110
0001
0110
0110
,
1010
1010
0010
0101
0101
0100
1010
0101
,
1100
0110
0011
0110
1100
0110
0011
0110
,
1010
1100
0010
1010
1100
0010
1010
1100
,
0101
0011
0100
0101
0011
0100
0101
0011
,
1001
0110
1000
1001
0110
1000
1001
0110
,
0110
1001
0001
0110
1001
0001
0110
1001
,
2000
0001
0010
0001
0100
0001
0100
0001
,
3100
0001
0010
0001
0100
1000
0010
1000
,
0002
1000
0100
1000
0100
1000
0010
1000
,
0013
1000
0100
1000
0010
0001
0100
0001
,
2000
0010
0100
0010
0001
0100
0001
0010
,
3002
0100
0010
0100
1000
0010
1000
0100
,
1103
1010
0110
1010
0011
0101
0110
0101
,
1001
0110
0110
1001
1010
1100
0011
0101
,
1001
1010
1100
1010
1001
0101
0011
0101
,
1010
1100
1100
1010
0101
0011
0011
0101
,
0011
0101
0110
1010
1100
1010
0110
0101
,
0110
1001
1001
0110
1001
0110
1001
1001
,
1001
1010
1100
1010
1001
0101
0011
0101
,
1010
1100
1100
1010
0101
0011
0011
0101
,
0011
0101
0110
1010
1100
1010
0110
0101
,
0110
1001
1001
0110
1001
0110
1001
1101
;
