#TITLE:VerTex Gamma;
#SUBTITLE:;
#ARTIST:Silvia;
#TITLETRANSLIT:;
#SUBTITLETRANSLIT:;
#ARTISTTRANSLIT:;
#CREDIT:;
#BANNER:VerTex Gamma Banner.jpg;
#BACKGROUND:VerTex Gamma BG.jpg;
#LYRICSPATH:;
#CDTITLE:;
#MUSIC:VerTex Gamma.mp3;
#OFFSET:-0.200;
#SAMPLESTART:39.946;
#SAMPLELENGTH:12.000;
#SELECTABLE:YES;
#BPMS:0.000=149.840,128.000=150.040,257.500=150.000;
#STOPS:;
#BGCHANGES:;
// cache tags:
#FIRSTBEAT:16.000;
#LASTBEAT:297.500;
#SONGFILENAME:Songs/keyboard/Vertex Gamma/VerTex Gamma.sm;
#HASMUSIC:1;
#HASBANNER:1;
#MUSICLENGTH:122.329;
// end cache tags

//---------------dance-single - Blank----------------
#NOTES:
     dance-single:
     Blank:
     Challenge:
     13:
     1.000,1.000,1.000,0.294,1.000,832.000,127.000,36.000,82.000,0.000:




0000
0000
0000
0000
,
0000
0000
0000
0000
,
0000
0000
0000
0000
,
0000
0000
0000
0000
,
2001
0000
3020
0032
,
0023
0030
0020
2030
,
3002
0000
0203
0302
,
1003
0000
0210
0300
,
0010
0100
0001
0101
0000
0010
0100
0010
0100
0001
0100
0001
0100
0001
0010
0100
,
1000
0100
0010
0011
0000
1000
0100
0010
0001
0100
0010
0100
0001
0010
0100
1000
,
0100
1000
0100
0110
0000
0100
0010
0100
1000
0001
0100
0010
1000
0001
1000
0001
,
0010
0100
0000
0110
0000
1000
0100
0010
0001
0010
0100
1000
0001
0010
0100
1000
,
0100
0010
0000
0110
0000
1000
0100
1000
0010
0100
0001
1000
0100
0010
0001
1000
,
0100
1000
0000
1100
0000
0100
1000
0100
1000
0010
0001
0010
1000
0010
1000
0100
,
0010
0100
0000
0110
0000
0010
0100
1000
0100
0010
0100
1000
0001
0100
0010
1000
,
0100
1000
0000
1100
0000
0100
0010
0001
0010
0001
0010
0100
1000
0001
1000
0100
,
1000
0100
1000
0000
0011
0100
1000
0010
0100
0010
1000
0001
0100
0010
0100
0001
,
1000
0001
0010
0001
0011
0000
1000
0100
0010
0001
0100
0010
1000
0100
0010
0100
,
0010
0001
1000
0001
1001
0000
0001
0100
0010
1000
0001
0100
0010
1000
0001
0010
,
0100
0000
1000
0000
0001
0000
0010
0000
0110
0000
0000
0000
1000
0000
0100
0000
0010
0000
0001
0000
1000
0000
0100
0000
0010
0001
0010
0000
0000
0000
0001
0000
,
0010
0001
0000
0011
0000
0001
0010
0100
1000
0100
0010
0001
1000
0100
0010
0100
,
0010
0100
0000
1100
0000
0010
0100
0001
0100
0010
0100
0010
1000
0001
0100
0010
,
1000
0100
0000
1100
0000
0010
1000
0100
0010
0100
1000
0100
0010
0001
0010
0100
,
0010
0100
0000
1100
0000
0010
0100
0001
1000
0100
0010
0001
1000
0100
0010
0001
,
1000
0100
1000
0100
0010
0001
0010
0001
0100
0010
0100
0010
1000
0001
1000
0001
,
1000
0001
0010
0100
1000
0001
0010
0100
1000
0100
0010
0100
0010
0100
1000
0100
,
0001
0100
0010
0100
1000
0100
0010
0100
0010
0100
0001
0100
0001
1000
0100
0010
,
0001
0000
1000
0000
0100
0000
0010
0000
0001
0000
0010
0000
0100
0000
1000
0000
0001
0000
0010
0000
0100
1000
0100
0000
1000
0000
0100
0000
0010
0000
0001
0000
,
1000
0100
0010
0001
0100
0010
1000
0100
0010
0001
0010
0100
0010
0100
1000
0001
,
0010
0100
1000
0001
0010
0100
1000
0100
0010
0100
0010
0001
1000
0001
1000
0001
,
1000
0010
0100
0010
0100
0010
1000
0010
0100
0001
1000
0100
0010
0001
0100
0010
,
0100
0000
0010
0000
1000
0000
0100
0000
1000
0000
0100
0000
0010
0000
0000
0000
0100
0010
0100
0010
0100
0010
0100
0010
0100
0010
0100
0010
0100
0000
0000
0000
,
1001
0000
0000
1100
0000
0000
0110
0000
0011
0000
0000
0110
0000
0000
1100
0000
,
1100
0000
0000
0110
0000
0000
0101
0000
0220
0330
1000
0100
1000
0001
1000
0001
,
1000
0001
1000
0001
1000
0100
0010
0100
0010
0100
0010
0100
1000
0001
0100
0001
,
0100
0001
0100
0001
1000
0001
0100
0001
0010
0001
0100
0001
1000
0001
1000
0001
,
1001
0000
0000
0011
0000
0000
0110
0000
1001
0000
0000
1100
0000
0000
0011
0000
,
0110
0000
0000
1001
0000
0000
1001
0000
0011
0000
0000
0000
0000
0000
0000
0000
,
1000
0100
1000
0100
0010
0001
0010
0001
1000
0001
1000
0001
0010
0001
1000
0001
,
1000
0100
0010
0001
1000
0100
0010
0001
1000
0100
0010
0001
1001
0000
0000
0000
,
1000
0001
1000
0001
1000
0001
1000
0001
1000
0001
1000
0001
1000
0001
1000
0000
1001
0000
0000
0000
0000
0000
0110
0000
0000
0000
0000
0000
1001
0000
0000
0000
,
0110
0000
0000
1100
0000
0000
0011
0000
0110
0000
0000
0011
0000
0000
1100
0000
,
1001
0000
0000
0000
0000
0000
0000
0000
0110
0000
0000
1100
0000
0000
1100
0000
,
0011
0000
0000
1001
0000
0000
1001
0000
0110
0000
0000
1010
0000
0000
0011
0000
,
0011
0000
0000
0000
0000
0000
0000
0000
0001
1000
0001
0000
0000
0000
0000
0000
1001
0000
0000
0000
0000
0000
1100
0000
0000
0000
0000
0000
1100
0000
0000
0000
,
0011
0000
0000
0110
0000
0000
0110
0000
0011
0000
0000
0110
0000
0000
1100
0000
,
1001
0000
0000
0000
0000
0000
0000
0000
0110
0000
0000
1100
0000
0000
0011
0000
,
0110
0000
0000
0011
0000
0000
1010
0000
0101
0000
0000
1010
0000
0000
1001
0000
,
1000
0001
1000
0000
0100
0000
0010
0000
0001
0000
1000
0000
0100
0000
1000
0000
1001
0000
0000
0000
0000
0000
0110
0000
0000
0000
0000
0000
1001
0000
0000
0000
,
0110
0000
0000
1100
0000
0000
0011
0000
0110
0000
0000
0011
0000
0000
1100
0000
,
1001
0000
0000
0000
0000
0000
0000
0000
0110
0000
0000
1100
0000
0000
1100
0000
,
0011
0000
0000
1001
0000
0000
1001
0000
0110
0000
0000
1010
0000
0000
0011
0000
,
1001
0000
0000
0000
0110
0000
0000
0000
1100
0000
0000
1010
0000
0000
0101
0000
,
0011
0000
0001
0010
0001
0010
0001
0000
1100
0000
0000
1010
0000
0000
1100
0000
,
1010
0000
0010
1000
0010
1000
0010
0000
1010
0000
0000
1100
0000
0000
1001
0000
,
1100
0000
0000
0110
0000
0000
0011
0000
0101
0000
0000
0011
0000
0000
1001
0000
,
0011
0000
0000
0000
1000
0001
1000
0001
1000
0000
0000
0000
0000
0000
0000
0000
1000
0000
0100
0000
1000
0000
1100
0000
0000
0000
0001
0000
0010
0000
0001
0000
,
0010
0M01
0010
010M
10M0
0100
1000
0100
1000
0M01
1000
1001
0000
M10M
0010
0100
,
10M0
0100
M010
0M01
10M0
010M
M010
0M01
10M0
010M
1000
0100
1000
0100
10M0
010M
,
M010
0M01
0010
0001
0010
0001
0M10
0001
01M0
0001
01M0
0001
01M0
0001
0M10
0001
,
01M0
0000
0001
0000
0100
0001
0100
0000
0001
0000
0100
0000
0001
0000
1M00
0000
00M1
0000
1000
0000
0M01
0000
10M0
0000
0001
0000
1M00
0000
00M1
0000
1000
0000
,
0001
0010
010M
10M0
0M01
M010
010M
10M0
0100
0010
M100
0010
010M
0010
0100
10M0
,
0100
M010
0M01
10M0
010M
M010
0M01
10M0
0M01
M010
010M
10M0
0M01
M010
010M
10M0
,
0M01
10M0
0M01
1000
0100
M010
0100
0010
0M01
0010
010M
10M0
0M01
M010
010M
10M0
,
0M01
0000
M010
0000
0100
0000
1000
0000
0100
1000
0100
1000
0100
0000
0000
0M00
20MM
0000
3100
0000
1000
0000
1100
0000
0000
0000
0010
0000
0001
0000
0010
0000
,
0002
0013
0100
1000
0002
0013
0100
1000
0200
1300
0100
1100
0000
0100
0010
0100
,
0020
0031
0100
0010
2000
3001
0100
0010
2000
3100
0010
0110
0000
0010
0100
1000
,
0002
0103
0010
1000
0002
0103
0010
1000
0200
1300
0100
1100
0000
0010
0001
0010
,
0200
0310
0100
1000
0100
1000
0100
0010
0200
0310
0100
0110
0000
0001
0010
0100
,
2000
3001
0010
0100
2000
3100
0010
0001
0020
0130
1000
1100
0000
0100
0010
0100
,
0020
0130
0010
0001
2000
3010
0100
0001
2000
3010
0100
0101
0000
1000
0100
1000
,
0200
1300
0100
0010
0002
0013
0001
0010
0002
1003
0001
0100
0001
0010
0001
0100
,
0002
1003
0001
1000
0100
0010
0001
1000
2002
0000
0000
0000
0000
0000
0000
0000
,
0000
0000
0000
0000
0000
0000
0000
0000
0000
0000
0000
0000
0000
0000
0000
3003
,
MMMM
0000
000M
M000
0000
0000
M000
0000
0000
M000
0000
0000
M000
0000
0000
M000
0000
0000
M000
0000
0000
0000
0000
0000
0000
0000
0000
0000
0000
0000
0000
0000
0000
0000
0000
0000
0000
0000
0000
0000
0000
0000
0000
0000
0000
0000
0000
0000
;

//---------------dance-single - Blank----------------
#NOTES:
     dance-single:
     Blank:
     Hard:
     11:
     0.771,0.968,0.785,0.384,0.658,512.000,96.000,47.000,60.000,0.000:

0000
0000
0000
0000
,
0000
0000
0000
0000
,
0000
0000
0000
0000
,
0000
0000
0000
0000
,
2001
0000
3200
0302
,
0203
0000
0320
0032
,
0203
0000
2300
3020
,
0032
0003
0022
0033
,
0001
1000
0001
1000
0000
1000
0100
0010
0001
1000
0100
0010
0001
1000
0001
0010
,
0100
1000
0001
1000
0000
1000
0100
0010
0001
1000
0100
0010
0001
0010
0001
0010
,
0001
0010
0100
1000
0000
1000
0100
1000
0100
1000
0100
0010
0001
0010
0001
0010
,
0001
0010
0000
0011
0000
0001
0010
0100
1000
0001
0010
0100
1000
0001
1000
0001
,
1000
0100
0000
1100
0000
1000
0100
1000
0100
0010
0001
0010
0001
0010
0001
0000
,
1000
0100
0010
0001
1000
0100
0010
0001
1000
0001
1000
0001
1000
0001
1000
0000
,
0010
0100
0010
0100
0010
0100
0010
0100
0010
0100
0010
0100
0010
0100
0010
0000
,
1000
0100
1000
0000
0001
0010
0001
0000
0100
0010
0100
0000
1000
0001
1000
0000
,
1000
1100
0100
0110
0100
1100
0100
0110
,
0010
0011
0001
1001
1000
1100
0110
0011
,
0010
0110
0100
1100
0100
0110
0010
0011
,
1001
0000
0100
0000
1001
0000
0010
0000
0110
0000
0110
0000
4000
0004
0000
3003
,
1000
0100
0010
0001
1100
1100
0011
0011
,
0001
0010
0100
1000
1001
0110
1001
0000
,
1100
0100
0101
0100
0110
0100
0101
0001
,
1001
0000
0100
0000
1001
0000
0000
0000
4000
0004
0000
0000
0000
0000
3003
0000
,
1000
0100
1000
0000
0100
0000
0110
0000
0100
0000
0110
0000
0100
0000
M00M
0000
,
0100
0001
0100
0000
0101
0000
0001
0000
0011
0000
0010
0000
0110
0000
MMMM
0000
,
0010
0100
0010
0000
0110
0000
0100
0000
0101
0000
1000
0000
1001
0MM0
M00M
0MM0
,
1000
0100
1000
0000
1100
0000
1000
0001
0010
0100
1000
0400
0040
0000
0330
0000
,
1000
0001
1000
0001
1000
0001
1000
0001
0100
0001
0100
0001
0100
0001
0100
0001
,
0010
0100
0010
0100
0010
0100
0010
0100
0010
0100
0010
0100
1000
0001
1000
0000
,
1000
1000
0001
0001
0001
0010
0100
1000
,
1000
0100
0010
0001
1000
0100
0010
0001
4000
0400
0000
0000
0000
0000
3300
0000
,
1100
0000
0000
0100
0000
0000
0100
0000
0110
0000
0000
0100
0000
0000
0100
0000
,
0101
0000
0000
0100
0000
0000
0001
0000
2002
0000
0000
3003
0000
0000
0000
0000
,
0001
0100
0001
0000
0100
0001
0100
0000
0010
0100
0010
0000
0100
0010
0100
0000
,
0010
1000
0010
0000
1000
0010
1000
0000
1000
0100
0010
0000
0010
0100
1000
0000
,
1100
0000
0000
0100
0000
0000
0010
0000
0011
0000
0000
0001
0000
0000
0100
0000
,
0110
0000
0000
0010
0000
0000
1000
0000
1001
0000
0000
0000
0000
0000
0000
0000
,
1000
0100
1000
0000
0100
0010
0100
0000
0100
1000
0100
0000
1000
0001
1000
0000
,
1000
0100
0010
0001
1000
0100
0010
0001
1000
0001
1000
0000
0001
0000
0100
0000
,
M40M
0040
M00M
0000
M00M
0000
M33M
0000
1MM1
0000
0000
0100
0000
0000
0010
0000
,
0110
0000
0000
0010
0000
0000
0100
0000
0101
0000
0000
0001
0000
0000
1000
0000
,
2002
0000
3003
0000
0000
0000
0000
0000
1001
0000
0000
1000
0000
0000
0100
0000
,
0110
0000
0000
0010
0000
0000
0001
0000
0101
0000
0000
1000
0000
0000
0001
0000
,
0022
0000
0033
0000
0000
0000
0000
0000
1100
0000
0000
1000
0000
0000
1000
0000
,
0110
0000
0000
0100
0000
0000
0100
0000
0011
0000
0000
0010
0000
0000
0010
0000
,
0202
0000
0303
0000
0000
0000
0000
0000
1001
0000
0000
0100
0000
0000
0010
0000
,
1001
0000
0000
0010
0000
0000
0100
0000
0110
0000
0000
0100
0000
0000
0010
0000
,
0110
0000
0000
M0M0
0M0M
0000
M0M0
0M0M
1010
0000
0000
1000
0000
0000
0010
0000
,
0101
0000
0000
0100
0000
0000
0001
0000
1100
0000
0000
0100
0000
0000
1000
0000
,
2002
0000
3003
0000
0000
0000
0000
0000
0110
0000
0000
0010
0000
0000
0010
0000
,
0110
0000
0000
0100
0000
0000
0100
0000
1100
0000
0000
0100
0000
0000
0101
0000
,
0011
0000
0000
0000
1001
0000
0000
0000
2000
0000
0000
0100
0000
0000
0100
0000
,
310M
00M0
0M00
M000
0000
0000
0000
0000
0002
0000
0000
0010
0000
0000
0010
0000
,
M013
0M00
00M0
000M
0000
0000
0000
0000
1100
0000
0000
0100
0000
0000
1000
0000
,
1100
0000
0000
0001
0000
0000
0100
0000
0101
0000
0000
0010
0000
0000
0100
0000
,
M11M
0000
0MM0
0000
M00M
0000
0000
0000
1000
0001
1000
0001
0000
1000
0100
0010
,
0001
1000
0100
0010
0001
1000
0001
1000
0001
0010
0100
1000
0000
0001
1000
0001
,
1000
0100
0010
0100
0010
0100
0010
0000
1100
0000
0100
0000
0100
0000
0100
0000
,
1100
1100
1001
M00M
1001
0100
M01M
0100
,
1001
0000
0010
0100
0110
0000
0000
0000
1000
0000
1000
0000
0010
0000
0010
0000
,
0001
0000
0001
0000
0100
0000
0100
0000
1000
0000
1000
0000
0001
0000
0001
0M00
,
1000
0100
1000
0100
1000
0000
0000
0000
0001
0000
0001
0000
0100
0000
0100
0000
,
1000
1000
0100
0100
0001
0001
0100
01M0
,
0010
0100
0010
0100
0010
0100
0010
0000
2100
0000
0000
0000
0000
0000
0000
0000
,
3200
0302
0203
0000
,
2300
3020
2030
0000
,
3002
0023
2030
0000
,
3020
0000
0000
0030
0120
0000
0000
0000
,
0032
0203
0320
0000
,
2030
3002
2003
0000
,
3200
0320
0032
0000
,
1003
0000
2002
0000
,
0000
0000
0000
0000
0000
0000
0000
0000
3003
0000
0000
0000
M00M
M00M
M00M
M00M
,
M00M
0000
0000
0000
;

//---------------dance-single - Blank----------------
#NOTES:
     dance-single:
     Blank:
     Medium:
     7:
     0.497,0.509,0.409,0.286,0.090,341.000,50.000,35.000,12.000,0.000:


0000
0000
0000
0000
,
0000
0000
0000
0000
,
0000
0000
0000
0000
,
0000
0000
0000
0000
,
2001
0000
0100
3010
,
0120
0000
0001
0130
,
0102
0000
0100
0013
,
0011
0000
1100
0000
,
1000
1000
1000
0000
0001
1000
0001
1000
,
0001
0000
1001
0000
0001
0010
0001
0010
,
0001
0000
1001
0000
1000
0100
1000
0100
,
1000
0000
1100
0000
1000
0100
0010
0001
,
0011
0010
0000
0010
0000
0010
0100
0010
,
0110
0100
0000
0100
0000
0100
1000
0100
,
1100
1000
0000
1000
0000
0001
0000
1000
,
1001
1000
0000
1000
0000
1000
0000
1000
,
0100
0010
0001
0000
0001
0000
0001
0000
,
1000
0100
1000
0000
1000
0000
1000
0000
,
0100
0010
0100
0000
0100
0000
0100
0000
,
1001
0000
0000
0000
0110
0000
1000
0001
,
1000
0001
0000
0001
0000
0001
1000
0001
,
1000
0100
0000
0100
0000
0100
0010
0100
,
1002
0000
0000
0003
2100
0000
0000
3000
,
1100
0110
0011
0110
,
1000
0100
1000
0100
1000
0100
1000
0001
,
0100
0001
0100
0001
0100
0001
0100
0001
,
1000
0010
1000
0010
1000
0010
1000
0010
,
1000
0001
0100
0010
0100
0001
0101
0000
,
1000
0100
1000
0100
0000
0100
1000
0100
,
1000
0100
1000
0100
0000
0100
1000
0100
,
1100
0000
0110
0000
,
1001
0110
1001
0110
,
0010
0000
0000
0010
0000
0000
0010
0000
0100
0000
0000
0100
0000
0000
0100
0000
,
0001
0000
0000
0001
0000
0000
0001
0000
2002
0000
0000
0000
3003
0000
0000
0000
,
1000
0100
1000
0000
0001
0100
0001
0000
,
1000
0100
1000
0000
0001
0100
0001
0000
,
0010
0000
0000
0100
0000
0000
0010
0000
1000
0000
0000
0001
0000
0000
1000
0000
,
0001
0000
0000
0010
0000
0000
0100
0000
1100
0000
0000
0000
0000
0000
0000
0000
,
2200
0000
0000
3300
0022
0000
0000
0033
,
2100
0100
0100
3100
,
2002
0000
0000
0000
0000
0000
3003
0000
0001
0000
0000
0001
0000
0000
1000
0000
,
1000
0000
0000
1000
0000
0000
0100
0000
0010
0000
0000
0100
0000
0000
1000
0000
,
1001
0000
0000
0000
0001
0100
0001
0100
,
0001
1000
0001
1000
0001
0010
0100
1000
,
2200
0000
0000
0000
3300
0000
0000
0000
0100
0000
0000
0100
0000
0000
0100
0000
,
0010
0000
0000
0010
0000
0000
0001
0000
0001
0000
0000
0010
0000
0000
0100
0000
,
1000
0000
0000
0000
0100
0001
0100
0001
,
1000
0100
1000
0100
0010
0100
0010
0100
,
0220
0000
0000
0000
0330
0000
0000
0000
0001
0000
0000
1000
0000
0000
0001
0000
,
0100
0000
0000
0010
0000
0000
0100
0000
0001
0000
0000
0010
0000
0000
0100
0000
,
0110
0000
0000
0000
1000
0001
1000
0001
,
1000
0100
0010
0001
1000
0001
1000
0001
,
1000
0000
0000
0000
0001
0000
0000
0000
0010
0000
0000
0010
0000
0000
0100
0000
,
0100
0000
0000
0000
0000
0000
0000
0000
0001
0000
0000
0010
0000
0000
0010
0000
,
0001
0000
0000
0000
0000
0000
0000
0000
1001
0000
0000
0001
0000
0000
1000
0000
,
1100
0000
0000
0100
0000
0000
1000
0000
1010
0000
0000
0010
0000
0000
1000
0000
,
0002
0000
0000
0003
0001
0000
0100
0000
,
0001
0100
0010
0010
,
0100
0000
0100
0000
0001
0100
0001
0100
,
0001
0100
0001
0100
0001
1000
0001
1000
,
0001
1000
0001
1000
0100
0000
1100
0000
,
0100
0100
0110
0010
,
0010
0000
0010
0000
0001
0010
0100
1000
,
0001
0010
0100
1000
0001
1000
0001
1000
,
2002
3003
1002
0000
,
0010
0103
0210
0000
,
0001
0310
2010
0000
,
0010
3100
1100
0000
,
0110
0000
0002
0000
,
2003
3200
0320
0000
,
0032
0000
0000
0000
0000
0000
2003
0000
0000
0000
0000
0000
3200
0000
0000
0000
M000
0000
0000
0000
0000
M000
0000
0000
,
0320
M000
0000
2M30
0000
0000
3M10
0000
0000
0MM0
0000
0000
,
01M1
00M0
022M
000M
,
000M
0330
0000
0000
;

//---------------dance-single - Blank----------------
#NOTES:
     dance-single:
     Blank:
     Easy:
     3:
     0.316,0.422,0.123,0.221,0.041,229.000,15.000,27.000,0.000,0.000:

0000
0000
0000
0000
,
0000
0000
0000
0000
,
0000
0000
0000
0000
,
0000
0000
0000
0000
,
1001
0000
0001
1000
,
0200
0300
0010
0010
,
0200
0300
1000
1000
,
1100
0000
0001
0000
,
0100
0100
0001
0001
,
0100
0100
0010
0000
,
0100
0100
0001
0001
,
1000
0100
0010
0001
,
0010
0110
0000
0100
,
1000
1001
0000
0000
,
0020
0030
0200
0300
,
0220
0000
0000
0330
,
1000
0000
1000
0000
0001
0001
0001
0000
,
0100
0000
0100
0000
0010
0010
0010
0000
,
1000
0000
0100
0000
1000
0100
1000
0000
,
0001
0000
0100
0000
0001
0100
0001
0000
,
1000
0100
0010
0001
,
1000
0100
0010
0001
,
2000
0000
0000
3000
0002
0000
0000
0003
,
1001
0001
1001
1001
,
1000
0100
0000
0100
0000
0100
0000
0000
,
0000
0010
0000
0010
0000
0010
0000
0000
,
0000
0001
0000
1000
0000
0001
0000
0000
,
0000
0100
0000
0010
0000
0100
0010
0100
,
0000
0001
0000
0001
0000
0001
0000
0000
,
0000
1000
0000
0100
0000
0010
0000
0000
,
0000
0010
0000
0100
0000
0010
0000
0000
,
0000
0001
0000
1000
0000
0001
1000
0001
,
1000
0000
0000
1000
0000
0000
1000
0000
0001
0000
0000
0000
0001
0000
0000
0000
,
0001
0000
0000
1000
0000
0000
0001
0000
2000
0000
0000
0000
3000
0000
0000
0000
,
0000
0000
0000
0000
,
0000
0000
0000
0000
,
2000
3000
0200
0300
,
0010
0000
0000
0001
0000
0000
0010
0000
0001
0000
0000
0000
0000
0000
0000
0000
,
1000
1000
1000
0000
,
0001
0001
0001
0000
,
2002
0000
0000
3003
1000
0010
1000
0000
,
1000
0000
0010
0000
1000
0000
0000
0000
0100
0000
0000
0100
0000
0000
0100
0000
,
0010
0000
0000
0000
0001
0100
0010
0000
,
0010
0000
0100
0000
0001
0000
0000
0000
0100
0000
0000
0010
0000
0000
0100
0000
,
0010
0000
0000
0000
0000
0000
0000
0000
1000
0000
0000
1000
0000
0000
1000
0000
,
0001
0000
0000
0001
0000
0000
0001
0000
0010
0000
0000
0000
0100
0000
0000
0000
,
1000
0000
1000
0100
,
0010
0001
0100
0010
,
0100
0000
0000
0000
0000
0000
0000
0000
0010
0000
0000
0010
0000
0000
0010
0000
,
0100
0000
0000
0100
0000
0000
0100
0000
0001
0000
0000
0001
0000
0000
0001
0000
,
1000
0000
2000
3100
,
0200
1300
0001
0010
,
0100
0000
0000
0000
1000
0001
1000
0001
,
1000
0000
0000
0000
0100
0010
0100
0010
,
0100
0000
0000
0000
0010
0001
0010
0000
,
0100
1000
0100
0000
1000
0000
0100
0000
,
0010
0001
0100
0101
,
0000
0010
0011
0001
,
0000
0000
1000
1000
,
0100
0010
0001
1000
,
1001
0000
0010
0110
,
0000
0001
0010
0100
,
0000
1000
0100
0010
,
0001
0001
1000
0100
,
1000
0100
2100
0000
,
0000
0000
3002
0000
,
0000
0000
0203
0000
,
0000
0000
0320
0000
,
0230
0000
0302
0000
,
0000
0000
2003
0000
,
0000
0000
3200
0000
,
0000
0000
0320
0000
,
0230
0300
2200
0000
,
0000
0000
0000
3300
;
